<?xml version="1.0" standalone="no"?>
<!DOCTYPE svg PUBLIC "-//W3C//DTD SVG 1.1//EN" "http://www.w3.org/Graphics/SVG/1.1/DTD/svg11.dtd" >
<svg xmlns="http://www.w3.org/2000/svg" xmlns:xlink="http://www.w3.org/1999/xlink" version="1.1">
<metadata>
Created by FontForge 20190801 at Wed Dec 14 09:11:52 2016
 By Jimmy Wärting
Copyright 2011 The Philosopher Project Authors (lemonad@jovanny.ru)
</metadata>
<defs>
<font id="Philosopher-Bold" horiz-adv-x="496" >
  <font-face 
    font-family="Philosopher"
    font-weight="700"
    font-stretch="normal"
    units-per-em="1000"
    panose-1="0 0 8 0 0 0 0 0 0 0"
    ascent="800"
    descent="-200"
    x-height="470"
    cap-height="660"
    bbox="-486 -330 1043 996"
    underline-thickness="50"
    underline-position="-100"
    unicode-range="U+000D-2215"
  />
<missing-glyph horiz-adv-x="542" 
d="M444 864v-1084h-343v1084h343zM361 791h-179v-35h71v-41h-72v-35h180v35h-72v41h72v35zM289 652h-108v-113h180v37h-72v76zM253 615v-39h-36v39h36zM361 510h-180v-36h72v-40h-72v-36h108v76h72v36zM361 444h-36v-71h-144v-37h180v108zM361 312h-108v-60h36v24h36v-50
h-108v86h-36v-122h180v122zM361 125h-180v-123h180v123zM325 89v-51h-108v51h108zM361 -23h-180v-35h76l-76 -51v-36h180v36h-111l76 51h35v35z" />
    <glyph glyph-name=".notdef" horiz-adv-x="542" 
d="M444 864v-1084h-343v1084h343zM361 791h-179v-35h71v-41h-72v-35h180v35h-72v41h72v35zM289 652h-108v-113h180v37h-72v76zM253 615v-39h-36v39h36zM361 510h-180v-36h72v-40h-72v-36h108v76h72v36zM361 444h-36v-71h-144v-37h180v108zM361 312h-108v-60h36v24h36v-50
h-108v86h-36v-122h180v122zM361 125h-180v-123h180v123zM325 89v-51h-108v51h108zM361 -23h-180v-35h76l-76 -51v-36h180v36h-111l76 51h35v35z" />
    <glyph glyph-name="NULL" horiz-adv-x="0" 
 />
    <glyph glyph-name="NULL" horiz-adv-x="0" 
 />
    <glyph glyph-name="nonmarkingreturn" unicode="&#xd;" horiz-adv-x="250" 
 />
    <glyph glyph-name="space" unicode=" " horiz-adv-x="250" 
 />
    <glyph glyph-name="A" unicode="A" horiz-adv-x="647" 
d="M514 22.5q-51 26.5 -83 103.5l-23 56h-266l-82 -182h-52l295 660h45l224 -534q38 -93 104 -100v-25q-18 -5 -48 -5q-63 0 -114 26.5zM163 227h226l-110 261z" />
    <glyph glyph-name="Aacute" unicode="&#xc1;" horiz-adv-x="647" 
d="M514 22.5q-51 26.5 -83 103.5l-23 56h-266l-82 -182h-52l295 660h45l224 -534q38 -93 104 -100v-25q-18 -5 -48 -5q-63 0 -114 26.5zM163 227h226l-110 261zM301 700l42 140h119l-106 -140h-55z" />
    <glyph glyph-name="Abreve" unicode="&#x102;" horiz-adv-x="647" 
d="M514 22.5q-51 26.5 -83 103.5l-23 56h-266l-82 -182h-52l295 660h45l224 -534q38 -93 104 -100v-25q-18 -5 -48 -5q-63 0 -114 26.5zM163 227h226l-110 261zM239 715.5q-37 25.5 -56 68.5l28 21q17 -21 45.5 -35.5t67.5 -14.5t67.5 14.5t45.5 35.5l28 -21
q-19 -43 -56 -68.5t-85 -25.5t-85 25.5z" />
    <glyph glyph-name="uni1EAE" unicode="&#x1eae;" horiz-adv-x="647" 
d="M514 22.5q-51 26.5 -83 103.5l-23 56h-266l-82 -182h-52l295 660h45l224 -534q38 -93 104 -100v-25q-18 -5 -48 -5q-63 0 -114 26.5zM163 227h226l-110 261zM239 715.5q-37 25.5 -56 68.5l28 21q17 -21 45.5 -35.5t67.5 -14.5t67.5 14.5t45.5 35.5l28 -21
q-19 -43 -56 -68.5t-85 -25.5t-85 25.5zM293 850l42 140h119l-106 -140h-55z" />
    <glyph glyph-name="uni1EB6" unicode="&#x1eb6;" horiz-adv-x="647" 
d="M514 22.5q-51 26.5 -83 103.5l-23 56h-266l-82 -182h-52l295 660h45l224 -534q38 -93 104 -100v-25q-18 -5 -48 -5q-63 0 -114 26.5zM163 227h226l-110 261zM287 -159q-13 14 -13 37q0 22 13.5 36t36.5 14q24 0 37.5 -14t13.5 -36q0 -23 -13.5 -37t-37.5 -14t-37 14z
M239 715.5q-37 25.5 -56 68.5l28 21q17 -21 45.5 -35.5t67.5 -14.5t67.5 14.5t45.5 35.5l28 -21q-19 -43 -56 -68.5t-85 -25.5t-85 25.5z" />
    <glyph glyph-name="uni1EB0" unicode="&#x1eb0;" horiz-adv-x="647" 
d="M514 22.5q-51 26.5 -83 103.5l-23 56h-266l-82 -182h-52l295 660h45l224 -534q38 -93 104 -100v-25q-18 -5 -48 -5q-63 0 -114 26.5zM163 227h226l-110 261zM239 715.5q-37 25.5 -56 68.5l28 21q17 -21 45.5 -35.5t67.5 -14.5t67.5 14.5t45.5 35.5l28 -21
q-19 -43 -56 -68.5t-85 -25.5t-85 25.5zM319 850l-106 140h119l42 -140h-55z" />
    <glyph glyph-name="uni1EB2" unicode="&#x1eb2;" horiz-adv-x="647" 
d="M514 22.5q-51 26.5 -83 103.5l-23 56h-266l-82 -182h-52l295 660h45l224 -534q38 -93 104 -100v-25q-18 -5 -48 -5q-63 0 -114 26.5zM163 227h226l-110 261zM239 715.5q-37 25.5 -56 68.5l28 21q17 -21 45.5 -35.5t67.5 -14.5t67.5 14.5t45.5 35.5l28 -21
q-19 -43 -56 -68.5t-85 -25.5t-85 25.5zM311 839q4 11 13 26q15 23 15 41q0 12 -9.5 20t-23.5 8q-18 0 -28 -10.5t-15 -41.5l-55 1q0 56 23 84.5t75 28.5q47 0 73 -23t26 -58q0 -16 -6 -27.5t-17 -24.5q-12 -15 -17.5 -25.5t-6.5 -25.5h-52q1 16 5 27z" />
    <glyph glyph-name="uni1EB4" unicode="&#x1eb4;" horiz-adv-x="647" 
d="M514 22.5q-51 26.5 -83 103.5l-23 56h-266l-82 -182h-52l295 660h45l224 -534q38 -93 104 -100v-25q-18 -5 -48 -5q-63 0 -114 26.5zM163 227h226l-110 261zM239 715.5q-37 25.5 -56 68.5l28 21q17 -21 45.5 -35.5t67.5 -14.5t67.5 14.5t45.5 35.5l28 -21
q-19 -43 -56 -68.5t-85 -25.5t-85 25.5zM223.5 963q17.5 22 50.5 22q17 0 29.5 -6.5t28.5 -17.5q2 -2 13 -9t21 -7q16 0 25.5 12t9.5 28h40q0 -56 -17 -78t-50 -22q-16 0 -28 6t-30 18q-9 6 -18 11t-17 5q-16 0 -25.5 -12t-9.5 -28h-40q0 56 17.5 78z" />
    <glyph glyph-name="Acircumflex" unicode="&#xc2;" horiz-adv-x="647" 
d="M514 22.5q-51 26.5 -83 103.5l-23 56h-266l-82 -182h-52l295 660h45l224 -534q38 -93 104 -100v-25q-18 -5 -48 -5q-63 0 -114 26.5zM163 227h226l-110 261zM178 685l80 125h130l80 -125h-60l-85 80l-85 -80h-60z" />
    <glyph glyph-name="uni1EA4" unicode="&#x1ea4;" horiz-adv-x="647" 
d="M514 22.5q-51 26.5 -83 103.5l-23 56h-266l-82 -182h-52l295 660h45l224 -534q38 -93 104 -100v-25q-18 -5 -48 -5q-63 0 -114 26.5zM163 227h226l-110 261zM179 715l80 125h130l80 -125h-60l-85 80l-85 -80h-60zM452 782l42 140h119l-106 -140h-55z" />
    <glyph glyph-name="uni1EAC" unicode="&#x1eac;" horiz-adv-x="647" 
d="M514 22.5q-51 26.5 -83 103.5l-23 56h-266l-82 -182h-52l295 660h45l224 -534q38 -93 104 -100v-25q-18 -5 -48 -5q-63 0 -114 26.5zM163 227h226l-110 261zM287 -159q-13 14 -13 37q0 22 13.5 36t36.5 14q24 0 37.5 -14t13.5 -36q0 -23 -13.5 -37t-37.5 -14t-37 14z
M179 715l80 125h130l80 -125h-60l-85 80l-85 -80h-60z" />
    <glyph glyph-name="uni1EA6" unicode="&#x1ea6;" horiz-adv-x="647" 
d="M514 22.5q-51 26.5 -83 103.5l-23 56h-266l-82 -182h-52l295 660h45l224 -534q38 -93 104 -100v-25q-18 -5 -48 -5q-63 0 -114 26.5zM163 227h226l-110 261zM179 715l80 125h130l80 -125h-60l-85 80l-85 -80h-60zM464 802l-106 140h119l42 -140h-55z" />
    <glyph glyph-name="uni1EA8" unicode="&#x1ea8;" horiz-adv-x="647" 
d="M514 22.5q-51 26.5 -83 103.5l-23 56h-266l-82 -182h-52l295 660h45l224 -534q38 -93 104 -100v-25q-18 -5 -48 -5q-63 0 -114 26.5zM163 227h226l-110 261zM179 715l80 125h130l80 -125h-60l-85 80l-85 -80h-60zM460 835q4 11 13 26q15 23 15 41q0 12 -9.5 20t-23.5 8
q-18 0 -28 -10.5t-15 -41.5l-55 1q0 56 23 84.5t75 28.5q47 0 73 -23t26 -58q0 -16 -6 -27.5t-17 -24.5q-12 -15 -17.5 -25.5t-6.5 -25.5h-52q1 16 5 27z" />
    <glyph glyph-name="uni1EAA" unicode="&#x1eaa;" horiz-adv-x="647" 
d="M514 22.5q-51 26.5 -83 103.5l-23 56h-266l-82 -182h-52l295 660h45l224 -534q38 -93 104 -100v-25q-18 -5 -48 -5q-63 0 -114 26.5zM163 227h226l-110 261zM179 715l80 125h130l80 -125h-60l-85 80l-85 -80h-60zM223.5 944q17.5 22 50.5 22q17 0 29.5 -6.5t28.5 -17.5
q2 -2 13 -9t21 -7q16 0 25.5 12t9.5 28h40q0 -56 -17 -78t-50 -22q-16 0 -28 6t-30 18q-9 6 -18 11t-17 5q-16 0 -25.5 -12t-9.5 -28h-40q0 56 17.5 78z" />
    <glyph glyph-name="Adieresis" unicode="&#xc4;" horiz-adv-x="647" 
d="M514 22.5q-51 26.5 -83 103.5l-23 56h-266l-82 -182h-52l295 660h45l224 -534q38 -93 104 -100v-25q-18 -5 -48 -5q-63 0 -114 26.5zM163 227h226l-110 261zM198 706q-15 16 -15 40t15 40t41 16t41 -16t15 -40t-15 -40t-41 -16t-41 16zM368 706q-15 16 -15 40t15 40
t41 16t41 -16t15 -40t-15 -40t-41 -16t-41 16z" />
    <glyph glyph-name="uni1EA0" unicode="&#x1ea0;" horiz-adv-x="647" 
d="M514 22.5q-51 26.5 -83 103.5l-23 56h-266l-82 -182h-52l295 660h45l224 -534q38 -93 104 -100v-25q-18 -5 -48 -5q-63 0 -114 26.5zM163 227h226l-110 261zM287 -159q-13 14 -13 37q0 22 13.5 36t36.5 14q24 0 37.5 -14t13.5 -36q0 -23 -13.5 -37t-37.5 -14t-37 14z" />
    <glyph glyph-name="Agrave" unicode="&#xc0;" horiz-adv-x="647" 
d="M514 22.5q-51 26.5 -83 103.5l-23 56h-266l-82 -182h-52l295 660h45l224 -534q38 -93 104 -100v-25q-18 -5 -48 -5q-63 0 -114 26.5zM163 227h226l-110 261zM319 705l-106 140h119l42 -140h-55z" />
    <glyph glyph-name="uni1EA2" unicode="&#x1ea2;" horiz-adv-x="647" 
d="M514 22.5q-51 26.5 -83 103.5l-23 56h-266l-82 -182h-52l295 660h45l224 -534q38 -93 104 -100v-25q-18 -5 -48 -5q-63 0 -114 26.5zM163 227h226l-110 261zM329 738q4 11 13 26q15 23 15 41q0 12 -9.5 20t-23.5 8q-18 0 -28 -10.5t-15 -41.5l-55 1q0 56 23 84.5t75 28.5
q47 0 73 -23t26 -58q0 -16 -6 -27.5t-17 -24.5q-12 -15 -17.5 -25.5t-6.5 -25.5h-52q1 16 5 27z" />
    <glyph glyph-name="Aring" unicode="&#xc5;" horiz-adv-x="647" 
d="M514 22.5q-51 26.5 -83 103.5l-23 56h-266l-82 -182h-52l276 619q-21 11 -37.5 33.5t-16.5 52.5q0 42 26.5 68.5t68.5 26.5t68.5 -26.5t26.5 -68.5q0 -30 -17 -53t-38 -33l207 -493q38 -93 104 -100v-25q-18 -5 -48 -5q-63 0 -114 26.5zM348 660q22 15 22 45
q0 23 -13 36.5t-32 13.5t-32 -13.5t-13 -36.5q0 -30 23 -45h45zM163 227h226l-110 261z" />
    <glyph glyph-name="Atilde" unicode="&#xc3;" horiz-adv-x="647" 
d="M514 22.5q-51 26.5 -83 103.5l-23 56h-266l-82 -182h-52l295 660h45l224 -534q38 -93 104 -100v-25q-18 -5 -48 -5q-63 0 -114 26.5zM163 227h226l-110 261zM227.5 778q17.5 22 50.5 22q17 0 29.5 -6.5t28.5 -17.5q2 -2 13 -9t21 -7q16 0 25.5 12t9.5 28h40
q0 -56 -17 -78t-50 -22q-16 0 -28 6t-30 18q-9 6 -18 11t-17 5q-16 0 -25.5 -12t-9.5 -28h-40q0 56 17.5 78z" />
    <glyph glyph-name="AE" unicode="&#xc6;" horiz-adv-x="868" 
d="M348 660h376q85 0 85 -80v-85h-30q0 62 -31.5 91t-93.5 29h-161v-250h260v-45h-260v-275h171q57 0 95 25.5t63 88.5l27 -10l-29 -79q-13 -36 -31 -53t-56 -17h-370v190h-218l-107 -190h-60zM170 235h193v344z" />
    <glyph glyph-name="B" unicode="B" horiz-adv-x="644" 
d="M95 530q0 51 -14 75.5t-56 24.5h-10v30h270q126 0 210.5 -35t84.5 -140q0 -46 -36.5 -86.5t-102.5 -57.5q169 -17 169 -158q0 -104 -83 -143.5t-212 -39.5h-220v530zM300 361q65 0 102.5 30.5t37.5 98.5q0 69 -44.5 99.5t-110.5 30.5q-27 0 -42 -4l-18 -3v-252h75z
M300 40q83 0 126.5 36t43.5 102q0 138 -170 138h-75v-266q11 -4 20 -5q22 -5 50 -5h5z" />
    <glyph glyph-name="C" unicode="C" horiz-adv-x="679" 
d="M189.5 24.5q-74.5 44.5 -113.5 121.5t-39 174q0 100 43 182.5t118.5 130t168.5 47.5q88 0 147 -22.5t90 -58.5q18 -23 22 -57t4 -95h-30q-19 92 -70 140t-133 48q-102 0 -161 -72t-59 -243q0 -127 54 -211t166 -84q70 0 128.5 37t94.5 106l35 -27q-48 -84 -116 -122.5
t-172 -38.5q-103 0 -177.5 44.5z" />
    <glyph glyph-name="Ccedilla" unicode="&#xc7;" horiz-adv-x="679" 
d="M317 -160h50q18 0 29 9.5t11 22.5q0 15 -11 24t-29 9h-45v78q-89 9 -153 55t-98 119.5t-34 162.5q0 100 43 182.5t118.5 130t168.5 47.5q88 0 147 -22.5t90 -58.5q18 -23 22 -57t4 -95h-30q-19 92 -70 140t-133 48q-102 0 -161 -72t-59 -243q0 -127 54 -211t166 -84
q70 0 128.5 37t94.5 106l35 -27q-45 -81 -108.5 -119t-159.5 -41v-31q42 0 66 -21t24 -57t-24 -57t-66 -21h-70v46z" />
    <glyph glyph-name="D" unicode="D" horiz-adv-x="736" 
d="M95 530q0 51 -14 75.5t-56 24.5h-10v30h272q202 0 307.5 -85.5t105.5 -240.5q0 -99 -44.5 -174.5t-132 -117.5t-210.5 -42h-218v530zM310 40q70 0 124.5 35t85 101t30.5 154q0 87 -30.5 152.5t-85.5 101.5t-126 36h-8q-33 0 -53 -4l-22 -3v-566l22 -4q21 -3 53 -3h10z
" />
    <glyph glyph-name="Eth" unicode="&#xd0;" horiz-adv-x="736" 
d="M95 305h-70v50h70v175q0 51 -14 75.5t-56 24.5h-10v30h272q202 0 307.5 -85.5t105.5 -240.5q0 -99 -44.5 -174.5t-132 -117.5t-210.5 -42h-218v305zM310 40q70 0 124.5 35t85 101t30.5 154q0 87 -30.5 152.5t-85.5 101.5t-126 36h-8q-33 0 -53 -4l-22 -3v-258h75v-50h-75
v-258l22 -4q21 -3 53 -3h10z" />
    <glyph glyph-name="Dcroat" unicode="&#x110;" horiz-adv-x="736" 
d="M95 305h-70v50h70v175q0 51 -14 75.5t-56 24.5h-10v30h272q202 0 307.5 -85.5t105.5 -240.5q0 -99 -44.5 -174.5t-132 -117.5t-210.5 -42h-218v305zM310 40q70 0 124.5 35t85 101t30.5 154q0 87 -30.5 152.5t-85.5 101.5t-126 36h-8q-33 0 -53 -4l-22 -3v-258h75v-50h-75
v-258l22 -4q21 -3 53 -3h10z" />
    <glyph glyph-name="E" unicode="E" horiz-adv-x="600" 
d="M95 530q0 51 -14 75.5t-56 24.5h-10v30h441q85 0 85 -80v-85h-30q0 62 -31.5 91t-93.5 29h-161v-250h260v-45h-260v-275h171q57 0 95 25.5t63 88.5l27 -10l-29 -79q-13 -36 -31 -53t-56 -17h-370v530z" />
    <glyph glyph-name="Eacute" unicode="&#xc9;" horiz-adv-x="600" 
d="M95 530q0 51 -14 75.5t-56 24.5h-10v30h441q85 0 85 -80v-85h-30q0 62 -31.5 91t-93.5 29h-161v-250h260v-45h-260v-275h171q57 0 95 25.5t63 88.5l27 -10l-29 -79q-13 -36 -31 -53t-56 -17h-370v530zM280 700l42 140h119l-106 -140h-55z" />
    <glyph glyph-name="Ecircumflex" unicode="&#xca;" horiz-adv-x="600" 
d="M95 530q0 51 -14 75.5t-56 24.5h-10v30h441q85 0 85 -80v-85h-30q0 62 -31.5 91t-93.5 29h-161v-250h260v-45h-260v-275h171q57 0 95 25.5t63 88.5l27 -10l-29 -79q-13 -36 -31 -53t-56 -17h-370v530zM160 722l80 125h130l80 -125h-60l-85 80l-85 -80h-60z" />
    <glyph glyph-name="uni1EBE" unicode="&#x1ebe;" horiz-adv-x="600" 
d="M95 530q0 51 -14 75.5t-56 24.5h-10v30h441q85 0 85 -80v-85h-30q0 62 -31.5 91t-93.5 29h-161v-250h260v-45h-260v-275h171q57 0 95 25.5t63 88.5l27 -10l-29 -79q-13 -36 -31 -53t-56 -17h-370v530zM155 715l80 125h130l80 -125h-60l-85 80l-85 -80h-60zM428 782
l42 140h119l-106 -140h-55z" />
    <glyph glyph-name="uni1EC6" unicode="&#x1ec6;" horiz-adv-x="600" 
d="M95 530q0 51 -14 75.5t-56 24.5h-10v30h441q85 0 85 -80v-85h-30q0 62 -31.5 91t-93.5 29h-161v-250h260v-45h-260v-275h171q57 0 95 25.5t63 88.5l27 -10l-29 -79q-13 -36 -31 -53t-56 -17h-370v530zM263 -159q-13 14 -13 37q0 22 13.5 36t36.5 14q24 0 37.5 -14
t13.5 -36q0 -23 -13.5 -37t-37.5 -14t-37 14zM155 715l80 125h130l80 -125h-60l-85 80l-85 -80h-60z" />
    <glyph glyph-name="uni1EC0" unicode="&#x1ec0;" horiz-adv-x="600" 
d="M95 530q0 51 -14 75.5t-56 24.5h-10v30h441q85 0 85 -80v-85h-30q0 62 -31.5 91t-93.5 29h-161v-250h260v-45h-260v-275h171q57 0 95 25.5t63 88.5l27 -10l-29 -79q-13 -36 -31 -53t-56 -17h-370v530zM155 715l80 125h130l80 -125h-60l-85 80l-85 -80h-60zM440 802
l-106 140h119l42 -140h-55z" />
    <glyph glyph-name="uni1EC2" unicode="&#x1ec2;" horiz-adv-x="600" 
d="M95 530q0 51 -14 75.5t-56 24.5h-10v30h441q85 0 85 -80v-85h-30q0 62 -31.5 91t-93.5 29h-161v-250h260v-45h-260v-275h171q57 0 95 25.5t63 88.5l27 -10l-29 -79q-13 -36 -31 -53t-56 -17h-370v530zM155 715l80 125h130l80 -125h-60l-85 80l-85 -80h-60zM436 835
q4 11 13 26q15 23 15 41q0 12 -9.5 20t-23.5 8q-18 0 -28 -10.5t-15 -41.5l-55 1q0 56 23 84.5t75 28.5q47 0 73 -23t26 -58q0 -16 -6 -27.5t-17 -24.5q-12 -15 -17.5 -25.5t-6.5 -25.5h-52q1 16 5 27z" />
    <glyph glyph-name="uni1EC4" unicode="&#x1ec4;" horiz-adv-x="600" 
d="M95 530q0 51 -14 75.5t-56 24.5h-10v30h441q85 0 85 -80v-85h-30q0 62 -31.5 91t-93.5 29h-161v-250h260v-45h-260v-275h171q57 0 95 25.5t63 88.5l27 -10l-29 -79q-13 -36 -31 -53t-56 -17h-370v530zM155 715l80 125h130l80 -125h-60l-85 80l-85 -80h-60zM199.5 944
q17.5 22 50.5 22q17 0 29.5 -6.5t28.5 -17.5q2 -2 13 -9t21 -7q16 0 25.5 12t9.5 28h40q0 -56 -17 -78t-50 -22q-16 0 -28 6t-30 18q-9 6 -18 11t-17 5q-16 0 -25.5 -12t-9.5 -28h-40q0 56 17.5 78z" />
    <glyph glyph-name="Edieresis" unicode="&#xcb;" horiz-adv-x="600" 
d="M95 530q0 51 -14 75.5t-56 24.5h-10v30h441q85 0 85 -80v-85h-30q0 62 -31.5 91t-93.5 29h-161v-250h260v-45h-260v-275h171q57 0 95 25.5t63 88.5l27 -10l-29 -79q-13 -36 -31 -53t-56 -17h-370v530zM171 746q-15 16 -15 40t15 40t41 16t41 -16t15 -40t-15 -40t-41 -16
t-41 16zM351 746q-15 16 -15 40t15 40t41 16t41 -16t15 -40t-15 -40t-41 -16t-41 16z" />
    <glyph glyph-name="uni1EB8" unicode="&#x1eb8;" horiz-adv-x="600" 
d="M95 530q0 51 -14 75.5t-56 24.5h-10v30h441q85 0 85 -80v-85h-30q0 62 -31.5 91t-93.5 29h-161v-250h260v-45h-260v-275h171q57 0 95 25.5t63 88.5l27 -10l-29 -79q-13 -36 -31 -53t-56 -17h-370v530zM263 -159q-13 14 -13 37q0 22 13.5 36t36.5 14q24 0 37.5 -14
t13.5 -36q0 -23 -13.5 -37t-37.5 -14t-37 14z" />
    <glyph glyph-name="Egrave" unicode="&#xc8;" horiz-adv-x="600" 
d="M95 530q0 51 -14 75.5t-56 24.5h-10v30h441q85 0 85 -80v-85h-30q0 62 -31.5 91t-93.5 29h-161v-250h260v-45h-260v-275h171q57 0 95 25.5t63 88.5l27 -10l-29 -79q-13 -36 -31 -53t-56 -17h-370v530zM295 705l-106 140h119l42 -140h-55z" />
    <glyph glyph-name="uni1EBA" unicode="&#x1eba;" horiz-adv-x="600" 
d="M95 530q0 51 -14 75.5t-56 24.5h-10v30h441q85 0 85 -80v-85h-30q0 62 -31.5 91t-93.5 29h-161v-250h260v-45h-260v-275h171q57 0 95 25.5t63 88.5l27 -10l-29 -79q-13 -36 -31 -53t-56 -17h-370v530zM305 738q4 11 13 26q15 23 15 41q0 12 -9.5 20t-23.5 8
q-18 0 -28 -10.5t-15 -41.5l-55 1q0 56 23 84.5t75 28.5q47 0 73 -23t26 -58q0 -16 -6 -27.5t-17 -24.5q-12 -15 -17.5 -25.5t-6.5 -25.5h-52q1 16 5 27z" />
    <glyph glyph-name="uni1EBC" unicode="&#x1ebc;" horiz-adv-x="600" 
d="M95 530q0 51 -14 75.5t-56 24.5h-10v30h441q85 0 85 -80v-85h-30q0 62 -31.5 91t-93.5 29h-161v-250h260v-45h-260v-275h171q57 0 95 25.5t63 88.5l27 -10l-29 -79q-13 -36 -31 -53t-56 -17h-370v530zM199.5 818q17.5 22 50.5 22q17 0 29.5 -6.5t28.5 -17.5q2 -2 13 -9
t21 -7q16 0 25.5 12t9.5 28h40q0 -56 -17 -78t-50 -22q-16 0 -28 6t-30 18q-9 6 -18 11t-17 5q-16 0 -25.5 -12t-9.5 -28h-40q0 56 17.5 78z" />
    <glyph glyph-name="F" unicode="F" horiz-adv-x="539" 
d="M95 530q0 51 -14 75.5t-56 24.5h-10v30h419q85 0 85 -80v-85h-30q0 63 -31.5 91.5t-93.5 28.5h-139v-255h220v-45h-220v-315h-130v530z" />
    <glyph glyph-name="G" unicode="G" horiz-adv-x="734" 
d="M210.5 27.5q-82.5 47.5 -129 130t-46.5 182.5q0 96 41 173.5t116.5 122t172.5 44.5q88 0 150 -23t92 -58q17 -22 21.5 -56t4.5 -83h-30q-19 91 -69.5 133t-138.5 42q-112 0 -166 -84t-54 -211q0 -171 59.5 -245.5t160.5 -74.5q78 0 135 26v178q0 53 40 87.5t154 34.5v-25
q-64 0 -64 -95v-179q-57 -35 -122 -51t-143 -16q-102 0 -184.5 47.5z" />
    <glyph glyph-name="Gbreve" unicode="&#x11e;" horiz-adv-x="734" 
d="M210.5 27.5q-82.5 47.5 -129 130t-46.5 182.5q0 96 41 173.5t116.5 122t172.5 44.5q88 0 150 -23t92 -58q17 -22 21.5 -56t4.5 -83h-30q-19 91 -69.5 133t-138.5 42q-112 0 -166 -84t-54 -211q0 -171 59.5 -245.5t160.5 -74.5q78 0 135 26v178q0 53 40 87.5t154 34.5v-25
q-64 0 -64 -95v-179q-57 -35 -122 -51t-143 -16q-102 0 -184.5 47.5zM292 755.5q-37 25.5 -56 68.5l28 21q17 -21 45.5 -35.5t67.5 -14.5t67.5 14.5t45.5 35.5l28 -21q-19 -43 -56 -68.5t-85 -25.5t-85 25.5z" />
    <glyph glyph-name="H" unicode="H" horiz-adv-x="720" 
d="M95 530q0 51 -14 75.5t-56 24.5h-10v30h120q36 0 55 -12t27 -39.5t8 -78.5v-165h270v295h130v-530q0 -51 14 -75.5t56 -24.5h10v-30h-120q-36 0 -55 11.5t-27 39t-8 79.5v190h-270v-320h-130v530z" />
    <glyph glyph-name="I" unicode="I" horiz-adv-x="304" 
d="M114 11.5q-19 11.5 -27 39t-8 79.5v530h130v-530q0 -51 14 -75.5t56 -24.5h10v-30h-120q-36 0 -55 11.5z" />
    <glyph glyph-name="Iacute" unicode="&#xcd;" horiz-adv-x="304" 
d="M114 11.5q-19 11.5 -27 39t-8 79.5v530h130v-530q0 -51 14 -75.5t56 -24.5h10v-30h-120q-36 0 -55 11.5zM111 700l42 140h119l-106 -140h-55z" />
    <glyph glyph-name="Icircumflex" unicode="&#xce;" horiz-adv-x="304" 
d="M114 11.5q-19 11.5 -27 39t-8 79.5v530h130v-530q0 -51 14 -75.5t56 -24.5h10v-30h-120q-36 0 -55 11.5zM0 695l80 125h130l80 -125h-60l-85 80l-85 -80h-60z" />
    <glyph glyph-name="Idieresis" unicode="&#xcf;" horiz-adv-x="304" 
d="M20 731q-15 16 -15 40t15 40t41 16t41 -16t15 -40t-15 -40t-41 -16t-41 16zM186 731q-15 16 -15 40t15 40t41 16t41 -16t15 -40t-15 -40t-41 -16t-41 16zM114 11.5q-19 11.5 -27 39t-8 79.5v530h130v-530q0 -51 14 -75.5t56 -24.5h10v-30h-120q-36 0 -55 11.5z" />
    <glyph glyph-name="Idotaccent" unicode="&#x130;" horiz-adv-x="304" 
d="M93.5 736q-19.5 22 -19.5 54q0 26 15.5 41t39.5 15q36 0 55.5 -22t19.5 -54q0 -26 -15.5 -41t-39.5 -15q-36 0 -55.5 22zM114 11.5q-19 11.5 -27 39t-8 79.5v530h130v-530q0 -51 14 -75.5t56 -24.5h10v-30h-120q-36 0 -55 11.5z" />
    <glyph glyph-name="uni1ECA" unicode="&#x1eca;" horiz-adv-x="304" 
d="M114 11.5q-19 11.5 -27 39t-8 79.5v530h130v-530q0 -51 14 -75.5t56 -24.5h10v-30h-120q-36 0 -55 11.5zM115 -159q-13 14 -13 37q0 22 13.5 36t36.5 14q24 0 37.5 -14t13.5 -36q0 -23 -13.5 -37t-37.5 -14t-37 14z" />
    <glyph glyph-name="Igrave" unicode="&#xcc;" horiz-adv-x="304" 
d="M114 11.5q-19 11.5 -27 39t-8 79.5v530h130v-530q0 -51 14 -75.5t56 -24.5h10v-30h-120q-36 0 -55 11.5zM147 705l-106 140h119l42 -140h-55z" />
    <glyph glyph-name="uni1EC8" unicode="&#x1ec8;" horiz-adv-x="304" 
d="M114 11.5q-19 11.5 -27 39t-8 79.5v530h130v-530q0 -51 14 -75.5t56 -24.5h10v-30h-120q-36 0 -55 11.5zM157 738q4 11 13 26q15 23 15 41q0 12 -9.5 20t-23.5 8q-18 0 -28 -10.5t-15 -41.5l-55 1q0 56 23 84.5t75 28.5q47 0 73 -23t26 -58q0 -16 -6 -27.5t-17 -24.5
q-12 -15 -17.5 -25.5t-6.5 -25.5h-52q1 16 5 27z" />
    <glyph glyph-name="Itilde" unicode="&#x128;" horiz-adv-x="304" 
d="M114 11.5q-19 11.5 -27 39t-8 79.5v530h130v-530q0 -51 14 -75.5t56 -24.5h10v-30h-120q-36 0 -55 11.5zM51.5 818q17.5 22 50.5 22q17 0 29.5 -6.5t28.5 -17.5q2 -2 13 -9t21 -7q16 0 25.5 12t9.5 28h40q0 -56 -17 -78t-50 -22q-16 0 -28 6t-30 18q-9 6 -18 11t-17 5
q-16 0 -25.5 -12t-9.5 -28h-40q0 56 17.5 78z" />
    <glyph glyph-name="J" unicode="J" horiz-adv-x="278" 
d="M-19 -107q48 6 70.5 47.5t22.5 142.5v577h130v-577q0 -89 -18.5 -135.5t-65.5 -65.5t-139 -19v30z" />
    <glyph glyph-name="K" unicode="K" horiz-adv-x="693" 
d="M510.5 15.5q-57.5 25.5 -123.5 94.5l-161 168v-278h-130l-1 530q0 51 -14 75.5t-56 24.5h-10v30h120q35 0 54.5 -12t28 -40t8.5 -78v-190l173 215q37 48 79.5 76.5t97.5 28.5h70v-35q-62 0 -106.5 -15.5t-76.5 -55.5l-149 -184l231 -240q37 -41 83.5 -71.5t75.5 -34.5
v-24q-30 -10 -73 -10q-63 0 -120.5 25.5z" />
    <glyph glyph-name="L" unicode="L" horiz-adv-x="570" 
d="M95 530q0 51 -14 75.5t-56 24.5h-10v30h120q36 0 55 -12t27 -39.5t8 -78.5v-485h345v-45h-475v530z" />
    <glyph glyph-name="M" unicode="M" horiz-adv-x="867" 
d="M691.5 5.5q-47.5 50.5 -47.5 164.5v354l-219 -524h-33l-268 544v-544h-50v660h122l242 -491l205 491h131v-490q0 -94 16 -138t57 -52v-25q-108 0 -155.5 50.5z" />
    <glyph glyph-name="N" unicode="N" horiz-adv-x="692" 
d="M148 495v-495h-50v540q0 42 -20.5 66t-69.5 24h-5v30h70q56 0 91.5 -14.5t59.5 -45.5l344 -400v460h50v-663h-46z" />
    <glyph glyph-name="Ntilde" unicode="&#xd1;" horiz-adv-x="692" 
d="M148 495v-495h-50v540q0 42 -20.5 66t-69.5 24h-5v30h70q56 0 91.5 -14.5t59.5 -45.5l344 -400v460h50v-663h-46zM252.5 772q17.5 22 50.5 22q17 0 29.5 -6.5t28.5 -17.5q2 -2 13 -9t21 -7q16 0 25.5 12t9.5 28h40q0 -56 -17 -78t-50 -22q-16 0 -28 6t-30 18q-9 6 -18 11
t-17 5q-16 0 -25.5 -12t-9.5 -28h-40q0 56 17.5 78z" />
    <glyph glyph-name="O" unicode="O" horiz-adv-x="733" 
d="M194.5 26q-75.5 46 -116.5 126t-41 178t41 178t116.5 126t172.5 46t172 -46t116 -126t41 -178t-41 -178t-116 -126t-172 -46t-172.5 46zM508 104.5q50 79.5 50 225.5t-50 225.5t-141 79.5t-140.5 -79.5t-49.5 -225.5t49.5 -225.5t140.5 -79.5t141 79.5z" />
    <glyph glyph-name="Oacute" unicode="&#xd3;" horiz-adv-x="733" 
d="M194.5 26q-75.5 46 -116.5 126t-41 178t41 178t116.5 126t172.5 46t172 -46t116 -126t41 -178t-41 -178t-116 -126t-172 -46t-172.5 46zM508 104.5q50 79.5 50 225.5t-50 225.5t-141 79.5t-140.5 -79.5t-49.5 -225.5t49.5 -225.5t140.5 -79.5t141 79.5zM338 724l42 140
h119l-106 -140h-55z" />
    <glyph glyph-name="Ocircumflex" unicode="&#xd4;" horiz-adv-x="733" 
d="M194.5 26q-75.5 46 -116.5 126t-41 178t41 178t116.5 126t172.5 46t172 -46t116 -126t41 -178t-41 -178t-116 -126t-172 -46t-172.5 46zM508 104.5q50 79.5 50 225.5t-50 225.5t-141 79.5t-140.5 -79.5t-49.5 -225.5t49.5 -225.5t140.5 -79.5t141 79.5zM218 731l80 125
h130l80 -125h-60l-85 80l-85 -80h-60z" />
    <glyph glyph-name="uni1ED0" unicode="&#x1ed0;" horiz-adv-x="733" 
d="M194.5 26q-75.5 46 -116.5 126t-41 178t41 178t116.5 126t172.5 46t172 -46t116 -126t41 -178t-41 -178t-116 -126t-172 -46t-172.5 46zM508 104.5q50 79.5 50 225.5t-50 225.5t-141 79.5t-140.5 -79.5t-49.5 -225.5t49.5 -225.5t140.5 -79.5t141 79.5zM222 715l80 125
h130l80 -125h-60l-85 80l-85 -80h-60zM495 782l42 140h119l-106 -140h-55z" />
    <glyph glyph-name="uni1ED8" unicode="&#x1ed8;" horiz-adv-x="733" 
d="M194.5 26q-75.5 46 -116.5 126t-41 178t41 178t116.5 126t172.5 46t172 -46t116 -126t41 -178t-41 -178t-116 -126t-172 -46t-172.5 46zM508 104.5q50 79.5 50 225.5t-50 225.5t-141 79.5t-140.5 -79.5t-49.5 -225.5t49.5 -225.5t140.5 -79.5t141 79.5zM330 -159
q-13 14 -13 37q0 22 13.5 36t36.5 14q24 0 37.5 -14t13.5 -36q0 -23 -13.5 -37t-37.5 -14t-37 14zM222 715l80 125h130l80 -125h-60l-85 80l-85 -80h-60z" />
    <glyph glyph-name="uni1ED2" unicode="&#x1ed2;" horiz-adv-x="733" 
d="M194.5 26q-75.5 46 -116.5 126t-41 178t41 178t116.5 126t172.5 46t172 -46t116 -126t41 -178t-41 -178t-116 -126t-172 -46t-172.5 46zM508 104.5q50 79.5 50 225.5t-50 225.5t-141 79.5t-140.5 -79.5t-49.5 -225.5t49.5 -225.5t140.5 -79.5t141 79.5zM222 715l80 125
h130l80 -125h-60l-85 80l-85 -80h-60zM507 802l-106 140h119l42 -140h-55z" />
    <glyph glyph-name="uni1ED4" unicode="&#x1ed4;" horiz-adv-x="733" 
d="M194.5 26q-75.5 46 -116.5 126t-41 178t41 178t116.5 126t172.5 46t172 -46t116 -126t41 -178t-41 -178t-116 -126t-172 -46t-172.5 46zM508 104.5q50 79.5 50 225.5t-50 225.5t-141 79.5t-140.5 -79.5t-49.5 -225.5t49.5 -225.5t140.5 -79.5t141 79.5zM222 715l80 125
h130l80 -125h-60l-85 80l-85 -80h-60zM503 835q4 11 13 26q15 23 15 41q0 12 -9.5 20t-23.5 8q-18 0 -28 -10.5t-15 -41.5l-55 1q0 56 23 84.5t75 28.5q47 0 73 -23t26 -58q0 -16 -6 -27.5t-17 -24.5q-12 -15 -17.5 -25.5t-6.5 -25.5h-52q1 16 5 27z" />
    <glyph glyph-name="uni1ED6" unicode="&#x1ed6;" horiz-adv-x="733" 
d="M194.5 26q-75.5 46 -116.5 126t-41 178t41 178t116.5 126t172.5 46t172 -46t116 -126t41 -178t-41 -178t-116 -126t-172 -46t-172.5 46zM508 104.5q50 79.5 50 225.5t-50 225.5t-141 79.5t-140.5 -79.5t-49.5 -225.5t49.5 -225.5t140.5 -79.5t141 79.5zM222 715l80 125
h130l80 -125h-60l-85 80l-85 -80h-60zM266.5 944q17.5 22 50.5 22q17 0 29.5 -6.5t28.5 -17.5q2 -2 13 -9t21 -7q16 0 25.5 12t9.5 28h40q0 -56 -17 -78t-50 -22q-16 0 -28 6t-30 18q-9 6 -18 11t-17 5q-16 0 -25.5 -12t-9.5 -28h-40q0 56 17.5 78z" />
    <glyph glyph-name="Odieresis" unicode="&#xd6;" horiz-adv-x="733" 
d="M194.5 26q-75.5 46 -116.5 126t-41 178t41 178t116.5 126t172.5 46t172 -46t116 -126t41 -178t-41 -178t-116 -126t-172 -46t-172.5 46zM508 104.5q50 79.5 50 225.5t-50 225.5t-141 79.5t-140.5 -79.5t-49.5 -225.5t49.5 -225.5t140.5 -79.5t141 79.5zM236 751
q-15 16 -15 40t15 40t41 16t41 -16t15 -40t-15 -40t-41 -16t-41 16zM416 751q-15 16 -15 40t15 40t41 16t41 -16t15 -40t-15 -40t-41 -16t-41 16z" />
    <glyph glyph-name="uni1ECC" unicode="&#x1ecc;" horiz-adv-x="733" 
d="M194.5 26q-75.5 46 -116.5 126t-41 178t41 178t116.5 126t172.5 46t172 -46t116 -126t41 -178t-41 -178t-116 -126t-172 -46t-172.5 46zM508 104.5q50 79.5 50 225.5t-50 225.5t-141 79.5t-140.5 -79.5t-49.5 -225.5t49.5 -225.5t140.5 -79.5t141 79.5zM330 -159
q-13 14 -13 37q0 22 13.5 36t36.5 14q24 0 37.5 -14t13.5 -36q0 -23 -13.5 -37t-37.5 -14t-37 14z" />
    <glyph glyph-name="Ograve" unicode="&#xd2;" horiz-adv-x="733" 
d="M194.5 26q-75.5 46 -116.5 126t-41 178t41 178t116.5 126t172.5 46t172 -46t116 -126t41 -178t-41 -178t-116 -126t-172 -46t-172.5 46zM508 104.5q50 79.5 50 225.5t-50 225.5t-141 79.5t-140.5 -79.5t-49.5 -225.5t49.5 -225.5t140.5 -79.5t141 79.5zM362 705l-106 140
h119l42 -140h-55z" />
    <glyph glyph-name="uni1ECE" unicode="&#x1ece;" horiz-adv-x="733" 
d="M194.5 26q-75.5 46 -116.5 126t-41 178t41 178t116.5 126t172.5 46t172 -46t116 -126t41 -178t-41 -178t-116 -126t-172 -46t-172.5 46zM508 104.5q50 79.5 50 225.5t-50 225.5t-141 79.5t-140.5 -79.5t-49.5 -225.5t49.5 -225.5t140.5 -79.5t141 79.5zM372 738
q4 11 13 26q15 23 15 41q0 12 -9.5 20t-23.5 8q-18 0 -28 -10.5t-15 -41.5l-55 1q0 56 23 84.5t75 28.5q47 0 73 -23t26 -58q0 -16 -6 -27.5t-17 -24.5q-12 -15 -17.5 -25.5t-6.5 -25.5h-52q1 16 5 27z" />
    <glyph glyph-name="Ohorn" unicode="&#x1a0;" horiz-adv-x="733" 
d="M657.5 503q38.5 -78 38.5 -173q0 -98 -41 -178t-116 -126t-172 -46t-172.5 46t-116.5 126t-41 178t41 178t116.5 126t172.5 46q65 0 119 -21q45 4 67 34.5t22 69.5h80q0 -43 -27 -81t-78 -55q69 -46 107.5 -124zM508 104.5q50 79.5 50 225.5t-50 225.5t-141 79.5
t-140.5 -79.5t-49.5 -225.5t49.5 -225.5t140.5 -79.5t141 79.5z" />
    <glyph glyph-name="uni1EDA" unicode="&#x1eda;" horiz-adv-x="733" 
d="M657.5 503q38.5 -78 38.5 -173q0 -98 -41 -178t-116 -126t-172 -46t-172.5 46t-116.5 126t-41 178t41 178t116.5 126t172.5 46q65 0 119 -21q45 4 67 34.5t22 69.5h80q0 -43 -27 -81t-78 -55q69 -46 107.5 -124zM508 104.5q50 79.5 50 225.5t-50 225.5t-141 79.5
t-140.5 -79.5t-49.5 -225.5t49.5 -225.5t140.5 -79.5t141 79.5zM336 705l42 140h119l-106 -140h-55z" />
    <glyph glyph-name="uni1EE2" unicode="&#x1ee2;" horiz-adv-x="733" 
d="M657.5 503q38.5 -78 38.5 -173q0 -98 -41 -178t-116 -126t-172 -46t-172.5 46t-116.5 126t-41 178t41 178t116.5 126t172.5 46q65 0 119 -21q45 4 67 34.5t22 69.5h80q0 -43 -27 -81t-78 -55q69 -46 107.5 -124zM508 104.5q50 79.5 50 225.5t-50 225.5t-141 79.5
t-140.5 -79.5t-49.5 -225.5t49.5 -225.5t140.5 -79.5t141 79.5zM330 -159q-13 14 -13 37q0 22 13.5 36t36.5 14q24 0 37.5 -14t13.5 -36q0 -23 -13.5 -37t-37.5 -14t-37 14z" />
    <glyph glyph-name="uni1EDC" unicode="&#x1edc;" horiz-adv-x="733" 
d="M657.5 503q38.5 -78 38.5 -173q0 -98 -41 -178t-116 -126t-172 -46t-172.5 46t-116.5 126t-41 178t41 178t116.5 126t172.5 46q65 0 119 -21q45 4 67 34.5t22 69.5h80q0 -43 -27 -81t-78 -55q69 -46 107.5 -124zM508 104.5q50 79.5 50 225.5t-50 225.5t-141 79.5
t-140.5 -79.5t-49.5 -225.5t49.5 -225.5t140.5 -79.5t141 79.5zM362 705l-106 140h119l42 -140h-55z" />
    <glyph glyph-name="uni1EDE" unicode="&#x1ede;" horiz-adv-x="733" 
d="M657.5 503q38.5 -78 38.5 -173q0 -98 -41 -178t-116 -126t-172 -46t-172.5 46t-116.5 126t-41 178t41 178t116.5 126t172.5 46q65 0 119 -21q45 4 67 34.5t22 69.5h80q0 -43 -27 -81t-78 -55q69 -46 107.5 -124zM508 104.5q50 79.5 50 225.5t-50 225.5t-141 79.5
t-140.5 -79.5t-49.5 -225.5t49.5 -225.5t140.5 -79.5t141 79.5zM372 738q4 11 13 26q15 23 15 41q0 12 -9.5 20t-23.5 8q-18 0 -28 -10.5t-15 -41.5l-55 1q0 56 23 84.5t75 28.5q47 0 73 -23t26 -58q0 -16 -6 -27.5t-17 -24.5q-12 -15 -17.5 -25.5t-6.5 -25.5h-52q1 16 5 27
z" />
    <glyph glyph-name="uni1EE0" unicode="&#x1ee0;" horiz-adv-x="733" 
d="M657.5 503q38.5 -78 38.5 -173q0 -98 -41 -178t-116 -126t-172 -46t-172.5 46t-116.5 126t-41 178t41 178t116.5 126t172.5 46q65 0 119 -21q45 4 67 34.5t22 69.5h80q0 -43 -27 -81t-78 -55q69 -46 107.5 -124zM508 104.5q50 79.5 50 225.5t-50 225.5t-141 79.5
t-140.5 -79.5t-49.5 -225.5t49.5 -225.5t140.5 -79.5t141 79.5zM266.5 818q17.5 22 50.5 22q17 0 29.5 -6.5t28.5 -17.5q2 -2 13 -9t21 -7q16 0 25.5 12t9.5 28h40q0 -56 -17 -78t-50 -22q-16 0 -28 6t-30 18q-9 6 -18 11t-17 5q-16 0 -25.5 -12t-9.5 -28h-40q0 56 17.5 78z
" />
    <glyph glyph-name="Oslash" unicode="&#xd8;" horiz-adv-x="733" 
d="M152 56q-55 48 -85 119t-30 155q0 98 41 178t116.5 126t172.5 46q80 0 143 -31l18 31h92l-44 -73q58 -48 89 -119.5t31 -157.5q0 -98 -41 -178t-116 -126t-172 -46q-80 0 -148 33l-20 -33h-92zM476 593q-46 42 -109 42q-91 0 -140.5 -79.5t-49.5 -225.5q0 -109 29 -185z
M508 104.5q50 79.5 50 225.5q0 112 -33 192l-272 -452q45 -45 114 -45q91 0 141 79.5z" />
    <glyph glyph-name="Otilde" unicode="&#xd5;" horiz-adv-x="733" 
d="M194.5 26q-75.5 46 -116.5 126t-41 178t41 178t116.5 126t172.5 46t172 -46t116 -126t41 -178t-41 -178t-116 -126t-172 -46t-172.5 46zM508 104.5q50 79.5 50 225.5t-50 225.5t-141 79.5t-140.5 -79.5t-49.5 -225.5t49.5 -225.5t140.5 -79.5t141 79.5zM266.5 816
q17.5 22 50.5 22q17 0 29.5 -6.5t28.5 -17.5q2 -2 13 -9t21 -7q16 0 25.5 12t9.5 28h40q0 -56 -17 -78t-50 -22q-16 0 -28 6t-30 18q-9 6 -18 11t-17 5q-16 0 -25.5 -12t-9.5 -28h-40q0 56 17.5 78z" />
    <glyph glyph-name="OE" unicode="&#x152;" horiz-adv-x="957" 
d="M194.5 26q-75.5 46 -116.5 126t-41 178t41 178t116.5 126t172.5 46q38 0 62 -5t53 -15h331q85 0 85 -80v-85h-30q0 62 -31.5 91t-93.5 29h-161v-250h260v-45h-260v-275h171q57 0 95 25.5t63 88.5l27 -10l-29 -79q-13 -36 -31 -53t-56 -17h-340q-47 -20 -115 -20
q-97 0 -172.5 46zM452 48v563q-38 24 -85 24q-91 0 -140.5 -79.5t-49.5 -225.5t49.5 -225.5t140.5 -79.5q47 0 85 23z" />
    <glyph glyph-name="P" unicode="P" horiz-adv-x="577" 
d="M95 530q0 51 -14 75.5t-56 24.5h-10v30h275q103 0 186.5 -40.5t83.5 -160.5q0 -78 -43.5 -121t-97.5 -57t-99 -14h-95v-267h-130v530zM285 307q59 0 97 36t38 121q0 84 -37.5 120t-92.5 36q-29 0 -45 -4l-20 -3v-306h60z" />
    <glyph glyph-name="Thorn" unicode="&#xde;" horiz-adv-x="555" 
d="M97 560q0 51 -14 75.5t-56 24.5h-10v30h120q36 0 55 -12t27 -39.5t8 -78.5v-10q310 -7 310 -235q0 -229 -310 -235v-110h-130v590zM354.5 181q42.5 50 42.5 134t-42.5 134t-127.5 55v-379q85 6 127.5 56z" />
    <glyph glyph-name="Q" unicode="Q" horiz-adv-x="735" 
d="M461 -157q-110 48 -197 153q-104 32 -165 122.5t-61 211.5q0 98 41 178t116.5 126t172.5 46t172 -46t116 -126t41 -178q0 -125 -63 -216t-171 -121q17 -47 55.5 -86.5t85.5 -62.5t89 -23v-26q-122 0 -232 48zM509 104.5q50 79.5 50 225.5t-50 225.5t-141 79.5
t-140.5 -79.5t-49.5 -225.5t49.5 -225.5t140.5 -79.5t141 79.5z" />
    <glyph glyph-name="R" unicode="R" horiz-adv-x="616" 
d="M460 22.5q-45 32.5 -94 112.5l-100 167h-40v-302h-131v530q0 51 -14 75.5t-56 24.5h-10v30h276q104 0 187 -38t83 -146q0 -125 -162 -166l105 -175q59 -99 124 -110v-25q-8 -4 -29 -7t-39 -3q-55 0 -100 32.5zM286 342q56 0 95.5 33.5t39.5 105.5q0 71 -39 105t-91 34
q-29 0 -45 -4l-20 -3v-271h60z" />
    <glyph glyph-name="S" unicode="S" horiz-adv-x="561" 
d="M165 -2.5q-52 14.5 -85 42t-33 63.5v117h28q15 -102 63 -147t134 -45q58 0 92 25t34 72q0 40 -25 68t-78 61l-123 74q-67 39 -95.5 81t-28.5 98q0 79 60.5 125t163.5 46q56 0 108 -14.5t85 -42t33 -63.5v-117h-28q-17 102 -63 147t-124 45q-54 0 -85.5 -26t-31.5 -71
q0 -39 24.5 -64.5t79.5 -57.5l123 -73q70 -41 100.5 -79.5t30.5 -92.5q0 -87 -65.5 -136.5t-185.5 -49.5q-56 0 -108 14.5z" />
    <glyph glyph-name="Scaron" unicode="&#x160;" horiz-adv-x="561" 
d="M165 -2.5q-52 14.5 -85 42t-33 63.5v117h28q15 -102 63 -147t134 -45q58 0 92 25t34 72q0 40 -25 68t-78 61l-123 74q-67 39 -95.5 81t-28.5 98q0 79 60.5 125t163.5 46q56 0 108 -14.5t85 -42t33 -63.5v-117h-28q-17 102 -63 147t-124 45q-54 0 -85.5 -26t-31.5 -71
q0 -39 24.5 -64.5t79.5 -57.5l123 -73q70 -41 100.5 -79.5t30.5 -92.5q0 -87 -65.5 -136.5t-185.5 -49.5q-56 0 -108 14.5zM202 721l-80 125h70l75 -80l75 80h70l-80 -125h-130z" />
    <glyph glyph-name="Scedilla" unicode="&#x15e;" horiz-adv-x="563" 
d="M236 -160h50q18 0 29 9.5t11 22.5q0 15 -11 24t-29 9h-45v80q-81 6 -137 37.5t-56 80.5v117h28q15 -102 63 -147t134 -45q58 0 92 25t34 72q0 40 -25 68t-78 61l-123 74q-67 39 -95.5 81t-28.5 98q0 79 60.5 125t163.5 46q56 0 108 -14.5t85 -42t33 -63.5v-117h-28
q-17 102 -63 147t-124 45q-54 0 -85.5 -26t-31.5 -71q0 -39 24.5 -64.5t79.5 -57.5l123 -73q70 -41 100.5 -79.5t30.5 -92.5q0 -81 -57 -129.5t-162 -55.5v-34q42 0 66 -21t24 -57t-24 -57t-66 -21h-70v46z" />
    <glyph glyph-name="T" unicode="T" horiz-adv-x="575" 
d="M232 615h-71q-56 0 -85.5 -28t-29.5 -92h-30v85q0 80 85 80h470v-45h-209v-615h-130v615z" />
    <glyph glyph-name="U" unicode="U" horiz-adv-x="694" 
d="M92 288v242q0 51 -14 75.5t-56 24.5v30h110q36 0 55 -12t27 -39.5t8 -78.5l1 -272q1 -106 41.5 -164.5t117.5 -58.5q102 0 148.5 60.5t46.5 192.5v372h50v-372q0 -147 -62 -222.5t-203 -75.5q-270 0 -270 298z" />
    <glyph glyph-name="Uacute" unicode="&#xda;" horiz-adv-x="695" 
d="M92 288v242q0 51 -14 75.5t-56 24.5v30h110q36 0 55 -12t27 -39.5t8 -78.5l1 -272q1 -106 41.5 -164.5t117.5 -58.5q102 0 148.5 60.5t46.5 192.5v372h50v-372q0 -147 -62 -222.5t-203 -75.5q-270 0 -270 298zM337 681l42 140h119l-106 -140h-55z" />
    <glyph glyph-name="Ucircumflex" unicode="&#xdb;" horiz-adv-x="695" 
d="M92 288v242q0 51 -14 75.5t-56 24.5v30h110q36 0 55 -12t27 -39.5t8 -78.5l1 -272q1 -106 41.5 -164.5t117.5 -58.5q102 0 148.5 60.5t46.5 192.5v372h50v-372q0 -147 -62 -222.5t-203 -75.5q-270 0 -270 298zM243 681l80 125h130l80 -125h-60l-85 80l-85 -80h-60z" />
    <glyph glyph-name="Udieresis" unicode="&#xdc;" horiz-adv-x="695" 
d="M92 288v242q0 51 -14 75.5t-56 24.5v30h110q36 0 55 -12t27 -39.5t8 -78.5l1 -272q1 -106 41.5 -164.5t117.5 -58.5q102 0 148.5 60.5t46.5 192.5v372h50v-372q0 -147 -62 -222.5t-203 -75.5q-270 0 -270 298zM252 697q-15 16 -15 40t15 40t41 16t41 -16t15 -40t-15 -40
t-41 -16t-41 16zM432 697q-15 16 -15 40t15 40t41 16t41 -16t15 -40t-15 -40t-41 -16t-41 16z" />
    <glyph glyph-name="uni1EE4" unicode="&#x1ee4;" horiz-adv-x="694" 
d="M92 288v242q0 51 -14 75.5t-56 24.5v30h110q36 0 55 -12t27 -39.5t8 -78.5l1 -272q1 -106 41.5 -164.5t117.5 -58.5q102 0 148.5 60.5t46.5 192.5v372h50v-372q0 -147 -62 -222.5t-203 -75.5q-270 0 -270 298zM310 -159q-13 14 -13 37q0 22 13.5 36t36.5 14
q24 0 37.5 -14t13.5 -36q0 -23 -13.5 -37t-37.5 -14t-37 14z" />
    <glyph glyph-name="Ugrave" unicode="&#xd9;" horiz-adv-x="694" 
d="M92 288v242q0 51 -14 75.5t-56 24.5v30h110q36 0 55 -12t27 -39.5t8 -78.5l1 -272q1 -106 41.5 -164.5t117.5 -58.5q102 0 148.5 60.5t46.5 192.5v372h50v-372q0 -147 -62 -222.5t-203 -75.5q-270 0 -270 298zM342 705l-106 140h119l42 -140h-55z" />
    <glyph glyph-name="uni1EE6" unicode="&#x1ee6;" horiz-adv-x="694" 
d="M92 288v242q0 51 -14 75.5t-56 24.5v30h110q36 0 55 -12t27 -39.5t8 -78.5l1 -272q1 -106 41.5 -164.5t117.5 -58.5q102 0 148.5 60.5t46.5 192.5v372h50v-372q0 -147 -62 -222.5t-203 -75.5q-270 0 -270 298zM352 738q4 11 13 26q15 23 15 41q0 12 -9.5 20t-23.5 8
q-18 0 -28 -10.5t-15 -41.5l-55 1q0 56 23 84.5t75 28.5q47 0 73 -23t26 -58q0 -16 -6 -27.5t-17 -24.5q-12 -15 -17.5 -25.5t-6.5 -25.5h-52q1 16 5 27z" />
    <glyph glyph-name="Uhorn" unicode="&#x1af;" horiz-adv-x="694" 
d="M728.5 672q-35.5 -42 -101.5 -53v-331q0 -147 -62 -222.5t-203 -75.5q-270 0 -270 298v242q0 51 -14 75.5t-56 24.5v30h110q36 0 55 -12t27 -39.5t8 -78.5l1 -272q1 -106 41.5 -164.5t117.5 -58.5q102 0 148.5 60.5t46.5 192.5v372h23q42 6 63 35.5t21 67.5h80
q0 -49 -35.5 -91z" />
    <glyph glyph-name="uni1EE8" unicode="&#x1ee8;" horiz-adv-x="694" 
d="M728.5 672q-35.5 -42 -101.5 -53v-331q0 -147 -62 -222.5t-203 -75.5q-270 0 -270 298v242q0 51 -14 75.5t-56 24.5v30h110q36 0 55 -12t27 -39.5t8 -78.5l1 -272q1 -106 41.5 -164.5t117.5 -58.5q102 0 148.5 60.5t46.5 192.5v372h23q42 6 63 35.5t21 67.5h80
q0 -49 -35.5 -91zM316 705l42 140h119l-106 -140h-55z" />
    <glyph glyph-name="uni1EF0" unicode="&#x1ef0;" horiz-adv-x="694" 
d="M728.5 672q-35.5 -42 -101.5 -53v-331q0 -147 -62 -222.5t-203 -75.5q-270 0 -270 298v242q0 51 -14 75.5t-56 24.5v30h110q36 0 55 -12t27 -39.5t8 -78.5l1 -272q1 -106 41.5 -164.5t117.5 -58.5q102 0 148.5 60.5t46.5 192.5v372h23q42 6 63 35.5t21 67.5h80
q0 -49 -35.5 -91zM310 -159q-13 14 -13 37q0 22 13.5 36t36.5 14q24 0 37.5 -14t13.5 -36q0 -23 -13.5 -37t-37.5 -14t-37 14z" />
    <glyph glyph-name="uni1EEA" unicode="&#x1eea;" horiz-adv-x="694" 
d="M728.5 672q-35.5 -42 -101.5 -53v-331q0 -147 -62 -222.5t-203 -75.5q-270 0 -270 298v242q0 51 -14 75.5t-56 24.5v30h110q36 0 55 -12t27 -39.5t8 -78.5l1 -272q1 -106 41.5 -164.5t117.5 -58.5q102 0 148.5 60.5t46.5 192.5v372h23q42 6 63 35.5t21 67.5h80
q0 -49 -35.5 -91zM342 705l-106 140h119l42 -140h-55z" />
    <glyph glyph-name="uni1EEC" unicode="&#x1eec;" horiz-adv-x="694" 
d="M728.5 672q-35.5 -42 -101.5 -53v-331q0 -147 -62 -222.5t-203 -75.5q-270 0 -270 298v242q0 51 -14 75.5t-56 24.5v30h110q36 0 55 -12t27 -39.5t8 -78.5l1 -272q1 -106 41.5 -164.5t117.5 -58.5q102 0 148.5 60.5t46.5 192.5v372h23q42 6 63 35.5t21 67.5h80
q0 -49 -35.5 -91zM352 738q4 11 13 26q15 23 15 41q0 12 -9.5 20t-23.5 8q-18 0 -28 -10.5t-15 -41.5l-55 1q0 56 23 84.5t75 28.5q47 0 73 -23t26 -58q0 -16 -6 -27.5t-17 -24.5q-12 -15 -17.5 -25.5t-6.5 -25.5h-52q1 16 5 27z" />
    <glyph glyph-name="uni1EEE" unicode="&#x1eee;" horiz-adv-x="694" 
d="M728.5 672q-35.5 -42 -101.5 -53v-331q0 -147 -62 -222.5t-203 -75.5q-270 0 -270 298v242q0 51 -14 75.5t-56 24.5v30h110q36 0 55 -12t27 -39.5t8 -78.5l1 -272q1 -106 41.5 -164.5t117.5 -58.5q102 0 148.5 60.5t46.5 192.5v372h23q42 6 63 35.5t21 67.5h80
q0 -49 -35.5 -91zM246.5 818q17.5 22 50.5 22q17 0 29.5 -6.5t28.5 -17.5q2 -2 13 -9t21 -7q16 0 25.5 12t9.5 28h40q0 -56 -17 -78t-50 -22q-16 0 -28 6t-30 18q-9 6 -18 11t-17 5q-16 0 -25.5 -12t-9.5 -28h-40q0 56 17.5 78z" />
    <glyph glyph-name="Utilde" unicode="&#x168;" horiz-adv-x="694" 
d="M92 288v242q0 51 -14 75.5t-56 24.5v30h110q36 0 55 -12t27 -39.5t8 -78.5l1 -272q1 -106 41.5 -164.5t117.5 -58.5q102 0 148.5 60.5t46.5 192.5v372h50v-372q0 -147 -62 -222.5t-203 -75.5q-270 0 -270 298zM246.5 818q17.5 22 50.5 22q17 0 29.5 -6.5t28.5 -17.5
q2 -2 13 -9t21 -7q16 0 25.5 12t9.5 28h40q0 -56 -17 -78t-50 -22q-16 0 -28 6t-30 18q-9 6 -18 11t-17 5q-16 0 -25.5 -12t-9.5 -28h-40q0 56 17.5 78z" />
    <glyph glyph-name="V" unicode="V" horiz-adv-x="635" 
d="M66 543q-23 55 -45.5 78t-53.5 27v20l42 2q66 0 116 -25t82 -102l158 -374l211 491h51l-288 -670h-40z" />
    <glyph glyph-name="W" unicode="W" horiz-adv-x="906" 
d="M61 543q-22 55 -45 78t-54 27v20l42 2q67 0 117 -24.5t81 -102.5l135 -345l90 256l-35 89q-22 54 -47.5 77.5t-58.5 27.5v20l39 2q67 0 117 -25t81 -102l143 -364l171 481h48l-237 -669h-40l-154 392l-137 -392h-40z" />
    <glyph glyph-name="X" unicode="X" horiz-adv-x="647" 
d="M263 311l-142 219q-26 42 -64 74t-70 36v20h110q51 0 92.5 -32t70.5 -78l87 -134l193 244h65l-229 -289l157 -241q26 -42 64 -74t70 -36v-20h-110q-51 0 -92.5 32t-70.5 78l-101 156l-211 -266h-65z" />
    <glyph glyph-name="Y" unicode="Y" horiz-adv-x="638" 
d="M279 264l-177 266q-30 43 -65.5 75t-67.5 35v20h109q51 0 92.5 -32t70.5 -78l136 -205l194 315h65l-227 -369v-291h-130v264z" />
    <glyph glyph-name="Yacute" unicode="&#xdd;" horiz-adv-x="638" 
d="M279 264l-177 266q-30 43 -65.5 75t-67.5 35v20h109q51 0 92.5 -32t70.5 -78l136 -205l194 315h65l-227 -369v-291h-130v264zM318 670l42 140h119l-106 -140h-55z" />
    <glyph glyph-name="Ydieresis" unicode="&#x178;" horiz-adv-x="638" 
d="M279 264l-177 266q-30 43 -65.5 75t-67.5 35v20h109q51 0 92.5 -32t70.5 -78l136 -205l194 315h65l-227 -369v-291h-130v264zM231 706q-15 16 -15 40t15 40t41 16t41 -16t15 -40t-15 -40t-41 -16t-41 16zM401 706q-15 16 -15 40t15 40t41 16t41 -16t15 -40t-15 -40
t-41 -16t-41 16z" />
    <glyph glyph-name="uni1EF4" unicode="&#x1ef4;" horiz-adv-x="638" 
d="M279 264l-177 266q-30 43 -65.5 75t-67.5 35v20h109q51 0 92.5 -32t70.5 -78l136 -205l194 315h65l-227 -369v-291h-130v264zM282 -159q-13 14 -13 37q0 22 13.5 36t36.5 14q24 0 37.5 -14t13.5 -36q0 -23 -13.5 -37t-37.5 -14t-37 14z" />
    <glyph glyph-name="Ygrave" unicode="&#x1ef2;" horiz-adv-x="638" 
d="M279 264l-177 266q-30 43 -65.5 75t-67.5 35v20h109q51 0 92.5 -32t70.5 -78l136 -205l194 315h65l-227 -369v-291h-130v264zM314 705l-106 140h119l42 -140h-55z" />
    <glyph glyph-name="uni1EF6" unicode="&#x1ef6;" horiz-adv-x="638" 
d="M279 264l-177 266q-30 43 -65.5 75t-67.5 35v20h109q51 0 92.5 -32t70.5 -78l136 -205l194 315h65l-227 -369v-291h-130v264zM324 738q4 11 13 26q15 23 15 41q0 12 -9.5 20t-23.5 8q-18 0 -28 -10.5t-15 -41.5l-55 1q0 56 23 84.5t75 28.5q47 0 73 -23t26 -58
q0 -16 -6 -27.5t-17 -24.5q-12 -15 -17.5 -25.5t-6.5 -25.5h-52q1 16 5 27z" />
    <glyph glyph-name="uni1EF8" unicode="&#x1ef8;" horiz-adv-x="638" 
d="M279 264l-177 266q-30 43 -65.5 75t-67.5 35v20h109q51 0 92.5 -32t70.5 -78l136 -205l194 315h65l-227 -369v-291h-130v264zM218.5 818q17.5 22 50.5 22q17 0 29.5 -6.5t28.5 -17.5q2 -2 13 -9t21 -7q16 0 25.5 12t9.5 28h40q0 -56 -17 -78t-50 -22q-16 0 -28 6t-30 18
q-9 6 -18 11t-17 5q-16 0 -25.5 -12t-9.5 -28h-40q0 56 17.5 78z" />
    <glyph glyph-name="Z" unicode="Z" horiz-adv-x="599" 
d="M31 32l372 584h-217q-56 0 -85.5 -28.5t-29.5 -92.5h-30v85q0 80 85 80h455l-392 -615h387v-45h-545v32z" />
    <glyph glyph-name="Zcaron" unicode="&#x17d;" horiz-adv-x="588" 
d="M31 32l372 584h-217q-56 0 -85.5 -28.5t-29.5 -92.5h-30v85q0 80 85 80h455l-392 -615h387v-45h-545v32zM250 711l-80 125h70l75 -80l75 80h70l-80 -125h-130z" />
    <glyph glyph-name="a" unicode="a" 
d="M73.5 26.5q-44.5 36.5 -44.5 98.5q0 50 23.5 83t82.5 50t164 17h15q0 87 -24 123.5t-71 36.5q-39 0 -64 -19t-36 -71h-55q0 34 4.5 58t20.5 42q31 35 150 35q100 0 152.5 -52.5t52.5 -157.5v-270h-85l-35 45h-5q-9 -14 -28 -28q-34 -27 -92 -27q-81 0 -125.5 36.5z
M265 48.5q15 8.5 29 23.5q13 14 20 33v125h-15q-71 0 -103 -25.5t-32 -79.5q0 -41 17 -63t48 -22q21 0 36 8.5z" />
    <glyph glyph-name="aacute" unicode="&#xe1;" 
d="M73.5 26.5q-44.5 36.5 -44.5 98.5q0 50 23.5 83t82.5 50t164 17h15q0 87 -24 123.5t-71 36.5q-39 0 -64 -19t-36 -71h-55q0 34 4.5 58t20.5 42q31 35 150 35q100 0 152.5 -52.5t52.5 -157.5v-270h-85l-35 45h-5q-9 -14 -28 -28q-34 -27 -92 -27q-81 0 -125.5 36.5z
M265 48.5q15 8.5 29 23.5q13 14 20 33v125h-15q-71 0 -103 -25.5t-32 -79.5q0 -41 17 -63t48 -22q21 0 36 8.5zM201 526l42 140h119l-106 -140h-55z" />
    <glyph glyph-name="abreve" unicode="&#x103;" 
d="M73.5 26.5q-44.5 36.5 -44.5 98.5q0 50 23.5 83t82.5 50t164 17h15q0 87 -24 123.5t-71 36.5q-39 0 -64 -19t-36 -71h-55q0 34 4.5 58t20.5 42q31 35 150 35q100 0 152.5 -52.5t52.5 -157.5v-270h-85l-35 45h-5q-9 -14 -28 -28q-34 -27 -92 -27q-81 0 -125.5 36.5z
M265 48.5q15 8.5 29 23.5q13 14 20 33v125h-15q-71 0 -103 -25.5t-32 -79.5q0 -41 17 -63t48 -22q21 0 36 8.5zM163 525.5q-37 25.5 -56 68.5l28 21q17 -21 45.5 -35.5t67.5 -14.5t67.5 14.5t45.5 35.5l28 -21q-19 -43 -56 -68.5t-85 -25.5t-85 25.5z" />
    <glyph glyph-name="uni1EAF" unicode="&#x1eaf;" 
d="M73.5 26.5q-44.5 36.5 -44.5 98.5q0 50 23.5 83t82.5 50t164 17h15q0 87 -24 123.5t-71 36.5q-39 0 -64 -19t-36 -71h-55q0 34 4.5 58t20.5 42q31 35 150 35q100 0 152.5 -52.5t52.5 -157.5v-270h-85l-35 45h-5q-9 -14 -28 -28q-34 -27 -92 -27q-81 0 -125.5 36.5z
M265 48.5q15 8.5 29 23.5q13 14 20 33v125h-15q-71 0 -103 -25.5t-32 -79.5q0 -41 17 -63t48 -22q21 0 36 8.5zM163 525.5q-37 25.5 -56 68.5l28 21q17 -21 45.5 -35.5t67.5 -14.5t67.5 14.5t45.5 35.5l28 -21q-19 -43 -56 -68.5t-85 -25.5t-85 25.5zM217 660l42 140h119
l-106 -140h-55z" />
    <glyph glyph-name="uni1EB7" unicode="&#x1eb7;" 
d="M73.5 26.5q-44.5 36.5 -44.5 98.5q0 50 23.5 83t82.5 50t164 17h15q0 87 -24 123.5t-71 36.5q-39 0 -64 -19t-36 -71h-55q0 34 4.5 58t20.5 42q31 35 150 35q100 0 152.5 -52.5t52.5 -157.5v-270h-85l-35 45h-5q-9 -14 -28 -28q-34 -27 -92 -27q-81 0 -125.5 36.5z
M265 48.5q15 8.5 29 23.5q13 14 20 33v125h-15q-71 0 -103 -25.5t-32 -79.5q0 -41 17 -63t48 -22q21 0 36 8.5zM211 -159q-13 14 -13 37q0 22 13.5 36t36.5 14q24 0 37.5 -14t13.5 -36q0 -23 -13.5 -37t-37.5 -14t-37 14zM163 525.5q-37 25.5 -56 68.5l28 21
q17 -21 45.5 -35.5t67.5 -14.5t67.5 14.5t45.5 35.5l28 -21q-19 -43 -56 -68.5t-85 -25.5t-85 25.5z" />
    <glyph glyph-name="uni1EB1" unicode="&#x1eb1;" 
d="M73.5 26.5q-44.5 36.5 -44.5 98.5q0 50 23.5 83t82.5 50t164 17h15q0 87 -24 123.5t-71 36.5q-39 0 -64 -19t-36 -71h-55q0 34 4.5 58t20.5 42q31 35 150 35q100 0 152.5 -52.5t52.5 -157.5v-270h-85l-35 45h-5q-9 -14 -28 -28q-34 -27 -92 -27q-81 0 -125.5 36.5z
M265 48.5q15 8.5 29 23.5q13 14 20 33v125h-15q-71 0 -103 -25.5t-32 -79.5q0 -41 17 -63t48 -22q21 0 36 8.5zM163 525.5q-37 25.5 -56 68.5l28 21q17 -21 45.5 -35.5t67.5 -14.5t67.5 14.5t45.5 35.5l28 -21q-19 -43 -56 -68.5t-85 -25.5t-85 25.5zM243 660l-106 140h119
l42 -140h-55z" />
    <glyph glyph-name="uni1EB3" unicode="&#x1eb3;" 
d="M73.5 26.5q-44.5 36.5 -44.5 98.5q0 50 23.5 83t82.5 50t164 17h15q0 87 -24 123.5t-71 36.5q-39 0 -64 -19t-36 -71h-55q0 34 4.5 58t20.5 42q31 35 150 35q100 0 152.5 -52.5t52.5 -157.5v-270h-85l-35 45h-5q-9 -14 -28 -28q-34 -27 -92 -27q-81 0 -125.5 36.5z
M265 48.5q15 8.5 29 23.5q13 14 20 33v125h-15q-71 0 -103 -25.5t-32 -79.5q0 -41 17 -63t48 -22q21 0 36 8.5zM163 525.5q-37 25.5 -56 68.5l28 21q17 -21 45.5 -35.5t67.5 -14.5t67.5 14.5t45.5 35.5l28 -21q-19 -43 -56 -68.5t-85 -25.5t-85 25.5zM235 649q4 11 13 26
q15 23 15 41q0 12 -9.5 20t-23.5 8q-18 0 -28 -10.5t-15 -41.5l-55 1q0 56 23 84.5t75 28.5q47 0 73 -23t26 -58q0 -16 -6 -27.5t-17 -24.5q-12 -15 -17.5 -25.5t-6.5 -25.5h-52q1 16 5 27z" />
    <glyph glyph-name="uni1EB5" unicode="&#x1eb5;" 
d="M73.5 26.5q-44.5 36.5 -44.5 98.5q0 50 23.5 83t82.5 50t164 17h15q0 87 -24 123.5t-71 36.5q-39 0 -64 -19t-36 -71h-55q0 34 4.5 58t20.5 42q31 35 150 35q100 0 152.5 -52.5t52.5 -157.5v-270h-85l-35 45h-5q-9 -14 -28 -28q-34 -27 -92 -27q-81 0 -125.5 36.5z
M265 48.5q15 8.5 29 23.5q13 14 20 33v125h-15q-71 0 -103 -25.5t-32 -79.5q0 -41 17 -63t48 -22q21 0 36 8.5zM163 525.5q-37 25.5 -56 68.5l28 21q17 -21 45.5 -35.5t67.5 -14.5t67.5 14.5t45.5 35.5l28 -21q-19 -43 -56 -68.5t-85 -25.5t-85 25.5zM147.5 773
q17.5 22 50.5 22q17 0 29.5 -6.5t28.5 -17.5q2 -2 13 -9t21 -7q16 0 25.5 12t9.5 28h40q0 -56 -17 -78t-50 -22q-16 0 -28 6t-30 18q-9 6 -18 11t-17 5q-16 0 -25.5 -12t-9.5 -28h-40q0 56 17.5 78z" />
    <glyph glyph-name="acircumflex" unicode="&#xe2;" 
d="M73.5 26.5q-44.5 36.5 -44.5 98.5q0 50 23.5 83t82.5 50t164 17h15q0 87 -24 123.5t-71 36.5q-39 0 -64 -19t-36 -71h-55q0 34 4.5 58t20.5 42q31 35 150 35q100 0 152.5 -52.5t52.5 -157.5v-270h-85l-35 45h-5q-9 -14 -28 -28q-34 -27 -92 -27q-81 0 -125.5 36.5z
M265 48.5q15 8.5 29 23.5q13 14 20 33v125h-15q-71 0 -103 -25.5t-32 -79.5q0 -41 17 -63t48 -22q21 0 36 8.5zM105 531l80 125h130l80 -125h-60l-85 80l-85 -80h-60z" />
    <glyph glyph-name="uni1EA5" unicode="&#x1ea5;" 
d="M73.5 26.5q-44.5 36.5 -44.5 98.5q0 50 23.5 83t82.5 50t164 17h15q0 87 -24 123.5t-71 36.5q-39 0 -64 -19t-36 -71h-55q0 34 4.5 58t20.5 42q31 35 150 35q100 0 152.5 -52.5t52.5 -157.5v-270h-85l-35 45h-5q-9 -14 -28 -28q-34 -27 -92 -27q-81 0 -125.5 36.5z
M265 48.5q15 8.5 29 23.5q13 14 20 33v125h-15q-71 0 -103 -25.5t-32 -79.5q0 -41 17 -63t48 -22q21 0 36 8.5zM103 525l80 125h130l80 -125h-60l-85 80l-85 -80h-60zM376 592l42 140h119l-106 -140h-55z" />
    <glyph glyph-name="uni1EAD" unicode="&#x1ead;" 
d="M73.5 26.5q-44.5 36.5 -44.5 98.5q0 50 23.5 83t82.5 50t164 17h15q0 87 -24 123.5t-71 36.5q-39 0 -64 -19t-36 -71h-55q0 34 4.5 58t20.5 42q31 35 150 35q100 0 152.5 -52.5t52.5 -157.5v-270h-85l-35 45h-5q-9 -14 -28 -28q-34 -27 -92 -27q-81 0 -125.5 36.5z
M265 48.5q15 8.5 29 23.5q13 14 20 33v125h-15q-71 0 -103 -25.5t-32 -79.5q0 -41 17 -63t48 -22q21 0 36 8.5zM211 -159q-13 14 -13 37q0 22 13.5 36t36.5 14q24 0 37.5 -14t13.5 -36q0 -23 -13.5 -37t-37.5 -14t-37 14zM103 525l80 125h130l80 -125h-60l-85 80l-85 -80
h-60z" />
    <glyph glyph-name="uni1EA7" unicode="&#x1ea7;" 
d="M73.5 26.5q-44.5 36.5 -44.5 98.5q0 50 23.5 83t82.5 50t164 17h15q0 87 -24 123.5t-71 36.5q-39 0 -64 -19t-36 -71h-55q0 34 4.5 58t20.5 42q31 35 150 35q100 0 152.5 -52.5t52.5 -157.5v-270h-85l-35 45h-5q-9 -14 -28 -28q-34 -27 -92 -27q-81 0 -125.5 36.5z
M265 48.5q15 8.5 29 23.5q13 14 20 33v125h-15q-71 0 -103 -25.5t-32 -79.5q0 -41 17 -63t48 -22q21 0 36 8.5zM103 525l80 125h130l80 -125h-60l-85 80l-85 -80h-60zM388 612l-106 140h119l42 -140h-55z" />
    <glyph glyph-name="uni1EA9" unicode="&#x1ea9;" 
d="M73.5 26.5q-44.5 36.5 -44.5 98.5q0 50 23.5 83t82.5 50t164 17h15q0 87 -24 123.5t-71 36.5q-39 0 -64 -19t-36 -71h-55q0 34 4.5 58t20.5 42q31 35 150 35q100 0 152.5 -52.5t52.5 -157.5v-270h-85l-35 45h-5q-9 -14 -28 -28q-34 -27 -92 -27q-81 0 -125.5 36.5z
M265 48.5q15 8.5 29 23.5q13 14 20 33v125h-15q-71 0 -103 -25.5t-32 -79.5q0 -41 17 -63t48 -22q21 0 36 8.5zM103 525l80 125h130l80 -125h-60l-85 80l-85 -80h-60zM384 645q4 11 13 26q15 23 15 41q0 12 -9.5 20t-23.5 8q-18 0 -28 -10.5t-15 -41.5l-55 1q0 56 23 84.5
t75 28.5q47 0 73 -23t26 -58q0 -16 -6 -27.5t-17 -24.5q-12 -15 -17.5 -25.5t-6.5 -25.5h-52q1 16 5 27z" />
    <glyph glyph-name="uni1EAB" unicode="&#x1eab;" 
d="M73.5 26.5q-44.5 36.5 -44.5 98.5q0 50 23.5 83t82.5 50t164 17h15q0 87 -24 123.5t-71 36.5q-39 0 -64 -19t-36 -71h-55q0 34 4.5 58t20.5 42q31 35 150 35q100 0 152.5 -52.5t52.5 -157.5v-270h-85l-35 45h-5q-9 -14 -28 -28q-34 -27 -92 -27q-81 0 -125.5 36.5z
M265 48.5q15 8.5 29 23.5q13 14 20 33v125h-15q-71 0 -103 -25.5t-32 -79.5q0 -41 17 -63t48 -22q21 0 36 8.5zM103 525l80 125h130l80 -125h-60l-85 80l-85 -80h-60zM147.5 754q17.5 22 50.5 22q17 0 29.5 -6.5t28.5 -17.5q2 -2 13 -9t21 -7q16 0 25.5 12t9.5 28h40
q0 -56 -17 -78t-50 -22q-16 0 -28 6t-30 18q-9 6 -18 11t-17 5q-16 0 -25.5 -12t-9.5 -28h-40q0 56 17.5 78z" />
    <glyph glyph-name="adieresis" unicode="&#xe4;" 
d="M73.5 26.5q-44.5 36.5 -44.5 98.5q0 50 23.5 83t82.5 50t164 17h15q0 87 -24 123.5t-71 36.5q-39 0 -64 -19t-36 -71h-55q0 34 4.5 58t20.5 42q31 35 150 35q100 0 152.5 -52.5t52.5 -157.5v-270h-85l-35 45h-5q-9 -14 -28 -28q-34 -27 -92 -27q-81 0 -125.5 36.5z
M265 48.5q15 8.5 29 23.5q13 14 20 33v125h-15q-71 0 -103 -25.5t-32 -79.5q0 -41 17 -63t48 -22q21 0 36 8.5zM198 551q-15 16 -15 40t15 40t41 16t41 -16t15 -40t-15 -40t-41 -16t-41 16zM378 551q-15 16 -15 40t15 40t41 16t41 -16t15 -40t-15 -40t-41 -16t-41 16z" />
    <glyph glyph-name="uni1EA1" unicode="&#x1ea1;" 
d="M73.5 26.5q-44.5 36.5 -44.5 98.5q0 50 23.5 83t82.5 50t164 17h15q0 87 -24 123.5t-71 36.5q-39 0 -64 -19t-36 -71h-55q0 34 4.5 58t20.5 42q31 35 150 35q100 0 152.5 -52.5t52.5 -157.5v-270h-85l-35 45h-5q-9 -14 -28 -28q-34 -27 -92 -27q-81 0 -125.5 36.5z
M265 48.5q15 8.5 29 23.5q13 14 20 33v125h-15q-71 0 -103 -25.5t-32 -79.5q0 -41 17 -63t48 -22q21 0 36 8.5zM211 -159q-13 14 -13 37q0 22 13.5 36t36.5 14q24 0 37.5 -14t13.5 -36q0 -23 -13.5 -37t-37.5 -14t-37 14z" />
    <glyph glyph-name="agrave" unicode="&#xe0;" 
d="M73.5 26.5q-44.5 36.5 -44.5 98.5q0 50 23.5 83t82.5 50t164 17h15q0 87 -24 123.5t-71 36.5q-39 0 -64 -19t-36 -71h-55q0 34 4.5 58t20.5 42q31 35 150 35q100 0 152.5 -52.5t52.5 -157.5v-270h-85l-35 45h-5q-9 -14 -28 -28q-34 -27 -92 -27q-81 0 -125.5 36.5z
M265 48.5q15 8.5 29 23.5q13 14 20 33v125h-15q-71 0 -103 -25.5t-32 -79.5q0 -41 17 -63t48 -22q21 0 36 8.5zM243 515l-106 140h119l42 -140h-55z" />
    <glyph glyph-name="uni1EA3" unicode="&#x1ea3;" 
d="M73.5 26.5q-44.5 36.5 -44.5 98.5q0 50 23.5 83t82.5 50t164 17h15q0 87 -24 123.5t-71 36.5q-39 0 -64 -19t-36 -71h-55q0 34 4.5 58t20.5 42q31 35 150 35q100 0 152.5 -52.5t52.5 -157.5v-270h-85l-35 45h-5q-9 -14 -28 -28q-34 -27 -92 -27q-81 0 -125.5 36.5z
M265 48.5q15 8.5 29 23.5q13 14 20 33v125h-15q-71 0 -103 -25.5t-32 -79.5q0 -41 17 -63t48 -22q21 0 36 8.5zM253 548q4 11 13 26q15 23 15 41q0 12 -9.5 20t-23.5 8q-18 0 -28 -10.5t-15 -41.5l-55 1q0 56 23 84.5t75 28.5q47 0 73 -23t26 -58q0 -16 -6 -27.5t-17 -24.5
q-12 -15 -17.5 -25.5t-6.5 -25.5h-52q1 16 5 27z" />
    <glyph glyph-name="aring" unicode="&#xe5;" 
d="M73.5 26.5q-44.5 36.5 -44.5 98.5q0 50 23.5 83t82.5 50t164 17h15q0 87 -24 123.5t-71 36.5q-39 0 -64 -19t-36 -71h-55q0 34 4.5 58t20.5 42q31 35 150 35q100 0 152.5 -52.5t52.5 -157.5v-270h-85l-35 45h-5q-9 -14 -28 -28q-34 -27 -92 -27q-81 0 -125.5 36.5z
M265 48.5q15 8.5 29 23.5q13 14 20 33v125h-15q-71 0 -103 -25.5t-32 -79.5q0 -41 17 -63t48 -22q21 0 36 8.5zM174.5 546.5q-26.5 26.5 -26.5 68.5t26.5 68.5t68.5 26.5t68.5 -26.5t26.5 -68.5t-26.5 -68.5t-68.5 -26.5t-68.5 26.5zM275 578.5q13 13.5 13 36.5t-13 36.5
t-32 13.5t-32 -13.5t-13 -36.5t13 -36.5t32 -13.5t32 13.5z" />
    <glyph glyph-name="atilde" unicode="&#xe3;" 
d="M73.5 26.5q-44.5 36.5 -44.5 98.5q0 50 23.5 83t82.5 50t164 17h15q0 87 -24 123.5t-71 36.5q-39 0 -64 -19t-36 -71h-55q0 34 4.5 58t20.5 42q31 35 150 35q100 0 152.5 -52.5t52.5 -157.5v-270h-85l-35 45h-5q-9 -14 -28 -28q-34 -27 -92 -27q-81 0 -125.5 36.5z
M265 48.5q15 8.5 29 23.5q13 14 20 33v125h-15q-71 0 -103 -25.5t-32 -79.5q0 -41 17 -63t48 -22q21 0 36 8.5zM145.5 614q17.5 22 50.5 22q17 0 29.5 -6.5t28.5 -17.5q2 -2 13 -9t21 -7q16 0 25.5 12t9.5 28h40q0 -56 -17 -78t-50 -22q-16 0 -28 6t-30 18q-9 6 -18 11
t-17 5q-16 0 -25.5 -12t-9.5 -28h-40q0 56 17.5 78z" />
    <glyph glyph-name="ae" unicode="&#xe6;" horiz-adv-x="795" 
d="M74.5 26q-46.5 36 -46.5 94q0 69 61 105.5t214 36.5h15q0 89 -25 131t-75 42q-39 0 -64 -19t-36 -71h-55q0 34 4.5 58t20.5 42t53.5 26.5t76.5 8.5q62 0 106.5 -24t68.5 -67q29 45 70 68t90 23q58 0 106 -25t76 -70.5t28 -104.5q0 -19 -2 -43l-2 -20h-301v-10
q1 -89 30 -130.5t80 -41.5q48 0 80.5 21.5t62.5 61.5l31 -23q-29 -45 -72.5 -75t-116.5 -30q-110 0 -170 90q-20 -38 -65 -64t-110 -26q-87 0 -133.5 36zM628 262q0 88 -23 130.5t-62 42.5q-37 0 -61 -43t-24 -130h170zM297 72q12 14 21 33v112h-15q-82 0 -111 -24t-29 -73
q0 -35 18 -57.5t47 -22.5q39 0 69 32z" />
    <glyph glyph-name="b" unicode="b" horiz-adv-x="547" 
d="M212 17q-17 12 -27 28h-5l-35 -45h-85v530q0 51 -14 75.5t-56 24.5h-10v30h120q36 0 55 -12t27 -39.5t8 -78.5v-80q13 8 28 15q41 15 77 15q104 0 159.5 -68.5t55.5 -176.5t-54.5 -176.5t-155.5 -68.5q-54 0 -88 27zM352 89q23 54 23 146q0 200 -100 200q-29 0 -61 -15
q-14 -8 -24 -15v-305q9 -20 22 -33q30 -32 68 -32q49 0 72 54z" />
    <glyph glyph-name="c" unicode="c" 
d="M145 23q-54 33 -81.5 88.5t-27.5 123.5t27.5 123.5t81.5 88.5t131 33q120 0 155 -35q17 -17 21 -45t4 -95h-30q-4 63 -39 96.5t-96 33.5q-55 0 -87.5 -50.5t-32.5 -149.5q0 -200 125 -200q48 0 80.5 21.5t62.5 61.5l31 -23q-29 -45 -73 -75t-121 -30t-131 33z" />
    <glyph glyph-name="ccedilla" unicode="&#xe7;" horiz-adv-x="498" 
d="M236 -142h40q18 0 29 9.5t11 22.5q0 15 -11 24t-29 9h-39v70q-96 12 -148 79t-52 163q0 68 27.5 123.5t81.5 88.5t131 33q120 0 155 -35q17 -17 21 -45t4 -95h-30q-4 63 -39 96.5t-96 33.5q-55 0 -87.5 -50.5t-32.5 -149.5q0 -200 125 -200q48 0 80.5 21.5t62.5 61.5
l31 -23q-31 -44 -69 -72.5t-106 -31.5v-23q39 0 62.5 -21t23.5 -57q0 -35 -24 -56.5t-62 -21.5h-60v46z" />
    <glyph glyph-name="d" unicode="d" horiz-adv-x="547" 
d="M91.5 58.5q-54.5 68.5 -54.5 176.5t55.5 176.5t159.5 68.5q36 0 77 -15q15 -7 28 -15v80q0 51 -14 75.5t-56 24.5h-10v30h120q36 0 55 -12t27 -39.5t8 -78.5v-530h-85l-35 45h-5q-9 -14 -28 -28q-34 -27 -87 -27q-101 0 -155.5 68.5zM334 67q11 11 23 33v305
q-10 8 -24 15q-32 15 -61 15q-100 0 -100 -200q0 -93 22.5 -146.5t72.5 -53.5q37 0 67 32z" />
    <glyph glyph-name="eth" unicode="&#xf0;" horiz-adv-x="557" 
d="M144.5 22.5q-54.5 32.5 -81.5 88t-27 124.5t27 124.5t79 88t124 32.5q49 0 85 -21t55 -59q-12 52 -27.5 89t-38.5 66l-47 -47l-40 40l47 47q-19 18 -44.5 24t-59.5 6q-23 0 -38 -5q3 0 -15 -4l-14 32q17 11 41.5 16.5t45.5 5.5q41 0 71.5 -9t56.5 -27l43 46l40 -38
l-42 -42q59 -53 95 -138.5t36 -191.5q0 -131 -61.5 -205.5t-178.5 -74.5q-77 0 -131.5 32.5zM351 87q30 52 30 148q0 81 -26.5 140.5t-78.5 59.5t-78.5 -59.5t-26.5 -140.5q0 -96 30 -148t75 -52t75 52z" />
    <glyph glyph-name="dcroat" unicode="&#x111;" horiz-adv-x="552" 
d="M522 516h-35v-516h-85l-35 45h-5q-9 -14 -28 -28q-34 -27 -87 -27q-101 0 -155.5 68.5t-54.5 176.5t55.5 176.5t159.5 68.5q36 0 77 -15q15 -7 28 -15v66h-134v45h133q-3 34 -18.5 51.5t-50.5 17.5h-10v30h120q47 0 66.5 -21.5t22.5 -77.5h36v-45zM357 405q-10 8 -24 15
q-32 15 -61 15q-100 0 -100 -200q0 -93 22.5 -146.5t72.5 -53.5q37 0 67 32q11 11 23 33v305z" />
    <glyph glyph-name="e" unicode="e" horiz-adv-x="509" 
d="M146 22q-52 32 -80.5 87.5t-28.5 125.5q0 78 28.5 133t78.5 83.5t113 28.5q62 0 112 -25t79 -70.5t29 -104.5q0 -19 -2 -43l-2 -20h-301q0 -95 29 -138.5t81 -43.5q48 0 80.5 21.5t62.5 61.5l31 -23q-29 -45 -72.5 -75t-116.5 -30q-69 0 -121 32zM342 262q0 94 -22 133.5
t-63 39.5q-38 0 -61.5 -40.5t-23.5 -132.5h170z" />
    <glyph glyph-name="eacute" unicode="&#xe9;" horiz-adv-x="509" 
d="M146 22q-52 32 -80.5 87.5t-28.5 125.5q0 78 28.5 133t78.5 83.5t113 28.5q62 0 112 -25t79 -70.5t29 -104.5q0 -19 -2 -43l-2 -20h-301q0 -95 29 -138.5t81 -43.5q48 0 80.5 21.5t62.5 61.5l31 -23q-29 -45 -72.5 -75t-116.5 -30q-69 0 -121 32zM342 262q0 94 -22 133.5
t-63 39.5q-38 0 -61.5 -40.5t-23.5 -132.5h170zM219 525l42 140h119l-106 -140h-55z" />
    <glyph glyph-name="ecircumflex" unicode="&#xea;" horiz-adv-x="509" 
d="M146 22q-52 32 -80.5 87.5t-28.5 125.5q0 78 28.5 133t78.5 83.5t113 28.5q62 0 112 -25t79 -70.5t29 -104.5q0 -19 -2 -43l-2 -20h-301q0 -95 29 -138.5t81 -43.5q48 0 80.5 21.5t62.5 61.5l31 -23q-29 -45 -72.5 -75t-116.5 -30q-69 0 -121 32zM342 262q0 94 -22 133.5
t-63 39.5q-38 0 -61.5 -40.5t-23.5 -132.5h170zM107 526l80 125h130l80 -125h-60l-85 80l-85 -80h-60z" />
    <glyph glyph-name="uni1EBF" unicode="&#x1ebf;" horiz-adv-x="509" 
d="M146 22q-52 32 -80.5 87.5t-28.5 125.5q0 78 28.5 133t78.5 83.5t113 28.5q62 0 112 -25t79 -70.5t29 -104.5q0 -19 -2 -43l-2 -20h-301q0 -95 29 -138.5t81 -43.5q48 0 80.5 21.5t62.5 61.5l31 -23q-29 -45 -72.5 -75t-116.5 -30q-69 0 -121 32zM342 262q0 94 -22 133.5
t-63 39.5q-38 0 -61.5 -40.5t-23.5 -132.5h170zM110 525l80 125h130l80 -125h-60l-85 80l-85 -80h-60zM383 592l42 140h119l-106 -140h-55z" />
    <glyph glyph-name="uni1EC7" unicode="&#x1ec7;" horiz-adv-x="509" 
d="M146 22q-52 32 -80.5 87.5t-28.5 125.5q0 78 28.5 133t78.5 83.5t113 28.5q62 0 112 -25t79 -70.5t29 -104.5q0 -19 -2 -43l-2 -20h-301q0 -95 29 -138.5t81 -43.5q48 0 80.5 21.5t62.5 61.5l31 -23q-29 -45 -72.5 -75t-116.5 -30q-69 0 -121 32zM342 262q0 94 -22 133.5
t-63 39.5q-38 0 -61.5 -40.5t-23.5 -132.5h170zM218 -159q-13 14 -13 37q0 22 13.5 36t36.5 14q24 0 37.5 -14t13.5 -36q0 -23 -13.5 -37t-37.5 -14t-37 14zM110 525l80 125h130l80 -125h-60l-85 80l-85 -80h-60z" />
    <glyph glyph-name="uni1EC1" unicode="&#x1ec1;" horiz-adv-x="509" 
d="M146 22q-52 32 -80.5 87.5t-28.5 125.5q0 78 28.5 133t78.5 83.5t113 28.5q62 0 112 -25t79 -70.5t29 -104.5q0 -19 -2 -43l-2 -20h-301q0 -95 29 -138.5t81 -43.5q48 0 80.5 21.5t62.5 61.5l31 -23q-29 -45 -72.5 -75t-116.5 -30q-69 0 -121 32zM342 262q0 94 -22 133.5
t-63 39.5q-38 0 -61.5 -40.5t-23.5 -132.5h170zM110 525l80 125h130l80 -125h-60l-85 80l-85 -80h-60zM395 612l-106 140h119l42 -140h-55z" />
    <glyph glyph-name="uni1EC3" unicode="&#x1ec3;" horiz-adv-x="509" 
d="M146 22q-52 32 -80.5 87.5t-28.5 125.5q0 78 28.5 133t78.5 83.5t113 28.5q62 0 112 -25t79 -70.5t29 -104.5q0 -19 -2 -43l-2 -20h-301q0 -95 29 -138.5t81 -43.5q48 0 80.5 21.5t62.5 61.5l31 -23q-29 -45 -72.5 -75t-116.5 -30q-69 0 -121 32zM342 262q0 94 -22 133.5
t-63 39.5q-38 0 -61.5 -40.5t-23.5 -132.5h170zM110 525l80 125h130l80 -125h-60l-85 80l-85 -80h-60zM391 645q4 11 13 26q15 23 15 41q0 12 -9.5 20t-23.5 8q-18 0 -28 -10.5t-15 -41.5l-55 1q0 56 23 84.5t75 28.5q47 0 73 -23t26 -58q0 -16 -6 -27.5t-17 -24.5
q-12 -15 -17.5 -25.5t-6.5 -25.5h-52q1 16 5 27z" />
    <glyph glyph-name="uni1EC5" unicode="&#x1ec5;" horiz-adv-x="509" 
d="M146 22q-52 32 -80.5 87.5t-28.5 125.5q0 78 28.5 133t78.5 83.5t113 28.5q62 0 112 -25t79 -70.5t29 -104.5q0 -19 -2 -43l-2 -20h-301q0 -95 29 -138.5t81 -43.5q48 0 80.5 21.5t62.5 61.5l31 -23q-29 -45 -72.5 -75t-116.5 -30q-69 0 -121 32zM342 262q0 94 -22 133.5
t-63 39.5q-38 0 -61.5 -40.5t-23.5 -132.5h170zM110 525l80 125h130l80 -125h-60l-85 80l-85 -80h-60zM154.5 754q17.5 22 50.5 22q17 0 29.5 -6.5t28.5 -17.5q2 -2 13 -9t21 -7q16 0 25.5 12t9.5 28h40q0 -56 -17 -78t-50 -22q-16 0 -28 6t-30 18q-9 6 -18 11t-17 5
q-16 0 -25.5 -12t-9.5 -28h-40q0 56 17.5 78z" />
    <glyph glyph-name="edieresis" unicode="&#xeb;" horiz-adv-x="509" 
d="M146 22q-52 32 -80.5 87.5t-28.5 125.5q0 78 28.5 133t78.5 83.5t113 28.5q62 0 112 -25t79 -70.5t29 -104.5q0 -19 -2 -43l-2 -20h-301q0 -95 29 -138.5t81 -43.5q48 0 80.5 21.5t62.5 61.5l31 -23q-29 -45 -72.5 -75t-116.5 -30q-69 0 -121 32zM342 262q0 94 -22 133.5
t-63 39.5q-38 0 -61.5 -40.5t-23.5 -132.5h170zM201 551q-15 16 -15 40t15 40t41 16t41 -16t15 -40t-15 -40t-41 -16t-41 16zM381 551q-15 16 -15 40t15 40t41 16t41 -16t15 -40t-15 -40t-41 -16t-41 16z" />
    <glyph glyph-name="uni1EB9" unicode="&#x1eb9;" horiz-adv-x="509" 
d="M146 22q-52 32 -80.5 87.5t-28.5 125.5q0 78 28.5 133t78.5 83.5t113 28.5q62 0 112 -25t79 -70.5t29 -104.5q0 -19 -2 -43l-2 -20h-301q0 -95 29 -138.5t81 -43.5q48 0 80.5 21.5t62.5 61.5l31 -23q-29 -45 -72.5 -75t-116.5 -30q-69 0 -121 32zM342 262q0 94 -22 133.5
t-63 39.5q-38 0 -61.5 -40.5t-23.5 -132.5h170zM218 -159q-13 14 -13 37q0 22 13.5 36t36.5 14q24 0 37.5 -14t13.5 -36q0 -23 -13.5 -37t-37.5 -14t-37 14z" />
    <glyph glyph-name="egrave" unicode="&#xe8;" horiz-adv-x="509" 
d="M146 22q-52 32 -80.5 87.5t-28.5 125.5q0 78 28.5 133t78.5 83.5t113 28.5q62 0 112 -25t79 -70.5t29 -104.5q0 -19 -2 -43l-2 -20h-301q0 -95 29 -138.5t81 -43.5q48 0 80.5 21.5t62.5 61.5l31 -23q-29 -45 -72.5 -75t-116.5 -30q-69 0 -121 32zM342 262q0 94 -22 133.5
t-63 39.5q-38 0 -61.5 -40.5t-23.5 -132.5h170zM250 515l-106 140h119l42 -140h-55z" />
    <glyph glyph-name="uni1EBB" unicode="&#x1ebb;" horiz-adv-x="509" 
d="M146 22q-52 32 -80.5 87.5t-28.5 125.5q0 78 28.5 133t78.5 83.5t113 28.5q62 0 112 -25t79 -70.5t29 -104.5q0 -19 -2 -43l-2 -20h-301q0 -95 29 -138.5t81 -43.5q48 0 80.5 21.5t62.5 61.5l31 -23q-29 -45 -72.5 -75t-116.5 -30q-69 0 -121 32zM342 262q0 94 -22 133.5
t-63 39.5q-38 0 -61.5 -40.5t-23.5 -132.5h170zM260 548q4 11 13 26q15 23 15 41q0 12 -9.5 20t-23.5 8q-18 0 -28 -10.5t-15 -41.5l-55 1q0 56 23 84.5t75 28.5q47 0 73 -23t26 -58q0 -16 -6 -27.5t-17 -24.5q-12 -15 -17.5 -25.5t-6.5 -25.5h-52q1 16 5 27z" />
    <glyph glyph-name="uni1EBD" unicode="&#x1ebd;" horiz-adv-x="509" 
d="M146 22q-52 32 -80.5 87.5t-28.5 125.5q0 78 28.5 133t78.5 83.5t113 28.5q62 0 112 -25t79 -70.5t29 -104.5q0 -19 -2 -43l-2 -20h-301q0 -95 29 -138.5t81 -43.5q48 0 80.5 21.5t62.5 61.5l31 -23q-29 -45 -72.5 -75t-116.5 -30q-69 0 -121 32zM342 262q0 94 -22 133.5
t-63 39.5q-38 0 -61.5 -40.5t-23.5 -132.5h170zM154.5 628q17.5 22 50.5 22q17 0 29.5 -6.5t28.5 -17.5q2 -2 13 -9t21 -7q16 0 25.5 12t9.5 28h40q0 -56 -17 -78t-50 -22q-16 0 -28 6t-30 18q-9 6 -18 11t-17 5q-16 0 -25.5 -12t-9.5 -28h-40q0 56 17.5 78z" />
    <glyph glyph-name="f" unicode="f" horiz-adv-x="342" 
d="M72 425h-60v45h60v27q0 85 48.5 129t146.5 44q28 0 53.5 -4.5t37.5 -12.5q26 -15 39 -43l-40 -35q-15 24 -37 37t-48 13q-35 0 -52.5 -29t-17.5 -99v-27h130v-45h-130v-425h-130v425z" />
    <glyph glyph-name="g" unicode="g" horiz-adv-x="523" 
d="M79.5 -163.5q-65.5 36.5 -65.5 118.5q0 50 40 83t95 47q-45 14 -45 55q0 34 40 50q-43 15 -71.5 52t-28.5 82q0 82 58.5 119t156.5 37h210v-27l-90 -12q42 -16 68.5 -49t26.5 -68q0 -82 -55.5 -118t-159.5 -36q-52 0 -76 -5.5t-24 -24.5q0 -16 24 -21t76 -6
q108 -2 176.5 -42.5t68.5 -115.5q0 -82 -65.5 -118.5t-179.5 -36.5t-179.5 36.5zM339 324q0 56 -22 86t-58 30q-37 0 -58.5 -29t-21.5 -87q0 -114 80 -114t80 114zM340 -127.5q29 27.5 29 82.5q0 44 -27.5 73.5t-74.5 38.5l-47 5q-35 -15 -53 -43t-18 -74q0 -55 29 -82.5
t81 -27.5t81 27.5z" />
    <glyph glyph-name="gbreve" unicode="&#x11f;" horiz-adv-x="520" 
d="M79.5 -163.5q-65.5 36.5 -65.5 118.5q0 50 40 83t95 47q-45 14 -45 55q0 34 40 50q-43 15 -71.5 52t-28.5 82q0 82 58.5 119t156.5 37h210v-27l-90 -12q42 -16 68.5 -49t26.5 -68q0 -82 -55.5 -118t-159.5 -36q-52 0 -76 -5.5t-24 -24.5q0 -16 24 -21t76 -6
q108 -2 176.5 -42.5t68.5 -115.5q0 -82 -65.5 -118.5t-179.5 -36.5t-179.5 36.5zM339 324q0 56 -22 86t-58 30q-37 0 -58.5 -29t-21.5 -87q0 -114 80 -114t80 114zM340 -127.5q29 27.5 29 82.5q0 44 -27.5 73.5t-74.5 38.5l-47 5q-35 -15 -53 -43t-18 -74q0 -55 29 -82.5
t81 -27.5t81 27.5zM175 555.5q-37 25.5 -56 68.5l28 21q17 -21 45.5 -35.5t67.5 -14.5t67.5 14.5t45.5 35.5l28 -21q-19 -43 -56 -68.5t-85 -25.5t-85 25.5z" />
    <glyph glyph-name="h" unicode="h" horiz-adv-x="544" 
d="M60 530q0 51 -14 75.5t-56 24.5h-10v30h120q36 0 55 -12t27 -39.5t8 -78.5v-88q9 7 31 19q40 19 79 19q81 0 135.5 -41.5t54.5 -141.5v-297h-130v292q0 72 -25.5 105t-64.5 33q-27 0 -57 -18q-12 -7 -23 -17v-395h-130v530z" />
    <glyph glyph-name="i" unicode="i" horiz-adv-x="267" 
d="M88.5 546q-19.5 22 -19.5 54q0 26 15.5 41t39.5 15q36 0 55.5 -22t19.5 -54q0 -26 -15.5 -41t-39.5 -15q-36 0 -55.5 22zM79 340q0 51 -14 75.5t-56 24.5h-10v30h120q36 0 55 -12t27 -39.5t8 -78.5v-340h-130v340z" />
    <glyph glyph-name="dotlessi" unicode="&#x131;" horiz-adv-x="267" 
d="M79 340q0 51 -14 75.5t-56 24.5h-10v30h120q36 0 55 -12t27 -39.5t8 -78.5v-340h-130v340z" />
    <glyph glyph-name="iacute" unicode="&#xed;" horiz-adv-x="267" 
d="M79 340q0 51 -14 75.5t-56 24.5h-10v30h120q36 0 55 -12t27 -39.5t8 -78.5v-340h-130v340zM95 525l42 140h119l-106 -140h-55z" />
    <glyph glyph-name="icircumflex" unicode="&#xee;" horiz-adv-x="267" 
d="M79 340q0 51 -14 75.5t-56 24.5h-10v30h120q36 0 55 -12t27 -39.5t8 -78.5v-340h-130v340zM-10 532l80 125h130l80 -125h-60l-85 80l-85 -80h-60z" />
    <glyph glyph-name="idieresis" unicode="&#xef;" horiz-adv-x="267" 
d="M-1.5 556q-19.5 22 -19.5 54q0 26 15.5 41t39.5 15q36 0 55.5 -22t19.5 -54q0 -26 -15.5 -41t-39.5 -15q-36 0 -55.5 22zM183.5 556q-19.5 22 -19.5 54q0 26 15.5 41t39.5 15q36 0 55.5 -22t19.5 -54q0 -26 -15.5 -41t-39.5 -15q-36 0 -55.5 22zM79 340q0 51 -14 75.5
t-56 24.5h-10v30h120q36 0 55 -12t27 -39.5t8 -78.5v-340h-130v340z" />
    <glyph glyph-name="uni1ECB" unicode="&#x1ecb;" horiz-adv-x="267" 
d="M88.5 546q-19.5 22 -19.5 54q0 26 15.5 41t39.5 15q36 0 55.5 -22t19.5 -54q0 -26 -15.5 -41t-39.5 -15q-36 0 -55.5 22zM79 340q0 51 -14 75.5t-56 24.5h-10v30h120q36 0 55 -12t27 -39.5t8 -78.5v-340h-130v340zM97 -159q-13 14 -13 37q0 22 13.5 36t36.5 14
q24 0 37.5 -14t13.5 -36q0 -23 -13.5 -37t-37.5 -14t-37 14z" />
    <glyph glyph-name="igrave" unicode="&#xec;" horiz-adv-x="267" 
d="M79 340q0 51 -14 75.5t-56 24.5h-10v30h120q36 0 55 -12t27 -39.5t8 -78.5v-340h-130v340zM129 515l-106 140h119l42 -140h-55z" />
    <glyph glyph-name="uni1EC9" unicode="&#x1ec9;" horiz-adv-x="267" 
d="M79 340q0 51 -14 75.5t-56 24.5h-10v30h120q36 0 55 -12t27 -39.5t8 -78.5v-340h-130v340zM139 548q4 11 13 26q15 23 15 41q0 12 -9.5 20t-23.5 8q-18 0 -28 -10.5t-15 -41.5l-55 1q0 56 23 84.5t75 28.5q47 0 73 -23t26 -58q0 -16 -6 -27.5t-17 -24.5
q-12 -15 -17.5 -25.5t-6.5 -25.5h-52q1 16 5 27z" />
    <glyph glyph-name="itilde" unicode="&#x129;" horiz-adv-x="267" 
d="M79 340q0 51 -14 75.5t-56 24.5h-10v30h120q36 0 55 -12t27 -39.5t8 -78.5v-340h-130v340zM33.5 628q17.5 22 50.5 22q17 0 29.5 -6.5t28.5 -17.5q2 -2 13 -9t21 -7q16 0 25.5 12t9.5 28h40q0 -56 -17 -78t-50 -22q-16 0 -28 6t-30 18q-9 6 -18 11t-17 5q-16 0 -25.5 -12
t-9.5 -28h-40q0 56 17.5 78z" />
    <glyph glyph-name="j" unicode="j" horiz-adv-x="267" 
d="M88.5 546q-19.5 22 -19.5 54q0 26 15.5 41t39.5 15q36 0 55.5 -22t19.5 -54q0 -26 -15.5 -41t-39.5 -15q-36 0 -55.5 22zM-9 -165q47 9 67.5 50t20.5 140v315q0 51 -14 75.5t-56 24.5h-10v30h120q36 0 55 -12t27 -39.5t8 -78.5v-315q0 -84 -20.5 -130t-67 -65.5
t-130.5 -19.5v25z" />
    <glyph glyph-name="k" unicode="k" horiz-adv-x="505" 
d="M354.5 8.5q-36.5 18.5 -68.5 61.5l-96 126v-196h-130v530q0 51 -14 75.5t-56 24.5h-10v30h120q36 0 55 -12t27 -39.5t8 -78.5v-285l121 148q34 41 64 59t80 18h20v-26q-30 0 -54 -12t-46 -38l-97 -118l133 -176q48 -65 93 -76v-24q-8 -4 -29.5 -7t-39.5 -3
q-44 0 -80.5 18.5z" />
    <glyph glyph-name="l" unicode="l" horiz-adv-x="258" 
d="M64 530q0 51 -14 75.5t-56 24.5h-10v30h120q36 0 55 -12t27 -39.5t8 -78.5v-530h-130v530z" />
    <glyph glyph-name="m" unicode="m" horiz-adv-x="826" 
d="M80 340q0 51 -13.5 75.5t-55.5 24.5h-10v30h99q65 0 85 -38h4q55 48 126 48q49 0 85.5 -18.5t52.5 -38.5q24 26 57 41.5t85 15.5q175 0 175 -184v-296h-130v297q0 69 -22 101t-58 32q-27 0 -50 -10.5t-36 -27.5q2 -4 8 -22q8 -30 8 -74v-296h-130v297q0 69 -22 101
t-58 32q-21 0 -43.5 -12.5t-33.5 -27.5l3 -14q4 -12 4 -39v-337h-130v340z" />
    <glyph glyph-name="n" unicode="n" horiz-adv-x="575" 
d="M80 340q0 51 -13.5 75.5t-55.5 24.5h-10v30h99q34 0 53.5 -8.5t30.5 -28.5q51 47 146 47t142.5 -44.5t47.5 -139.5v-296h-130v297q0 69 -25.5 101t-69.5 32q-31 0 -54.5 -8.5t-37.5 -22.5l3 -14q4 -12 4 -39v-346h-130v340z" />
    <glyph glyph-name="ntilde" unicode="&#xf1;" horiz-adv-x="575" 
d="M80 340q0 51 -13.5 75.5t-55.5 24.5h-10v30h99q34 0 53.5 -8.5t30.5 -28.5q51 47 146 47t142.5 -44.5t47.5 -139.5v-296h-130v297q0 69 -25.5 101t-69.5 32q-31 0 -54.5 -8.5t-37.5 -22.5l3 -14q4 -12 4 -39v-346h-130v340zM194.5 623q17.5 22 50.5 22q17 0 29.5 -6.5
t28.5 -17.5q2 -2 13 -9t21 -7q16 0 25.5 12t9.5 28h40q0 -56 -17 -78t-50 -22q-16 0 -28 6t-30 18q-9 6 -18 11t-17 5q-16 0 -25.5 -12t-9.5 -28h-40q0 56 17.5 78z" />
    <glyph glyph-name="o" unicode="o" horiz-adv-x="552" 
d="M148.5 22.5q-54.5 32.5 -83.5 88t-29 124.5t29 124.5t83.5 88t127.5 32.5t127.5 -32.5t83.5 -88t29 -124.5t-29 -124.5t-83.5 -88t-127.5 -32.5t-127.5 32.5zM354 90q27 55 27 145t-27 145t-78 55t-78 -55t-27 -145t27 -145t78 -55t78 55z" />
    <glyph glyph-name="oacute" unicode="&#xf3;" horiz-adv-x="552" 
d="M148.5 22.5q-54.5 32.5 -83.5 88t-29 124.5t29 124.5t83.5 88t127.5 32.5t127.5 -32.5t83.5 -88t29 -124.5t-29 -124.5t-83.5 -88t-127.5 -32.5t-127.5 32.5zM354 90q27 55 27 145t-27 145t-78 55t-78 -55t-27 -145t27 -145t78 -55t78 55zM233 525l42 140h119l-106 -140
h-55z" />
    <glyph glyph-name="ocircumflex" unicode="&#xf4;" horiz-adv-x="552" 
d="M148.5 22.5q-54.5 32.5 -83.5 88t-29 124.5t29 124.5t83.5 88t127.5 32.5t127.5 -32.5t83.5 -88t29 -124.5t-29 -124.5t-83.5 -88t-127.5 -32.5t-127.5 32.5zM354 90q27 55 27 145t-27 145t-78 55t-78 -55t-27 -145t27 -145t78 -55t78 55zM131 525l80 125h130l80 -125
h-60l-85 80l-85 -80h-60z" />
    <glyph glyph-name="uni1ED1" unicode="&#x1ed1;" horiz-adv-x="552" 
d="M148.5 22.5q-54.5 32.5 -83.5 88t-29 124.5t29 124.5t83.5 88t127.5 32.5t127.5 -32.5t83.5 -88t29 -124.5t-29 -124.5t-83.5 -88t-127.5 -32.5t-127.5 32.5zM354 90q27 55 27 145t-27 145t-78 55t-78 -55t-27 -145t27 -145t78 -55t78 55zM131 525l80 125h130l80 -125
h-60l-85 80l-85 -80h-60zM404 592l42 140h119l-106 -140h-55z" />
    <glyph glyph-name="uni1ED9" unicode="&#x1ed9;" horiz-adv-x="552" 
d="M148.5 22.5q-54.5 32.5 -83.5 88t-29 124.5t29 124.5t83.5 88t127.5 32.5t127.5 -32.5t83.5 -88t29 -124.5t-29 -124.5t-83.5 -88t-127.5 -32.5t-127.5 32.5zM354 90q27 55 27 145t-27 145t-78 55t-78 -55t-27 -145t27 -145t78 -55t78 55zM239 -159q-13 14 -13 37
q0 22 13.5 36t36.5 14q24 0 37.5 -14t13.5 -36q0 -23 -13.5 -37t-37.5 -14t-37 14zM131 525l80 125h130l80 -125h-60l-85 80l-85 -80h-60z" />
    <glyph glyph-name="uni1ED3" unicode="&#x1ed3;" horiz-adv-x="552" 
d="M148.5 22.5q-54.5 32.5 -83.5 88t-29 124.5t29 124.5t83.5 88t127.5 32.5t127.5 -32.5t83.5 -88t29 -124.5t-29 -124.5t-83.5 -88t-127.5 -32.5t-127.5 32.5zM354 90q27 55 27 145t-27 145t-78 55t-78 -55t-27 -145t27 -145t78 -55t78 55zM131 525l80 125h130l80 -125
h-60l-85 80l-85 -80h-60zM416 612l-106 140h119l42 -140h-55z" />
    <glyph glyph-name="uni1ED5" unicode="&#x1ed5;" horiz-adv-x="552" 
d="M148.5 22.5q-54.5 32.5 -83.5 88t-29 124.5t29 124.5t83.5 88t127.5 32.5t127.5 -32.5t83.5 -88t29 -124.5t-29 -124.5t-83.5 -88t-127.5 -32.5t-127.5 32.5zM354 90q27 55 27 145t-27 145t-78 55t-78 -55t-27 -145t27 -145t78 -55t78 55zM131 525l80 125h130l80 -125
h-60l-85 80l-85 -80h-60zM412 645q4 11 13 26q15 23 15 41q0 12 -9.5 20t-23.5 8q-18 0 -28 -10.5t-15 -41.5l-55 1q0 56 23 84.5t75 28.5q47 0 73 -23t26 -58q0 -16 -6 -27.5t-17 -24.5q-12 -15 -17.5 -25.5t-6.5 -25.5h-52q1 16 5 27z" />
    <glyph glyph-name="uni1ED7" unicode="&#x1ed7;" horiz-adv-x="552" 
d="M148.5 22.5q-54.5 32.5 -83.5 88t-29 124.5t29 124.5t83.5 88t127.5 32.5t127.5 -32.5t83.5 -88t29 -124.5t-29 -124.5t-83.5 -88t-127.5 -32.5t-127.5 32.5zM354 90q27 55 27 145t-27 145t-78 55t-78 -55t-27 -145t27 -145t78 -55t78 55zM131 525l80 125h130l80 -125
h-60l-85 80l-85 -80h-60zM175.5 754q17.5 22 50.5 22q17 0 29.5 -6.5t28.5 -17.5q2 -2 13 -9t21 -7q16 0 25.5 12t9.5 28h40q0 -56 -17 -78t-50 -22q-16 0 -28 6t-30 18q-9 6 -18 11t-17 5q-16 0 -25.5 -12t-9.5 -28h-40q0 56 17.5 78z" />
    <glyph glyph-name="odieresis" unicode="&#xf6;" horiz-adv-x="552" 
d="M148.5 22.5q-54.5 32.5 -83.5 88t-29 124.5t29 124.5t83.5 88t127.5 32.5t127.5 -32.5t83.5 -88t29 -124.5t-29 -124.5t-83.5 -88t-127.5 -32.5t-127.5 32.5zM354 90q27 55 27 145t-27 145t-78 55t-78 -55t-27 -145t27 -145t78 -55t78 55zM225 551q-15 16 -15 40t15 40
t41 16t41 -16t15 -40t-15 -40t-41 -16t-41 16zM405 551q-15 16 -15 40t15 40t41 16t41 -16t15 -40t-15 -40t-41 -16t-41 16z" />
    <glyph glyph-name="uni1ECD" unicode="&#x1ecd;" horiz-adv-x="552" 
d="M148.5 22.5q-54.5 32.5 -83.5 88t-29 124.5t29 124.5t83.5 88t127.5 32.5t127.5 -32.5t83.5 -88t29 -124.5t-29 -124.5t-83.5 -88t-127.5 -32.5t-127.5 32.5zM354 90q27 55 27 145t-27 145t-78 55t-78 -55t-27 -145t27 -145t78 -55t78 55zM239 -159q-13 14 -13 37
q0 22 13.5 36t36.5 14q24 0 37.5 -14t13.5 -36q0 -23 -13.5 -37t-37.5 -14t-37 14z" />
    <glyph glyph-name="ograve" unicode="&#xf2;" horiz-adv-x="552" 
d="M148.5 22.5q-54.5 32.5 -83.5 88t-29 124.5t29 124.5t83.5 88t127.5 32.5t127.5 -32.5t83.5 -88t29 -124.5t-29 -124.5t-83.5 -88t-127.5 -32.5t-127.5 32.5zM354 90q27 55 27 145t-27 145t-78 55t-78 -55t-27 -145t27 -145t78 -55t78 55zM271 515l-106 140h119l42 -140
h-55z" />
    <glyph glyph-name="uni1ECF" unicode="&#x1ecf;" horiz-adv-x="552" 
d="M148.5 22.5q-54.5 32.5 -83.5 88t-29 124.5t29 124.5t83.5 88t127.5 32.5t127.5 -32.5t83.5 -88t29 -124.5t-29 -124.5t-83.5 -88t-127.5 -32.5t-127.5 32.5zM354 90q27 55 27 145t-27 145t-78 55t-78 -55t-27 -145t27 -145t78 -55t78 55zM281 548q4 11 13 26
q15 23 15 41q0 12 -9.5 20t-23.5 8q-18 0 -28 -10.5t-15 -41.5l-55 1q0 56 23 84.5t75 28.5q47 0 73 -23t26 -58q0 -16 -6 -27.5t-17 -24.5q-12 -15 -17.5 -25.5t-6.5 -25.5h-52q1 16 5 27z" />
    <glyph glyph-name="ohorn" unicode="&#x1a1;" horiz-adv-x="552" 
d="M490 352.5q26 -53.5 26 -117.5q0 -69 -29 -124.5t-83.5 -88t-127.5 -32.5t-127.5 32.5t-83.5 88t-29 124.5t29 124.5t83.5 88t127.5 32.5q37 0 75 -10q43 5 64.5 34.5t21.5 68.5h80q0 -42 -25.5 -79t-74.5 -55q47 -33 73 -86.5zM354 90q27 55 27 145t-27 145t-78 55
t-78 -55t-27 -145t27 -145t78 -55t78 55z" />
    <glyph glyph-name="uni1EDB" unicode="&#x1edb;" horiz-adv-x="552" 
d="M490 352.5q26 -53.5 26 -117.5q0 -69 -29 -124.5t-83.5 -88t-127.5 -32.5t-127.5 32.5t-83.5 88t-29 124.5t29 124.5t83.5 88t127.5 32.5q37 0 75 -10q43 5 64.5 34.5t21.5 68.5h80q0 -42 -25.5 -79t-74.5 -55q47 -33 73 -86.5zM354 90q27 55 27 145t-27 145t-78 55
t-78 -55t-27 -145t27 -145t78 -55t78 55zM245 515l42 140h119l-106 -140h-55z" />
    <glyph glyph-name="uni1EE3" unicode="&#x1ee3;" horiz-adv-x="552" 
d="M490 352.5q26 -53.5 26 -117.5q0 -69 -29 -124.5t-83.5 -88t-127.5 -32.5t-127.5 32.5t-83.5 88t-29 124.5t29 124.5t83.5 88t127.5 32.5q37 0 75 -10q43 5 64.5 34.5t21.5 68.5h80q0 -42 -25.5 -79t-74.5 -55q47 -33 73 -86.5zM354 90q27 55 27 145t-27 145t-78 55
t-78 -55t-27 -145t27 -145t78 -55t78 55zM239 -159q-13 14 -13 37q0 22 13.5 36t36.5 14q24 0 37.5 -14t13.5 -36q0 -23 -13.5 -37t-37.5 -14t-37 14z" />
    <glyph glyph-name="uni1EDD" unicode="&#x1edd;" horiz-adv-x="552" 
d="M490 352.5q26 -53.5 26 -117.5q0 -69 -29 -124.5t-83.5 -88t-127.5 -32.5t-127.5 32.5t-83.5 88t-29 124.5t29 124.5t83.5 88t127.5 32.5q37 0 75 -10q43 5 64.5 34.5t21.5 68.5h80q0 -42 -25.5 -79t-74.5 -55q47 -33 73 -86.5zM354 90q27 55 27 145t-27 145t-78 55
t-78 -55t-27 -145t27 -145t78 -55t78 55zM271 515l-106 140h119l42 -140h-55z" />
    <glyph glyph-name="uni1EDF" unicode="&#x1edf;" horiz-adv-x="552" 
d="M490 352.5q26 -53.5 26 -117.5q0 -69 -29 -124.5t-83.5 -88t-127.5 -32.5t-127.5 32.5t-83.5 88t-29 124.5t29 124.5t83.5 88t127.5 32.5q37 0 75 -10q43 5 64.5 34.5t21.5 68.5h80q0 -42 -25.5 -79t-74.5 -55q47 -33 73 -86.5zM354 90q27 55 27 145t-27 145t-78 55
t-78 -55t-27 -145t27 -145t78 -55t78 55zM281 548q4 11 13 26q15 23 15 41q0 12 -9.5 20t-23.5 8q-18 0 -28 -10.5t-15 -41.5l-55 1q0 56 23 84.5t75 28.5q47 0 73 -23t26 -58q0 -16 -6 -27.5t-17 -24.5q-12 -15 -17.5 -25.5t-6.5 -25.5h-52q1 16 5 27z" />
    <glyph glyph-name="uni1EE1" unicode="&#x1ee1;" horiz-adv-x="552" 
d="M490 352.5q26 -53.5 26 -117.5q0 -69 -29 -124.5t-83.5 -88t-127.5 -32.5t-127.5 32.5t-83.5 88t-29 124.5t29 124.5t83.5 88t127.5 32.5q37 0 75 -10q43 5 64.5 34.5t21.5 68.5h80q0 -42 -25.5 -79t-74.5 -55q47 -33 73 -86.5zM354 90q27 55 27 145t-27 145t-78 55
t-78 -55t-27 -145t27 -145t78 -55t78 55zM175.5 628q17.5 22 50.5 22q17 0 29.5 -6.5t28.5 -17.5q2 -2 13 -9t21 -7q16 0 25.5 12t9.5 28h40q0 -56 -17 -78t-50 -22q-16 0 -28 6t-30 18q-9 6 -18 11t-17 5q-16 0 -25.5 -12t-9.5 -28h-40q0 56 17.5 78z" />
    <glyph glyph-name="oslash" unicode="&#xf8;" horiz-adv-x="552" 
d="M160 16l-12 -16h-92l44 60q-31 33 -47.5 78t-16.5 97q0 69 29 124.5t83.5 88t127.5 32.5q62 0 116 -26l12 16h92l-45 -60q32 -33 48.5 -78t16.5 -97q0 -69 -29 -124.5t-83.5 -88t-127.5 -32.5q-62 0 -116 26zM346 392q-27 43 -70 43q-51 0 -78 -55t-27 -145q0 -44 5 -73z
M354 90q27 55 27 145q0 39 -6 72l-170 -230q26 -42 71 -42q51 0 78 55z" />
    <glyph glyph-name="otilde" unicode="&#xf5;" horiz-adv-x="552" 
d="M148.5 22.5q-54.5 32.5 -83.5 88t-29 124.5t29 124.5t83.5 88t127.5 32.5t127.5 -32.5t83.5 -88t29 -124.5t-29 -124.5t-83.5 -88t-127.5 -32.5t-127.5 32.5zM354 90q27 55 27 145t-27 145t-78 55t-78 -55t-27 -145t27 -145t78 -55t78 55zM175.5 614q17.5 22 50.5 22
q17 0 29.5 -6.5t28.5 -17.5q2 -2 13 -9t21 -7q16 0 25.5 12t9.5 28h40q0 -56 -17 -78t-50 -22q-16 0 -28 6t-30 18q-9 6 -18 11t-17 5q-16 0 -25.5 -12t-9.5 -28h-40q0 56 17.5 78z" />
    <glyph glyph-name="oe" unicode="&#x153;" horiz-adv-x="853" 
d="M148.5 22.5q-54.5 32.5 -83.5 88t-29 124.5t29 124.5t83.5 88t127.5 32.5q102 0 168 -63q60 63 157 63q62 0 112 -25t79 -70.5t29 -104.5q0 -19 -2 -43l-2 -20h-301q0 -95 29 -138.5t81 -43.5q48 0 80.5 21.5t62.5 61.5l31 -23q-29 -45 -72.5 -75t-116.5 -30
q-103 0 -164 66q-66 -66 -171 -66q-73 0 -127.5 32.5zM354 90q27 55 27 145t-27 145t-78 55t-78 -55t-27 -145t27 -145t78 -55t78 55zM686 262q0 94 -22 133.5t-63 39.5q-38 0 -61.5 -40.5t-23.5 -132.5h170z" />
    <glyph glyph-name="p" unicode="p" horiz-adv-x="567" 
d="M80 340q0 51 -13.5 75.5t-55.5 24.5h-10v30h99q35 0 54 -9.5t30 -32.5q59 52 136 52q101 0 155.5 -68.5t54.5 -176.5t-55.5 -176.5t-159.5 -68.5q-41 0 -77 15q-16 6 -28 15v-210h-130v530zM395 235q0 92 -23 146t-72 54q-56 0 -97 -41l3 -14q4 -12 4 -34v-281
q11 -9 24 -15q28 -15 61 -15q100 0 100 200z" />
    <glyph glyph-name="thorn" unicode="&#xfe;" horiz-adv-x="542" 
d="M60 530q0 51 -14 75.5t-56 24.5h-10v30h120q36 0 55 -12t27 -39.5t8 -78.5v-85q42 35 114 35q98 0 149 -66t51 -179t-52.5 -179t-157.5 -66q-55 0 -104 20v-200h-130v720zM340.5 87.5q28.5 52.5 28.5 147.5q0 93 -27.5 146.5t-72.5 53.5t-79 -30v-355q40 -15 69 -15
q53 0 81.5 52.5z" />
    <glyph glyph-name="q" unicode="q" horiz-adv-x="547" 
d="M357 20q-12 -9 -28 -15q-36 -15 -77 -15q-104 0 -159.5 68.5t-55.5 176.5t54.5 176.5t155.5 68.5q52 0 87 -28q19 -13 28 -27h5l35 45h85v-660h-130v210zM333 50q14 6 24 15v305q-13 22 -23 32q-31 33 -67 33q-50 0 -72.5 -53.5t-22.5 -146.5q0 -200 100 -200q33 0 61 15
z" />
    <glyph glyph-name="r" unicode="r" horiz-adv-x="418" 
d="M407 431.5q8 -15.5 8 -16.5l-51 -39q-7 9 -18 19q-22 20 -51 20q-58 0 -89 -31l2 -15q2 -18 2 -33v-336h-130v340q0 51 -13.5 75.5t-55.5 24.5h-10v30h99q34 0 53.5 -8.5t30.5 -28.5q54 47 126 47q43 0 71 -20q18 -13 26 -28.5z" />
    <glyph glyph-name="s" unicode="s" horiz-adv-x="468" 
d="M68 31q-16 15 -20 42.5t-4 76.5h35q9 -52 41 -83.5t89 -31.5q100 0 100 68q0 26 -21.5 43t-68.5 38l-52 22q-64 28 -96 61t-32 80q0 63 52.5 98t137.5 35q117 0 161 -41q16 -15 20 -42t4 -77h-35q-9 52 -41 83.5t-89 31.5q-43 0 -64 -18.5t-21 -49.5q0 -25 17.5 -41.5
t53.5 -32.5l60 -25q74 -31 106.5 -62.5t32.5 -82.5q0 -64 -56.5 -98.5t-148.5 -34.5q-117 0 -161 41z" />
    <glyph glyph-name="scaron" unicode="&#x161;" horiz-adv-x="468" 
d="M68 31q-16 15 -20 42.5t-4 76.5h35q9 -52 41 -83.5t89 -31.5q100 0 100 68q0 26 -21.5 43t-68.5 38l-52 22q-64 28 -96 61t-32 80q0 63 52.5 98t137.5 35q117 0 161 -41q16 -15 20 -42t4 -77h-35q-9 52 -41 83.5t-89 31.5q-43 0 -64 -18.5t-21 -49.5q0 -25 17.5 -41.5
t53.5 -32.5l60 -25q74 -31 106.5 -62.5t32.5 -82.5q0 -64 -56.5 -98.5t-148.5 -34.5q-117 0 -161 41zM157 520l-80 125h70l75 -80l75 80h70l-80 -125h-130z" />
    <glyph glyph-name="scedilla" unicode="&#x15f;" horiz-adv-x="468" 
d="M186 -140h50q18 0 29 9.5t11 22.5q0 15 -11 24t-29 9h-45v67q-86 6 -123 39q-16 15 -20 42.5t-4 76.5h35q9 -52 41 -83.5t89 -31.5q100 0 100 68q0 26 -21.5 43t-68.5 38l-52 22q-64 28 -96 61t-32 80q0 63 52.5 98t137.5 35q117 0 161 -41q16 -15 20 -42t4 -77h-35
q-9 52 -41 83.5t-89 31.5q-43 0 -64 -18.5t-21 -49.5q0 -25 17.5 -41.5t53.5 -32.5l60 -25q74 -31 106.5 -62.5t32.5 -82.5q0 -58 -48.5 -92.5t-129.5 -39.5v-21q42 0 66 -21t24 -57t-24 -57t-66 -21h-70v46z" />
    <glyph glyph-name="germandbls" unicode="&#xdf;" horiz-adv-x="573" 
d="M307.5 0.5q-33.5 10.5 -52.5 29.5q-16 16 -20.5 38.5t-4.5 51.5h30q4 -33 31 -59t69 -26q33 0 51.5 19t18.5 46q0 35 -22.5 58t-67.5 53q-34 22 -55 39t-35.5 42t-14.5 58q0 38 14 61t42 50q24 22 36.5 41t12.5 48q0 37 -19.5 56t-50.5 19q-80 0 -80 -125v-500h-130v500
q0 98 55 134t160 36q95 0 142.5 -26.5t47.5 -73.5q0 -40 -18.5 -66t-54.5 -58q-27 -24 -39.5 -39.5t-12.5 -36.5q0 -35 24.5 -58.5t74.5 -52.5q38 -22 61 -39t39 -42t16 -58q0 -64 -52 -97t-123 -33q-39 0 -72.5 10.5z" />
    <glyph glyph-name="t" unicode="t" horiz-adv-x="354" 
d="M119 27.5q-38 37.5 -38 108.5v289h-60v45h60v90l50 60h80v-150h110v-45h-110v-295q0 -54 13 -74.5t39 -20.5q28 0 56 13q11 6 23 14l14 -28q-13 -11 -31 -22q-42 -22 -99 -22q-69 0 -107 37.5z" />
    <glyph glyph-name="u" unicode="u" horiz-adv-x="565" 
d="M115 34q-45 44 -45 140v166q0 51 -14 75.5t-56 24.5h-10v30h120q36 0 55 -12t27 -39.5t8 -78.5v-167q0 -75 21 -106.5t64 -31.5q37 0 67 32q11 11 23 33v370h130v-470h-85l-35 45h-5q-14 -15 -33 -28q-38 -27 -92 -27q-95 0 -140 44z" />
    <glyph glyph-name="uacute" unicode="&#xfa;" horiz-adv-x="565" 
d="M115 34q-45 44 -45 140v166q0 51 -14 75.5t-56 24.5h-10v30h120q36 0 55 -12t27 -39.5t8 -78.5v-167q0 -75 21 -106.5t64 -31.5q37 0 67 32q11 11 23 33v370h130v-470h-85l-35 45h-5q-14 -15 -33 -28q-38 -27 -92 -27q-95 0 -140 44zM245 500l42 140h119l-106 -140h-55z
" />
    <glyph glyph-name="ucircumflex" unicode="&#xfb;" horiz-adv-x="565" 
d="M115 34q-45 44 -45 140v166q0 51 -14 75.5t-56 24.5h-10v30h120q36 0 55 -12t27 -39.5t8 -78.5v-167q0 -75 21 -106.5t64 -31.5q37 0 67 32q11 11 23 33v370h130v-470h-85l-35 45h-5q-14 -15 -33 -28q-38 -27 -92 -27q-95 0 -140 44zM131 526l80 125h130l80 -125h-60
l-85 80l-85 -80h-60z" />
    <glyph glyph-name="udieresis" unicode="&#xfc;" horiz-adv-x="565" 
d="M115 34q-45 44 -45 140v166q0 51 -14 75.5t-56 24.5h-10v30h120q36 0 55 -12t27 -39.5t8 -78.5v-167q0 -75 21 -106.5t64 -31.5q37 0 67 32q11 11 23 33v370h130v-470h-85l-35 45h-5q-14 -15 -33 -28q-38 -27 -92 -27q-95 0 -140 44zM225 531q-15 16 -15 40t15 40t41 16
t41 -16t15 -40t-15 -40t-41 -16t-41 16zM405 531q-15 16 -15 40t15 40t41 16t41 -16t15 -40t-15 -40t-41 -16t-41 16z" />
    <glyph glyph-name="uni1EE5" unicode="&#x1ee5;" horiz-adv-x="565" 
d="M115 34q-45 44 -45 140v166q0 51 -14 75.5t-56 24.5h-10v30h120q36 0 55 -12t27 -39.5t8 -78.5v-167q0 -75 21 -106.5t64 -31.5q37 0 67 32q11 11 23 33v370h130v-470h-85l-35 45h-5q-14 -15 -33 -28q-38 -27 -92 -27q-95 0 -140 44zM246 -159q-13 14 -13 37
q0 22 13.5 36t36.5 14q24 0 37.5 -14t13.5 -36q0 -23 -13.5 -37t-37.5 -14t-37 14z" />
    <glyph glyph-name="ugrave" unicode="&#xf9;" horiz-adv-x="565" 
d="M115 34q-45 44 -45 140v166q0 51 -14 75.5t-56 24.5h-10v30h120q36 0 55 -12t27 -39.5t8 -78.5v-167q0 -75 21 -106.5t64 -31.5q37 0 67 32q11 11 23 33v370h130v-470h-85l-35 45h-5q-14 -15 -33 -28q-38 -27 -92 -27q-95 0 -140 44zM278 515l-106 140h119l42 -140h-55z
" />
    <glyph glyph-name="uni1EE7" unicode="&#x1ee7;" horiz-adv-x="565" 
d="M115 34q-45 44 -45 140v166q0 51 -14 75.5t-56 24.5h-10v30h120q36 0 55 -12t27 -39.5t8 -78.5v-167q0 -75 21 -106.5t64 -31.5q37 0 67 32q11 11 23 33v370h130v-470h-85l-35 45h-5q-14 -15 -33 -28q-38 -27 -92 -27q-95 0 -140 44zM288 548q4 11 13 26q15 23 15 41
q0 12 -9.5 20t-23.5 8q-18 0 -28 -10.5t-15 -41.5l-55 1q0 56 23 84.5t75 28.5q47 0 73 -23t26 -58q0 -16 -6 -27.5t-17 -24.5q-12 -15 -17.5 -25.5t-6.5 -25.5h-52q1 16 5 27z" />
    <glyph glyph-name="uhorn" unicode="&#x1b0;" horiz-adv-x="565" 
d="M601.5 484.5q-33.5 -40.5 -96.5 -53.5v-431h-85l-35 45h-5q-14 -15 -33 -28q-38 -27 -92 -27q-95 0 -140 44t-45 140v166q0 51 -14 75.5t-56 24.5h-10v30h120q36 0 55 -12t27 -39.5t8 -78.5v-167q0 -75 21 -106.5t64 -31.5q37 0 67 32q11 11 23 33v370h96q42 6 63 35.5
t21 67.5h80q0 -48 -33.5 -88.5z" />
    <glyph glyph-name="uni1EE9" unicode="&#x1ee9;" horiz-adv-x="565" 
d="M601.5 484.5q-33.5 -40.5 -96.5 -53.5v-431h-85l-35 45h-5q-14 -15 -33 -28q-38 -27 -92 -27q-95 0 -140 44t-45 140v166q0 51 -14 75.5t-56 24.5h-10v30h120q36 0 55 -12t27 -39.5t8 -78.5v-167q0 -75 21 -106.5t64 -31.5q37 0 67 32q11 11 23 33v370h96q42 6 63 35.5
t21 67.5h80q0 -48 -33.5 -88.5zM252 515l42 140h119l-106 -140h-55z" />
    <glyph glyph-name="uni1EF1" unicode="&#x1ef1;" horiz-adv-x="565" 
d="M601.5 484.5q-33.5 -40.5 -96.5 -53.5v-431h-85l-35 45h-5q-14 -15 -33 -28q-38 -27 -92 -27q-95 0 -140 44t-45 140v166q0 51 -14 75.5t-56 24.5h-10v30h120q36 0 55 -12t27 -39.5t8 -78.5v-167q0 -75 21 -106.5t64 -31.5q37 0 67 32q11 11 23 33v370h96q42 6 63 35.5
t21 67.5h80q0 -48 -33.5 -88.5zM246 -159q-13 14 -13 37q0 22 13.5 36t36.5 14q24 0 37.5 -14t13.5 -36q0 -23 -13.5 -37t-37.5 -14t-37 14z" />
    <glyph glyph-name="uni1EEB" unicode="&#x1eeb;" horiz-adv-x="565" 
d="M601.5 484.5q-33.5 -40.5 -96.5 -53.5v-431h-85l-35 45h-5q-14 -15 -33 -28q-38 -27 -92 -27q-95 0 -140 44t-45 140v166q0 51 -14 75.5t-56 24.5h-10v30h120q36 0 55 -12t27 -39.5t8 -78.5v-167q0 -75 21 -106.5t64 -31.5q37 0 67 32q11 11 23 33v370h96q42 6 63 35.5
t21 67.5h80q0 -48 -33.5 -88.5zM278 515l-106 140h119l42 -140h-55z" />
    <glyph glyph-name="uni1EED" unicode="&#x1eed;" horiz-adv-x="565" 
d="M601.5 484.5q-33.5 -40.5 -96.5 -53.5v-431h-85l-35 45h-5q-14 -15 -33 -28q-38 -27 -92 -27q-95 0 -140 44t-45 140v166q0 51 -14 75.5t-56 24.5h-10v30h120q36 0 55 -12t27 -39.5t8 -78.5v-167q0 -75 21 -106.5t64 -31.5q37 0 67 32q11 11 23 33v370h96q42 6 63 35.5
t21 67.5h80q0 -48 -33.5 -88.5zM288 548q4 11 13 26q15 23 15 41q0 12 -9.5 20t-23.5 8q-18 0 -28 -10.5t-15 -41.5l-55 1q0 56 23 84.5t75 28.5q47 0 73 -23t26 -58q0 -16 -6 -27.5t-17 -24.5q-12 -15 -17.5 -25.5t-6.5 -25.5h-52q1 16 5 27z" />
    <glyph glyph-name="uni1EEF" unicode="&#x1eef;" horiz-adv-x="565" 
d="M601.5 484.5q-33.5 -40.5 -96.5 -53.5v-431h-85l-35 45h-5q-14 -15 -33 -28q-38 -27 -92 -27q-95 0 -140 44t-45 140v166q0 51 -14 75.5t-56 24.5h-10v30h120q36 0 55 -12t27 -39.5t8 -78.5v-167q0 -75 21 -106.5t64 -31.5q37 0 67 32q11 11 23 33v370h96q42 6 63 35.5
t21 67.5h80q0 -48 -33.5 -88.5zM182.5 628q17.5 22 50.5 22q17 0 29.5 -6.5t28.5 -17.5q2 -2 13 -9t21 -7q16 0 25.5 12t9.5 28h40q0 -56 -17 -78t-50 -22q-16 0 -28 6t-30 18q-9 6 -18 11t-17 5q-16 0 -25.5 -12t-9.5 -28h-40q0 56 17.5 78z" />
    <glyph glyph-name="utilde" unicode="&#x169;" horiz-adv-x="565" 
d="M115 34q-45 44 -45 140v166q0 51 -14 75.5t-56 24.5h-10v30h120q36 0 55 -12t27 -39.5t8 -78.5v-167q0 -75 21 -106.5t64 -31.5q37 0 67 32q11 11 23 33v370h130v-470h-85l-35 45h-5q-14 -15 -33 -28q-38 -27 -92 -27q-95 0 -140 44zM182.5 628q17.5 22 50.5 22
q17 0 29.5 -6.5t28.5 -17.5q2 -2 13 -9t21 -7q16 0 25.5 12t9.5 28h40q0 -56 -17 -78t-50 -22q-16 0 -28 6t-30 18q-9 6 -18 11t-17 5q-16 0 -25.5 -12t-9.5 -28h-40q0 56 17.5 78z" />
    <glyph glyph-name="v" unicode="v" horiz-adv-x="500" 
d="M77 355q-27 56 -46 78.5t-43 24.5v20l37 2q67 0 112.5 -26t79.5 -99l88 -192l136 307h54l-213 -480h-36z" />
    <glyph glyph-name="w" unicode="w" horiz-adv-x="775" 
d="M79 355q-24 56 -45 79t-48 25v19l48 2q66 0 107.5 -27t74.5 -98l85 -191l67 160l-14 31q-24 54 -45 78t-43 26v19l38 2q68 0 114 -27.5t78 -97.5l92 -201l122 316h53l-184 -480h-46l-130 281l-116 -281h-45z" />
    <glyph glyph-name="x" unicode="x" 
d="M192 209l-96 161q-21 35 -45 55.5t-48 24.5v20h95q46 0 75 -20t53 -60l48 -81l131 161h67l-169 -208l97 -162q21 -35 45 -55.5t48 -24.5v-20h-95q-46 0 -75 20t-53 60l-49 81l-131 -161h-67z" />
    <glyph glyph-name="y" unicode="y" horiz-adv-x="509" 
d="M92 -165q55 0 89 21t55 76l21 54l-180 394q-33 72 -93 80v20h88q44 0 78 -21.5t52 -58.5l115 -252l122 322h53l-202 -535q-28 -78 -65 -106.5t-93 -28.5h-40v35z" />
    <glyph glyph-name="yacute" unicode="&#xfd;" horiz-adv-x="508" 
d="M92 -165q55 0 89 21t55 76l21 54l-180 394q-33 72 -93 80v20h88q44 0 78 -21.5t52 -58.5l115 -252l122 322h53l-202 -535q-28 -78 -65 -106.5t-93 -28.5h-40v35zM252 500l42 140h119l-106 -140h-55z" />
    <glyph glyph-name="ydieresis" unicode="&#xff;" horiz-adv-x="508" 
d="M92 -165q55 0 89 21t55 76l21 54l-180 394q-33 72 -93 80v20h88q44 0 78 -21.5t52 -58.5l115 -252l122 322h53l-202 -535q-28 -78 -65 -106.5t-93 -28.5h-40v35zM234 536q-15 16 -15 40t15 40t41 16t41 -16t15 -40t-15 -40t-41 -16t-41 16zM414 536q-15 16 -15 40t15 40
t41 16t41 -16t15 -40t-15 -40t-41 -16t-41 16z" />
    <glyph glyph-name="uni1EF5" unicode="&#x1ef5;" horiz-adv-x="509" 
d="M92 -165q55 0 89 21t55 76l21 54l-180 394q-33 72 -93 80v20h88q44 0 78 -21.5t52 -58.5l115 -252l122 322h53l-202 -535q-28 -78 -65 -106.5t-93 -28.5h-40v35zM320 -159q-13 14 -13 37q0 22 13.5 36t36.5 14q24 0 37.5 -14t13.5 -36q0 -23 -13.5 -37t-37.5 -14t-37 14z
" />
    <glyph glyph-name="ygrave" unicode="&#x1ef3;" horiz-adv-x="509" 
d="M92 -165q55 0 89 21t55 76l21 54l-180 394q-33 72 -93 80v20h88q44 0 78 -21.5t52 -58.5l115 -252l122 322h53l-202 -535q-28 -78 -65 -106.5t-93 -28.5h-40v35zM250 515l-106 140h119l42 -140h-55z" />
    <glyph glyph-name="uni1EF7" unicode="&#x1ef7;" horiz-adv-x="509" 
d="M92 -165q55 0 89 21t55 76l21 54l-180 394q-33 72 -93 80v20h88q44 0 78 -21.5t52 -58.5l115 -252l122 322h53l-202 -535q-28 -78 -65 -106.5t-93 -28.5h-40v35zM260 548q4 11 13 26q15 23 15 41q0 12 -9.5 20t-23.5 8q-18 0 -28 -10.5t-15 -41.5l-55 1q0 56 23 84.5
t75 28.5q47 0 73 -23t26 -58q0 -16 -6 -27.5t-17 -24.5q-12 -15 -17.5 -25.5t-6.5 -25.5h-52q1 16 5 27z" />
    <glyph glyph-name="uni1EF9" unicode="&#x1ef9;" horiz-adv-x="509" 
d="M92 -165q55 0 89 21t55 76l21 54l-180 394q-33 72 -93 80v20h88q44 0 78 -21.5t52 -58.5l115 -252l122 322h53l-202 -535q-28 -78 -65 -106.5t-93 -28.5h-40v35zM154.5 628q17.5 22 50.5 22q17 0 29.5 -6.5t28.5 -17.5q2 -2 13 -9t21 -7q16 0 25.5 12t9.5 28h40
q0 -56 -17 -78t-50 -22q-16 0 -28 6t-30 18q-9 6 -18 11t-17 5q-16 0 -25.5 -12t-9.5 -28h-40q0 56 17.5 78z" />
    <glyph glyph-name="z" unicode="z" horiz-adv-x="493" 
d="M39 31l263 394h-118q-63 0 -89 -22.5t-26 -72.5h-30v60q0 80 85 80h356l-284 -425h263v-45h-420v31z" />
    <glyph glyph-name="zcaron" unicode="&#x17e;" horiz-adv-x="493" 
d="M39 31l263 394h-118q-63 0 -89 -22.5t-26 -72.5h-30v60q0 80 85 80h356l-284 -425h263v-45h-420v31zM193 520l-80 125h70l75 -80l75 80h70l-80 -125h-130z" />
    <glyph glyph-name="ordfeminine" unicode="&#xaa;" horiz-adv-x="324" 
d="M67 413q-25 17 -25 53q0 39 35 60t103 21h16q0 51 -13 69.5t-33 18.5q-26 0 -40 -13t-20 -39h-29q0 22 2 35t12 23q16 19 85 19q52 0 80 -23t28 -90v-146h-46l-19 25h-3q-28 -30 -69 -30q-39 0 -64 17zM196 455v67h-16q-29 0 -47.5 -15.5t-18.5 -40.5q0 -24 10.5 -34.5
t25.5 -10.5q28 0 46 34z" />
    <glyph glyph-name="ordmasculine" unicode="&#xba;" horiz-adv-x="337" 
d="M74 412.5q-31 45.5 -31 115.5q0 71 31 116t94 45q64 0 95 -45t31 -116q0 -70 -31 -115.5t-95 -45.5q-63 0 -94 45.5zM208 422.5q14 30.5 14 105.5q0 76 -14 106t-40 30q-25 0 -39 -30t-14 -106q0 -74 14 -105t39 -31q26 0 40 30.5z" />
    <glyph glyph-name="uni0410" unicode="&#x410;" horiz-adv-x="647" 
d="M514 22.5q-51 26.5 -83 103.5l-23 56h-266l-82 -182h-52l295 660h45l224 -534q38 -93 104 -100v-25q-18 -5 -48 -5q-63 0 -114 26.5zM163 227h226l-110 261z" />
    <glyph glyph-name="uni0411" unicode="&#x411;" horiz-adv-x="635" 
d="M95 530q0 51 -14 75.5t-56 24.5h-10v30h439q85 0 85 -80v-85h-30q0 63 -31.5 91.5t-93.5 28.5h-159v-235h90q131 0 213 -40.5t82 -149.5t-82 -149.5t-213 -40.5h-220v530zM300 40q90 0 130 35.5t40 114.5t-40 114.5t-130 35.5h-5q-30 0 -50 -5l-20 -5v-280q11 -4 20 -5
q22 -5 50 -5h5z" />
    <glyph glyph-name="uni0412" unicode="&#x412;" horiz-adv-x="644" 
d="M95 530q0 51 -14 75.5t-56 24.5h-10v30h270q126 0 210.5 -35t84.5 -140q0 -46 -36.5 -86.5t-102.5 -57.5q169 -17 169 -158q0 -104 -83 -143.5t-212 -39.5h-220v530zM300 361q65 0 102.5 30.5t37.5 98.5q0 69 -44.5 99.5t-110.5 30.5q-27 0 -42 -4l-18 -3v-252h75z
M300 40q83 0 126.5 36t43.5 102q0 138 -170 138h-75v-266q11 -4 20 -5q22 -5 50 -5h5z" />
    <glyph glyph-name="uni0413" unicode="&#x413;" horiz-adv-x="544" 
d="M95 530q0 51 -14 75.5t-56 24.5h-10v30h429q85 0 85 -80v-85h-30q0 63 -31.5 91.5t-93.5 28.5h-149v-615h-130v530z" />
    <glyph glyph-name="uni0403" unicode="&#x403;" horiz-adv-x="544" 
d="M95 530q0 51 -14 75.5t-56 24.5h-10v30h429q85 0 85 -80v-85h-30q0 63 -31.5 91.5t-93.5 28.5h-149v-615h-130v530zM229 703l42 140h119l-106 -140h-55z" />
    <glyph glyph-name="uni0490" unicode="&#x490;" horiz-adv-x="538" 
d="M95 530q0 51 -14 75.5t-56 24.5h-10v30h359q62 0 93.5 28.5t31.5 91.5h30v-85q0 -80 -85 -80h-219v-615h-130v530z" />
    <glyph glyph-name="uni0414" unicode="&#x414;" horiz-adv-x="694" 
d="M-1 10q0 15 10 25t25 10h35q46 100 65.5 219.5t19.5 265.5q0 51 -14 75.5t-56 24.5h-10v30h529v-615h35q15 0 25 -10t10 -25v-194h-50q-8 71 -23.5 111t-39.5 56.5t-62 16.5h-324q-38 0 -62 -16.5t-39.5 -56.5t-23.5 -111h-50v194zM473 45v570h-220q0 -206 -18 -337
t-62 -233h300z" />
    <glyph glyph-name="uni0415" unicode="&#x415;" horiz-adv-x="600" 
d="M95 530q0 51 -14 75.5t-56 24.5h-10v30h441q85 0 85 -80v-85h-30q0 62 -31.5 91t-93.5 29h-161v-250h260v-45h-260v-275h171q57 0 95 25.5t63 88.5l27 -10l-29 -79q-13 -36 -31 -53t-56 -17h-370v530z" />
    <glyph glyph-name="uni0400" unicode="&#x400;" horiz-adv-x="600" 
d="M95 530q0 51 -14 75.5t-56 24.5h-10v30h441q85 0 85 -80v-85h-30q0 62 -31.5 91t-93.5 29h-161v-250h260v-45h-260v-275h171q57 0 95 25.5t63 88.5l27 -10l-29 -79q-13 -36 -31 -53t-56 -17h-370v530zM295 705l-106 140h119l42 -140h-55z" />
    <glyph glyph-name="uni0401" unicode="&#x401;" horiz-adv-x="600" 
d="M95 530q0 51 -14 75.5t-56 24.5h-10v30h441q85 0 85 -80v-85h-30q0 62 -31.5 91t-93.5 29h-161v-250h260v-45h-260v-275h171q57 0 95 25.5t63 88.5l27 -10l-29 -79q-13 -36 -31 -53t-56 -17h-370v530zM171 746q-15 16 -15 40t15 40t41 16t41 -16t15 -40t-15 -40t-41 -16
t-41 16zM351 746q-15 16 -15 40t15 40t41 16t41 -16t15 -40t-15 -40t-41 -16t-41 16z" />
    <glyph glyph-name="uni0416" unicode="&#x416;" horiz-adv-x="989" 
d="M-10 0v24q31 5 72.5 34t77.5 72l201 240l-139 184q-33 41 -70.5 56t-102.5 15v35h60q55 0 97.5 -28t79.5 -77l163 -215v320h131v-320l163 215q37 49 79.5 77t97.5 28h60v-35q-65 0 -102.5 -15t-70.5 -56l-139 -184l201 -240q36 -43 77.5 -72t72.5 -34v-24
q-30 -10 -64 -10q-71 0 -127.5 26.5t-116.5 103.5l-131 165v-285h-131v285l-131 -165q-60 -77 -116.5 -103.5t-127.5 -26.5q-34 0 -64 10z" />
    <glyph glyph-name="uni0417" unicode="&#x417;" horiz-adv-x="580" 
d="M127.5 13q-62.5 33 -108.5 102l30 25q40 -53 88.5 -84t117.5 -31q67 0 110.5 37t43.5 103q0 71 -45.5 110.5t-124.5 39.5h-85v45h85q37 0 71.5 16t56.5 47.5t22 76.5t-20 75.5t-49.5 45t-59.5 14.5q-67 0 -114 -44t-66 -121h-31q0 57 4 88t21 52q25 31 80.5 50.5
t110.5 19.5q112 0 185.5 -37t73.5 -138q0 -51 -41 -97t-113 -63q91 -11 135 -61t44 -114q0 -68 -40 -110.5t-101.5 -61t-127.5 -18.5q-90 0 -152.5 33z" />
    <glyph glyph-name="uni0418" unicode="&#x418;" horiz-adv-x="709" 
d="M95 530q0 51 -14 75.5t-56 24.5h-10v30h120q36 0 55 -12t27 -39.5t8 -78.5v-400l290 530h120v-660h-130v530l-290 -530h-120v530z" />
    <glyph glyph-name="uni0419" unicode="&#x419;" horiz-adv-x="709" 
d="M95 530q0 51 -14 75.5t-56 24.5h-10v30h120q36 0 55 -12t27 -39.5t8 -78.5v-400l290 530h120v-660h-130v530l-290 -530h-120v530zM279 730.5q-37 25.5 -56 68.5l28 21q17 -21 45.5 -35.5t67.5 -14.5t67.5 14.5t45.5 35.5l28 -21q-19 -43 -56 -68.5t-85 -25.5t-85 25.5z
" />
    <glyph glyph-name="uni040D" unicode="&#x40d;" horiz-adv-x="709" 
d="M95 530q0 51 -14 75.5t-56 24.5h-10v30h120q36 0 55 -12t27 -39.5t8 -78.5v-400l290 530h120v-660h-130v530l-290 -530h-120v530zM350 705l-106 140h119l42 -140h-55z" />
    <glyph glyph-name="uni041A" unicode="&#x41a;" horiz-adv-x="693" 
d="M510.5 15.5q-57.5 25.5 -123.5 94.5l-161 168v-278h-130l-1 530q0 51 -14 75.5t-56 24.5h-10v30h120q35 0 54.5 -12t28 -40t8.5 -78v-190l173 215q37 48 79.5 76.5t97.5 28.5h70v-35q-62 0 -106.5 -15.5t-76.5 -55.5l-149 -184l231 -240q37 -41 83.5 -71.5t75.5 -34.5
v-24q-30 -10 -73 -10q-63 0 -120.5 25.5z" />
    <glyph glyph-name="uni040C" unicode="&#x40c;" horiz-adv-x="693" 
d="M510.5 15.5q-57.5 25.5 -123.5 94.5l-161 168v-278h-130l-1 530q0 51 -14 75.5t-56 24.5h-10v30h120q35 0 54.5 -12t28 -40t8.5 -78v-190l173 215q37 48 79.5 76.5t97.5 28.5h70v-35q-62 0 -106.5 -15.5t-76.5 -55.5l-149 -184l231 -240q37 -41 83.5 -71.5t75.5 -34.5
v-24q-30 -10 -73 -10q-63 0 -120.5 25.5zM287 676l42 140h119l-106 -140h-55z" />
    <glyph glyph-name="uni041B" unicode="&#x41b;" horiz-adv-x="679" 
d="M-8 -6v31q49 10 83 53t54.5 150.5t20.5 301.5q0 51 -14 75.5t-56 24.5h-10v30h535v-660h-130v615h-216v-85q0 -300 -54.5 -422.5t-152.5 -122.5q-33 0 -60 9z" />
    <glyph glyph-name="uni041C" unicode="&#x41c;" horiz-adv-x="867" 
d="M691.5 5.5q-47.5 50.5 -47.5 164.5v354l-219 -524h-33l-268 544v-544h-50v660h122l242 -491l205 491h131v-490q0 -94 16 -138t57 -52v-25q-108 0 -155.5 50.5z" />
    <glyph glyph-name="uni041D" unicode="&#x41d;" horiz-adv-x="720" 
d="M95 530q0 51 -14 75.5t-56 24.5h-10v30h120q36 0 55 -12t27 -39.5t8 -78.5v-165h270v295h130v-530q0 -51 14 -75.5t56 -24.5h10v-30h-120q-36 0 -55 11.5t-27 39t-8 79.5v190h-270v-320h-130v530z" />
    <glyph glyph-name="uni041E" unicode="&#x41e;" horiz-adv-x="733" 
d="M194.5 26q-75.5 46 -116.5 126t-41 178t41 178t116.5 126t172.5 46t172 -46t116 -126t41 -178t-41 -178t-116 -126t-172 -46t-172.5 46zM508 104.5q50 79.5 50 225.5t-50 225.5t-141 79.5t-140.5 -79.5t-49.5 -225.5t49.5 -225.5t140.5 -79.5t141 79.5z" />
    <glyph glyph-name="uni041F" unicode="&#x41f;" horiz-adv-x="689" 
d="M95 530q0 51 -14 75.5t-56 24.5h-10v30h600v-660h-130v615h-260v-615h-130v530z" />
    <glyph glyph-name="uni0420" unicode="&#x420;" horiz-adv-x="577" 
d="M95 530q0 51 -14 75.5t-56 24.5h-10v30h275q103 0 186.5 -40.5t83.5 -160.5q0 -78 -43.5 -121t-97.5 -57t-99 -14h-95v-267h-130v530zM285 307q59 0 97 36t38 121q0 84 -37.5 120t-92.5 36q-29 0 -45 -4l-20 -3v-306h60z" />
    <glyph glyph-name="uni0421" unicode="&#x421;" horiz-adv-x="679" 
d="M189.5 24.5q-74.5 44.5 -113.5 121.5t-39 174q0 100 43 182.5t118.5 130t168.5 47.5q88 0 147 -22.5t90 -58.5q18 -23 22 -57t4 -95h-30q-19 92 -70 140t-133 48q-102 0 -161 -72t-59 -243q0 -127 54 -211t166 -84q70 0 128.5 37t94.5 106l35 -27q-48 -84 -116 -122.5
t-172 -38.5q-103 0 -177.5 44.5z" />
    <glyph glyph-name="uni0422" unicode="&#x422;" horiz-adv-x="575" 
d="M232 615h-71q-56 0 -85.5 -28t-29.5 -92h-30v85q0 80 85 80h470v-45h-209v-615h-130v615z" />
    <glyph glyph-name="uni0423" unicode="&#x423;" horiz-adv-x="618" 
d="M142 26q53 0 92 14.5t57 54.5l7 15l-205 420q-22 49 -53.5 77.5t-70.5 32.5v20h100q55 0 97.5 -30t65.5 -80l138 -282l177 392h65l-256 -565q-21 -50 -63 -77.5t-101 -27.5h-50v36z" />
    <glyph glyph-name="uni040E" unicode="&#x40e;" horiz-adv-x="618" 
d="M142 26q53 0 92 14.5t57 54.5l7 15l-205 420q-22 49 -53.5 77.5t-70.5 32.5v20h100q55 0 97.5 -30t65.5 -80l138 -282l177 392h65l-256 -565q-21 -50 -63 -77.5t-101 -27.5h-50v36zM254 730.5q-37 25.5 -56 68.5l28 21q17 -21 45.5 -35.5t67.5 -14.5t67.5 14.5t45.5 35.5
l28 -21q-19 -43 -56 -68.5t-85 -25.5t-85 25.5z" />
    <glyph glyph-name="uni0424" unicode="&#x424;" horiz-adv-x="821" 
d="M346 35q-155 0 -237.5 75t-82.5 205t82.5 205t237.5 75q0 75 -70 75h-10v30h120q51 0 70.5 -23.5t19.5 -81.5q155 0 237.5 -75t82.5 -205t-82.5 -205t-237.5 -75v-75h-130v75zM346 550q-87 0 -133.5 -66t-46.5 -169t46.5 -169t133.5 -66v470zM609 146q47 66 47 169
t-47 169t-133 66v-470q86 0 133 66z" />
    <glyph glyph-name="uni0425" unicode="&#x425;" horiz-adv-x="647" 
d="M263 311l-142 219q-26 42 -64 74t-70 36v20h110q51 0 92.5 -32t70.5 -78l87 -134l193 244h65l-229 -289l157 -241q26 -42 64 -74t70 -36v-20h-110q-51 0 -92.5 32t-70.5 78l-101 156l-211 -266h-65z" />
    <glyph glyph-name="uni0427" unicode="&#x427;" horiz-adv-x="663" 
d="M459 260q-23 -10 -57.5 -15t-71.5 -5q-251 0 -251 220v70q0 51 -14 75.5t-56 24.5h-10v30h120q36 0 55 -12t27 -39.5t8 -78.5v-80q0 -80 38.5 -122.5t101.5 -42.5q58 0 110 20v355h130v-660h-130v260z" />
    <glyph glyph-name="uni0426" unicode="&#x426;" horiz-adv-x="706" 
d="M611.5 -73q-15.5 40 -39.5 56.5t-62 16.5h-415v530q0 51 -14 75.5t-56 24.5h-10v30h120q36 0 55 -12t27 -39.5t8 -78.5v-485h260v615h130v-615h35q15 0 25 -10t10 -25v-195h-50q-8 72 -23.5 112z" />
    <glyph glyph-name="uni0428" unicode="&#x428;" horiz-adv-x="949" 
d="M95 530q0 51 -14 75.5t-56 24.5h-10v30h120q36 0 55 -12t27 -39.5t8 -78.5v-485h195v615h130v-615h195v615h130v-660h-780v530z" />
    <glyph glyph-name="uni0429" unicode="&#x429;" horiz-adv-x="966" 
d="M871.5 -73q-15.5 40 -39.5 56.5t-62 16.5h-675v530q0 51 -14 75.5t-56 24.5h-10v30h120q36 0 55 -12t27 -39.5t8 -78.5v-485h195v615h130v-615h195v615h130v-615h35q15 0 25 -10t10 -25v-195h-50q-8 72 -23.5 112z" />
    <glyph glyph-name="uni040F" unicode="&#x40f;" horiz-adv-x="689" 
d="M305 0h-210v530q0 51 -14 75.5t-56 24.5h-10v30h120q36 0 55 -12t27 -39.5t8 -78.5v-485h260v615h130v-660h-210l-15 -175h-70z" />
    <glyph glyph-name="uni042C" unicode="&#x42c;" horiz-adv-x="627" 
d="M95 530q0 51 -14 75.5t-56 24.5h-10v30h120q36 0 55 -12t27 -39.5t8 -78.5v-140h90q127 0 211 -44t84 -151t-84 -151t-211 -44h-220v530zM300 40q88 0 129 39t41 116t-41 116t-129 39h-5q-30 0 -50 -5l-20 -5v-290q11 -4 20 -5q22 -5 50 -5h5z" />
    <glyph glyph-name="uni042A" unicode="&#x42a;" horiz-adv-x="722" 
d="M190 615h-11q-57 0 -84 -36t-31 -119h-40v165q0 15 10 25t25 10h261v-270h90q127 0 211 -44t84 -151t-84 -151t-211 -44h-220v615zM395 40q88 0 129 39t41 116t-41 116t-129 39h-5q-30 0 -50 -5l-20 -5v-290q11 -4 20 -5q22 -5 50 -5h5z" />
    <glyph glyph-name="uni042B" unicode="&#x42b;" horiz-adv-x="894" 
d="M95 530q0 51 -14 75.5t-56 24.5h-10v30h120q36 0 55 -12t27 -39.5t8 -78.5v-140h80q127 0 211 -44t84 -151t-84 -151t-211 -44h-210v530zM704 11.5q-19 11.5 -27 39t-8 79.5v530h130v-530q0 -51 14 -75.5t56 -24.5h10v-30h-120q-36 0 -55 11.5zM419 79q41 39 41 116
t-41 116t-129 39q-26 0 -46 -5l-19 -5v-290q9 -4 19 -5q22 -5 46 -5q88 0 129 39z" />
    <glyph glyph-name="uni0409" unicode="&#x409;" horiz-adv-x="988" 
d="M-8 -6v31q49 10 83 53t54.5 150.5t20.5 301.5q0 51 -13.5 75.5t-55.5 24.5h-10v30h525v-270h90q120 0 202.5 -44.5t82.5 -150.5t-82.5 -150.5t-202.5 -44.5h-220v615h-206v-85q0 -299 -54.5 -422t-153.5 -123q-33 0 -60 9zM671 40q160 0 160 155t-160 155h-5
q-30 0 -50 -5l-20 -5v-290q11 -4 20 -5q22 -5 50 -5h5z" />
    <glyph glyph-name="uni040A" unicode="&#x40a;" horiz-adv-x="1004" 
d="M95 530q0 51 -14 75.5t-56 24.5h-10v30h120q36 0 55 -12t27 -39.5t8 -78.5v-165h251v295h130v-290h89q126 0 210.5 -42.5t84.5 -142.5t-84.5 -142.5t-210.5 -42.5h-219v320h-251v-320h-130v530zM680 40q170 0 170 145t-170 145h-5q-24 0 -44.5 -3.5t-25.5 -6.5v-270
q11 -4 20 -5q22 -5 50 -5h5z" />
    <glyph glyph-name="uni0405" unicode="&#x405;" horiz-adv-x="561" 
d="M165 -2.5q-52 14.5 -85 42t-33 63.5v117h28q15 -102 63 -147t134 -45q58 0 92 25t34 72q0 40 -25 68t-78 61l-123 74q-67 39 -95.5 81t-28.5 98q0 79 60.5 125t163.5 46q56 0 108 -14.5t85 -42t33 -63.5v-117h-28q-17 102 -63 147t-124 45q-54 0 -85.5 -26t-31.5 -71
q0 -39 24.5 -64.5t79.5 -57.5l123 -73q70 -41 100.5 -79.5t30.5 -92.5q0 -87 -65.5 -136.5t-185.5 -49.5q-56 0 -108 14.5z" />
    <glyph glyph-name="uni0404" unicode="&#x404;" horiz-adv-x="679" 
d="M189.5 24.5q-74.5 44.5 -113.5 121.5t-39 174q0 100 43 182.5t118.5 130t168.5 47.5q88 0 147 -22.5t90 -58.5q18 -23 22 -57t4 -95h-30q-19 92 -70 140t-133 48q-209 0 -219 -280h309v-45h-310q2 -123 56.5 -204t163.5 -81q70 0 128.5 37t94.5 106l35 -27
q-48 -84 -116 -122.5t-172 -38.5q-103 0 -177.5 44.5z" />
    <glyph glyph-name="uni042D" unicode="&#x42d;" horiz-adv-x="680" 
d="M141 18.5q-68 38.5 -116 122.5l35 27q36 -69 94.5 -106t128.5 -37q109 0 163.5 81t56.5 204h-310v45h309q-10 280 -219 280q-82 0 -133 -48t-70 -140h-30q0 61 4 95t22 57q31 36 90 58.5t147 22.5q93 0 168.5 -47.5t118.5 -130t43 -182.5q0 -97 -39 -174t-113.5 -121.5
t-177.5 -44.5q-104 0 -172 38.5z" />
    <glyph glyph-name="uni0406" unicode="&#x406;" horiz-adv-x="304" 
d="M114 11.5q-19 11.5 -27 39t-8 79.5v530h130v-530q0 -51 14 -75.5t56 -24.5h10v-30h-120q-36 0 -55 11.5z" />
    <glyph glyph-name="uni0407" unicode="&#x407;" horiz-adv-x="304" 
d="M20 731q-15 16 -15 40t15 40t41 16t41 -16t15 -40t-15 -40t-41 -16t-41 16zM186 731q-15 16 -15 40t15 40t41 16t41 -16t15 -40t-15 -40t-41 -16t-41 16zM114 11.5q-19 11.5 -27 39t-8 79.5v530h130v-530q0 -51 14 -75.5t56 -24.5h10v-30h-120q-36 0 -55 11.5z" />
    <glyph glyph-name="uni0408" unicode="&#x408;" horiz-adv-x="278" 
d="M-19 -107q48 6 70.5 47.5t22.5 142.5v577h130v-577q0 -89 -18.5 -135.5t-65.5 -65.5t-139 -19v30z" />
    <glyph glyph-name="uni040B" unicode="&#x40b;" horiz-adv-x="744" 
d="M631 389.5q63 -40.5 63 -139.5v-250h-130v250q0 70 -28.5 100t-81.5 30q-37 0 -71.5 -9.5t-58.5 -25.5v-345h-130v615h-33q-56 0 -85.5 -28t-29.5 -92h-30v85q0 80 85 80h470v-45h-247v-225q26 16 66.5 28t83.5 12q94 0 157 -40.5z" />
    <glyph glyph-name="uni042E" unicode="&#x42e;" horiz-adv-x="917" 
d="M430 23q-68 43 -108.5 120.5t-41.5 176.5h-55v-320h-130v530q0 51 -14 75.5t-56 24.5h-10v30h120q36 0 55 -12t27 -39.5t8 -78.5v-165h56q8 93 48.5 164.5t106 111t144.5 39.5q84 0 152.5 -44.5t107.5 -124t39 -181.5t-39 -181.5t-107.5 -124t-152.5 -44.5q-82 0 -150 43
zM662.5 59.5q36.5 34.5 57.5 103t21 167.5t-21 167.5t-57.5 103t-82.5 34.5q-47 0 -83 -34.5t-56.5 -103t-20.5 -167.5t20.5 -167.5t56.5 -103t83 -34.5q46 0 82.5 34.5z" />
    <glyph glyph-name="uni042F" unicode="&#x42f;" horiz-adv-x="627" 
d="M38 -13q-21 3 -29 7v25q27 5 57 29t67 81l95 151q-64 14 -113 61t-49 120q0 110 82.5 154.5t187.5 44.5h276v-30h-10q-42 0 -56 -24.5t-14 -75.5v-530h-131v272h-44l-90 -143q-50 -79 -95 -112t-95 -33q-18 0 -39 3zM401 312v301l-20 3q-16 4 -45 4q-31 0 -61 -17.5
t-49.5 -52.5t-19.5 -84q0 -51 19.5 -85.5t50.5 -51.5t65 -17h60z" />
    <glyph glyph-name="uni0402" unicode="&#x402;" horiz-adv-x="718" 
d="M636 379.5q58 -50.5 58 -179.5q0 -127 -54.5 -183.5t-160.5 -56.5v25q41 0 63 53.5t22 161.5q0 97 -31.5 138.5t-78.5 41.5q-37 0 -71.5 -9.5t-58.5 -25.5v-345h-130v615h-33q-56 0 -85.5 -28t-29.5 -92h-30v85q0 80 85 80h470v-45h-247v-225q26 16 66.5 28t83.5 12
q104 0 162 -50.5z" />
    <glyph glyph-name="uni0462" unicode="&#x462;" horiz-adv-x="717" 
d="M616 346q84 -44 84 -151t-84 -151t-211 -44h-220v515h-24q-56 0 -85.5 -28t-29.5 -92h-30v85q0 80 85 80h83q-3 35 -18.5 52.5t-50.5 17.5h-10v30h120q47 0 66.5 -22t22.5 -78h197v-45h-196v-125h90q127 0 211 -44zM519 79q41 39 41 116t-41 116t-129 39h-5q-30 0 -50 -5
l-20 -5v-290q11 -4 20 -5q22 -5 50 -5h5q88 0 129 39z" />
    <glyph glyph-name="uni046A" unicode="&#x46a;" horiz-adv-x="989" 
d="M-10 0v24q31 5 73 34t77 72l130 155q64 76 136 80l-153 189q-31 37 -71 54t-103 17v35h811v-35q-67 0 -103.5 -14.5t-68.5 -56.5l-134 -189q39 -2 73 -23.5t67 -62.5l125 -149q37 -43 78 -72t72 -34v-24q-30 -10 -64 -10q-71 0 -127 26.5t-117 103.5l-131 165v-285h-131
v285l-131 -165q-59 -77 -115.5 -103.5t-128.5 -26.5q-34 0 -64 10zM496 326l199 289h-429z" />
    <glyph glyph-name="uni0472" unicode="&#x472;" horiz-adv-x="733" 
d="M539 634q75 -46 116 -126t41 -178t-41 -178t-116 -126t-172 -46t-172.5 46t-116.5 126t-41 178t41 178t116.5 126t172.5 46t172 -46zM233 565q-49 -70 -55 -200h379q-6 130 -55.5 200t-134.5 70t-134 -70zM507 102q50 77 51 218h-381q1 -142 51 -218.5t139 -76.5
q90 0 140 77z" />
    <glyph glyph-name="uni0474" unicode="&#x474;" horiz-adv-x="678" 
d="M66 543q-23 55 -45.5 78t-53.5 27v20l42 2q66 0 116 -25t82 -102l152 -359l135 346q51 132 130 132q14 0 34 -2v-20q-30 -3 -47.5 -12t-32.5 -31.5t-32 -66.5l-207 -540h-40z" />
    <glyph glyph-name="uni0492" unicode="&#x492;" horiz-adv-x="544" 
d="M529 580v-85h-30q0 63 -31.5 91.5t-93.5 28.5h-149v-263h115v-45h-115v-307h-130v307h-54v45h54v178q0 51 -14 75.5t-56 24.5h-10v30h429q85 0 85 -80z" />
    <glyph glyph-name="uni0494" unicode="&#x494;" horiz-adv-x="640" 
d="M534 371q61 -59 61 -171q0 -101 -43.5 -174.5t-116.5 -112.5t-160 -39v25q45 0 89 39t72.5 108t28.5 154q0 88 -38 135t-101 47q-47 0 -101 -27v-355h-130v530q0 51 -14 75.5t-56 24.5h-10v30h429q85 0 85 -80v-85h-30q0 63 -31.5 91.5t-93.5 28.5h-149v-215
q45 15 77.5 22.5t72.5 7.5q98 0 159 -59z" />
    <glyph glyph-name="uni0496" unicode="&#x496;" horiz-adv-x="998" 
d="M998 35q10 -10 10 -25v-195h-50q-9 85 -30 126.5t-57 53.5q-47 9 -90.5 37.5t-89.5 87.5l-131 165v-285h-131v285l-131 -165q-60 -77 -116.5 -103.5t-127.5 -26.5q-34 0 -64 10v24q31 5 72.5 34t77.5 72l201 240l-139 184q-33 41 -70.5 56t-102.5 15v35h60q55 0 97.5 -28
t79.5 -77l163 -215v320h131v-320l163 215q37 49 79.5 77t97.5 28h60v-35q-65 0 -102.5 -15t-70.5 -56l-139 -184l201 -240q17 -20 42 -44q30 -24 48.5 -32.5t33.5 -8.5t25 -10z" />
    <glyph glyph-name="uni0498" unicode="&#x498;" horiz-adv-x="580" 
d="M485.5 38q-63.5 -46 -155.5 -55v-168h-50q-7 130 -31 166q-77 5 -132.5 38t-97.5 96l30 25q40 -53 88.5 -84t117.5 -31q67 0 110.5 37t43.5 103q0 71 -45.5 110.5t-124.5 39.5h-85v45h85q37 0 71.5 16t56.5 47.5t22 76.5t-20 75.5t-49.5 45t-59.5 14.5q-67 0 -114 -44
t-66 -121h-31q0 57 4 88t21 52q25 31 80.5 50.5t110.5 19.5q112 0 185.5 -37t73.5 -138q0 -51 -41 -97t-113 -63q91 -11 135 -61t44 -114q0 -86 -63.5 -132z" />
    <glyph glyph-name="uni049A" unicode="&#x49a;" horiz-adv-x="698" 
d="M698 35q10 -10 10 -25v-195h-50q-10 86 -31 128t-58 53q-44 9 -88.5 35.5t-93.5 78.5l-161 168v-278h-130l-1 530q0 51 -14 75.5t-56 24.5h-10v30h120q35 0 54.5 -12t28 -40t8.5 -78v-190l173 215q37 48 79.5 76.5t97.5 28.5h70v-35q-62 0 -106.5 -15.5t-76.5 -55.5
l-149 -184l231 -240q16 -18 34 -34q35 -30 56 -40.5t38 -10.5q15 0 25 -10z" />
    <glyph glyph-name="uni049C" unicode="&#x49c;" horiz-adv-x="773" 
d="M708.5 58.5q46.5 -30.5 75.5 -34.5v-24q-30 -10 -73 -10q-63 0 -120.5 25.5t-123.5 94.5l-155 162v-88h-55v107h-31v-291h-130l-1 530q0 51 -14 75.5t-56 24.5h-10v30h120q35 0 54.5 -12t28 -40t8.5 -78v-194h31v127h55v-116l167 208q37 48 79.5 76.5t97.5 28.5h70v-35
q-62 0 -106.5 -15.5t-76.5 -55.5l-149 -184l231 -240q37 -41 83.5 -71.5z" />
    <glyph glyph-name="uni04A0" unicode="&#x4a0;" horiz-adv-x="820" 
d="M637.5 15.5q-57.5 25.5 -123.5 94.5l-161 168v-278h-130l-1 615h-61q-56 0 -85.5 -28t-29.5 -92h-30v85q0 80 85 80h252v-320l173 215q37 48 79.5 76.5t97.5 28.5h70v-35q-62 0 -106.5 -15.5t-76.5 -55.5l-149 -184l231 -240q37 -41 83.5 -71.5t75.5 -34.5v-24
q-30 -10 -73 -10q-63 0 -120.5 25.5z" />
    <glyph glyph-name="uni04A2" unicode="&#x4a2;" horiz-adv-x="716" 
d="M621.5 -73q-15.5 40 -39.5 56.5t-62 16.5h-25v320h-270v-320h-130v530q0 51 -14 75.5t-56 24.5h-10v30h120q36 0 55 -12t27 -39.5t8 -78.5v-165h270v295h130v-615h35q15 0 25 -10t10 -25v-195h-50q-8 72 -23.5 112z" />
    <glyph glyph-name="uni0524" unicode="&#x524;" horiz-adv-x="706" 
d="M675 35q10 -10 10 -25v-195h-50q-8 72 -23.5 112t-39.5 56.5t-62 16.5h-25v615h-260v-615h-130v530q0 51 -14 75.5t-56 24.5h-10v30h600v-615h35q15 0 25 -10z" />
    <glyph glyph-name="uni04AA" unicode="&#x4aa;" horiz-adv-x="679" 
d="M561 32q-54 -38 -131 -48v-169h-50q-7 129 -31 165q-98 4 -168.5 49t-107 121t-36.5 170q0 100 43 182.5t118.5 130t168.5 47.5q88 0 147 -22.5t90 -58.5q18 -23 22 -57t4 -95h-30q-19 92 -70 140t-133 48q-102 0 -161 -72t-59 -243q0 -127 54 -211t166 -84
q70 0 128.5 37t94.5 106l35 -27q-40 -71 -94 -109z" />
    <glyph glyph-name="uni04AE" unicode="&#x4ae;" horiz-adv-x="638" 
d="M279 264l-177 266q-30 43 -65.5 75t-67.5 35v20h109q51 0 92.5 -32t70.5 -78l136 -205l194 315h65l-227 -369v-291h-130v264z" />
    <glyph glyph-name="uni04B0" unicode="&#x4b0;" horiz-adv-x="638" 
d="M412 296h78v-45h-81v-251h-130v251h-88v45h67l-156 234q-30 43 -65.5 75t-67.5 35v20h109q51 0 92.5 -32t70.5 -78l136 -205l194 315h65z" />
    <glyph glyph-name="uni04B6" unicode="&#x4b6;" horiz-adv-x="680" 
d="M649 35q10 -10 10 -25v-195h-50q-8 72 -23.5 112t-39.5 56.5t-62 16.5h-25v260q-23 -10 -57.5 -15t-71.5 -5q-251 0 -251 220v70q0 51 -14 75.5t-56 24.5h-10v30h120q36 0 55 -12t27 -39.5t8 -78.5v-80q0 -80 38.5 -122.5t101.5 -42.5q58 0 110 20v355h130v-615h35
q15 0 25 -10z" />
    <glyph glyph-name="uni04B8" unicode="&#x4b8;" horiz-adv-x="663" 
d="M589 660v-660h-130v260q-31 -13 -83 -18v-112h-55v110q-242 5 -242 220v70q0 51 -14 75.5t-56 24.5h-10v30h120q36 0 55 -12t27 -39.5t8 -78.5v-80q0 -71 30 -112.5t82 -50.5v122h55v-123q44 4 83 19v355h130z" />
    <glyph glyph-name="uni04BA" unicode="&#x4ba;" horiz-adv-x="663" 
d="M204 400q23 10 57.5 15t71.5 5q251 0 251 -220v-70q0 -51 14 -75.5t56 -24.5h10v-30h-120q-36 0 -55 12t-27 39.5t-8 78.5v80q0 80 -38.5 122.5t-101.5 42.5q-58 0 -110 -20v-355h-130v660h130v-260z" />
    <glyph glyph-name="uni04C0" unicode="&#x4c0;" horiz-adv-x="304" 
d="M114 11.5q-19 11.5 -27 39t-8 79.5v530h130v-530q0 -51 14 -75.5t56 -24.5h10v-30h-120q-36 0 -55 11.5z" />
    <glyph glyph-name="uni04C1" unicode="&#x4c1;" horiz-adv-x="989" 
d="M-10 0v24q31 5 72.5 34t77.5 72l201 240l-139 184q-33 41 -70.5 56t-102.5 15v35h60q55 0 97.5 -28t79.5 -77l163 -215v320h131v-320l163 215q37 49 79.5 77t97.5 28h60v-35q-65 0 -102.5 -15t-70.5 -56l-139 -184l201 -240q36 -43 77.5 -72t72.5 -34v-24
q-30 -10 -64 -10q-71 0 -127.5 26.5t-116.5 103.5l-131 165v-285h-131v285l-131 -165q-60 -77 -116.5 -103.5t-127.5 -26.5q-34 0 -64 10zM410 730.5q-37 25.5 -56 68.5l28 21q17 -21 45.5 -35.5t67.5 -14.5t67.5 14.5t45.5 35.5l28 -21q-19 -43 -56 -68.5t-85 -25.5
t-85 25.5z" />
    <glyph glyph-name="uni04CB" unicode="&#x4cb;" horiz-adv-x="659" 
d="M589 660v-660h-25q-38 0 -62 -16.5t-39.5 -56.5t-23.5 -112h-50v195q0 15 10 25t25 10h35v215q-23 -10 -57.5 -15t-71.5 -5q-251 0 -251 220v70q0 51 -14 75.5t-56 24.5h-10v30h120q36 0 55 -12t27 -39.5t8 -78.5v-80q0 -80 38.5 -122.5t101.5 -42.5q58 0 110 20v355h130
z" />
    <glyph glyph-name="uni04D0" unicode="&#x4d0;" horiz-adv-x="647" 
d="M514 22.5q-51 26.5 -83 103.5l-23 56h-266l-82 -182h-52l295 660h45l224 -534q38 -93 104 -100v-25q-18 -5 -48 -5q-63 0 -114 26.5zM163 227h226l-110 261zM239 730.5q-37 25.5 -56 68.5l28 21q17 -21 45.5 -35.5t67.5 -14.5t67.5 14.5t45.5 35.5l28 -21
q-19 -43 -56 -68.5t-85 -25.5t-85 25.5z" />
    <glyph glyph-name="uni04D2" unicode="&#x4d2;" horiz-adv-x="647" 
d="M514 22.5q-51 26.5 -83 103.5l-23 56h-266l-82 -182h-52l295 660h45l224 -534q38 -93 104 -100v-25q-18 -5 -48 -5q-63 0 -114 26.5zM163 227h226l-110 261zM193 731q-15 16 -15 40t15 40t41 16t41 -16t15 -40t-15 -40t-41 -16t-41 16zM373 731q-15 16 -15 40t15 40
t41 16t41 -16t15 -40t-15 -40t-41 -16t-41 16z" />
    <glyph glyph-name="uni04D6" unicode="&#x4d6;" horiz-adv-x="600" 
d="M95 530q0 51 -14 75.5t-56 24.5h-10v30h441q85 0 85 -80v-85h-30q0 62 -31.5 91t-93.5 29h-161v-250h260v-45h-260v-275h171q57 0 95 25.5t63 88.5l27 -10l-29 -79q-13 -36 -31 -53t-56 -17h-370v530zM215 730.5q-37 25.5 -56 68.5l28 21q17 -21 45.5 -35.5t67.5 -14.5
t67.5 14.5t45.5 35.5l28 -21q-19 -43 -56 -68.5t-85 -25.5t-85 25.5z" />
    <glyph glyph-name="uni04D8" unicode="&#x4d8;" horiz-adv-x="713" 
d="M116.5 61.5q-79.5 81.5 -79.5 227.5q0 31 3 62h496q0 284 -211 284q-69 0 -120 -33t-100 -108l-44 33q46 69 115.5 111t164.5 42q99 0 175 -46t118 -127.5t42 -182.5q0 -109 -42.5 -187t-117 -117.5t-168.5 -39.5q-152 0 -231.5 81.5zM483 85.5q53 60.5 53 199.5h-368
q0 -260 178 -260q84 0 137 60.5z" />
    <glyph glyph-name="uni04DC" unicode="&#x4dc;" horiz-adv-x="989" 
d="M-10 0v24q31 5 72.5 34t77.5 72l201 240l-139 184q-33 41 -70.5 56t-102.5 15v35h60q55 0 97.5 -28t79.5 -77l163 -215v320h131v-320l163 215q37 49 79.5 77t97.5 28h60v-35q-65 0 -102.5 -15t-70.5 -56l-139 -184l201 -240q36 -43 77.5 -72t72.5 -34v-24
q-30 -10 -64 -10q-71 0 -127.5 26.5t-116.5 103.5l-131 165v-285h-131v285l-131 -165q-60 -77 -116.5 -103.5t-127.5 -26.5q-34 0 -64 10zM364 731q-15 16 -15 40t15 40t41 16t41 -16t15 -40t-15 -40t-41 -16t-41 16zM544 731q-15 16 -15 40t15 40t41 16t41 -16t15 -40
t-15 -40t-41 -16t-41 16z" />
    <glyph glyph-name="uni04DE" unicode="&#x4de;" horiz-adv-x="580" 
d="M127.5 13q-62.5 33 -108.5 102l30 25q40 -53 88.5 -84t117.5 -31q67 0 110.5 37t43.5 103q0 71 -45.5 110.5t-124.5 39.5h-85v45h85q37 0 71.5 16t56.5 47.5t22 76.5t-20 75.5t-49.5 45t-59.5 14.5q-67 0 -114 -44t-66 -121h-31q0 57 4 88t21 52q25 31 80.5 50.5
t110.5 19.5q112 0 185.5 -37t73.5 -138q0 -51 -41 -97t-113 -63q91 -11 135 -61t44 -114q0 -68 -40 -110.5t-101.5 -61t-127.5 -18.5q-90 0 -152.5 33zM139 731q-15 16 -15 40t15 40t41 16t41 -16t15 -40t-15 -40t-41 -16t-41 16zM319 731q-15 16 -15 40t15 40t41 16t41 -16
t15 -40t-15 -40t-41 -16t-41 16z" />
    <glyph glyph-name="uni04E2" unicode="&#x4e2;" horiz-adv-x="709" 
d="M95 530q0 51 -14 75.5t-56 24.5h-10v30h120q36 0 55 -12t27 -39.5t8 -78.5v-400l290 530h120v-660h-130v530l-290 -530h-120v530zM215 737v85h279v-85h-279z" />
    <glyph glyph-name="uni04E4" unicode="&#x4e4;" horiz-adv-x="709" 
d="M95 530q0 51 -14 75.5t-56 24.5h-10v30h120q36 0 55 -12t27 -39.5t8 -78.5v-400l290 530h120v-660h-130v530l-290 -530h-120v530zM224 731q-15 16 -15 40t15 40t41 16t41 -16t15 -40t-15 -40t-41 -16t-41 16zM404 731q-15 16 -15 40t15 40t41 16t41 -16t15 -40t-15 -40
t-41 -16t-41 16z" />
    <glyph glyph-name="uni04E6" unicode="&#x4e6;" horiz-adv-x="733" 
d="M194.5 26q-75.5 46 -116.5 126t-41 178t41 178t116.5 126t172.5 46t172 -46t116 -126t41 -178t-41 -178t-116 -126t-172 -46t-172.5 46zM508 104.5q50 79.5 50 225.5t-50 225.5t-141 79.5t-140.5 -79.5t-49.5 -225.5t49.5 -225.5t140.5 -79.5t141 79.5zM236 731
q-15 16 -15 40t15 40t41 16t41 -16t15 -40t-15 -40t-41 -16t-41 16zM416 731q-15 16 -15 40t15 40t41 16t41 -16t15 -40t-15 -40t-41 -16t-41 16z" />
    <glyph glyph-name="uni04E8" unicode="&#x4e8;" horiz-adv-x="733" 
d="M539 634q75 -46 116 -126t41 -178t-41 -178t-116 -126t-172 -46t-172.5 46t-116.5 126t-41 178t41 178t116.5 126t172.5 46t172 -46zM233 565q-49 -70 -55 -200h379q-6 130 -55.5 200t-134.5 70t-134 -70zM507 102q50 77 51 218h-381q1 -142 51 -218.5t139 -76.5
q90 0 140 77z" />
    <glyph glyph-name="uni04EE" unicode="&#x4ee;" horiz-adv-x="618" 
d="M142 26q53 0 92 14.5t57 54.5l7 15l-205 420q-22 49 -53.5 77.5t-70.5 32.5v20h100q55 0 97.5 -30t65.5 -80l138 -282l177 392h65l-256 -565q-21 -50 -63 -77.5t-101 -27.5h-50v36zM199 737v85h279v-85h-279z" />
    <glyph glyph-name="uni04F0" unicode="&#x4f0;" horiz-adv-x="618" 
d="M142 26q53 0 92 14.5t57 54.5l7 15l-205 420q-22 49 -53.5 77.5t-70.5 32.5v20h100q55 0 97.5 -30t65.5 -80l138 -282l177 392h65l-256 -565q-21 -50 -63 -77.5t-101 -27.5h-50v36zM208 731q-15 16 -15 40t15 40t41 16t41 -16t15 -40t-15 -40t-41 -16t-41 16zM388 731
q-15 16 -15 40t15 40t41 16t41 -16t15 -40t-15 -40t-41 -16t-41 16z" />
    <glyph glyph-name="uni04F2" unicode="&#x4f2;" horiz-adv-x="618" 
d="M142 26q53 0 92 14.5t57 54.5l7 15l-205 420q-22 49 -53.5 77.5t-70.5 32.5v20h100q55 0 97.5 -30t65.5 -80l138 -282l177 392h65l-256 -565q-21 -50 -63 -77.5t-101 -27.5h-50v36zM261 705l42 140h79l-86 -140h-35zM371 705l42 140h79l-86 -140h-35z" />
    <glyph glyph-name="uni04F4" unicode="&#x4f4;" horiz-adv-x="663" 
d="M459 260q-23 -10 -57.5 -15t-71.5 -5q-251 0 -251 220v70q0 51 -14 75.5t-56 24.5h-10v30h120q36 0 55 -12t27 -39.5t8 -78.5v-80q0 -80 38.5 -122.5t101.5 -42.5q58 0 110 20v355h130v-660h-130v260zM201 731q-15 16 -15 40t15 40t41 16t41 -16t15 -40t-15 -40t-41 -16
t-41 16zM381 731q-15 16 -15 40t15 40t41 16t41 -16t15 -40t-15 -40t-41 -16t-41 16z" />
    <glyph glyph-name="uni04F6" unicode="&#x4f6;" horiz-adv-x="544" 
d="M529 580v-85h-30q0 63 -31.5 91.5t-93.5 28.5h-149v-570h35q15 0 25 -10t10 -25v-195h-50q-8 72 -23.5 112t-39.5 56.5t-62 16.5h-25v530q0 51 -14 75.5t-56 24.5h-10v30h429q85 0 85 -80z" />
    <glyph glyph-name="uni04F8" unicode="&#x4f8;" horiz-adv-x="894" 
d="M95 530q0 51 -14 75.5t-56 24.5h-10v30h120q36 0 55 -12t27 -39.5t8 -78.5v-140h80q127 0 211 -44t84 -151t-84 -151t-211 -44h-210v530zM704 11.5q-19 11.5 -27 39t-8 79.5v530h130v-530q0 -51 14 -75.5t56 -24.5h10v-30h-120q-36 0 -55 11.5zM419 79q41 39 41 116
t-41 116t-129 39q-26 0 -46 -5l-19 -5v-290q9 -4 19 -5q22 -5 46 -5q88 0 129 39zM316 731q-15 16 -15 40t15 40t41 16t41 -16t15 -40t-15 -40t-41 -16t-41 16zM496 731q-15 16 -15 40t15 40t41 16t41 -16t15 -40t-15 -40t-41 -16t-41 16z" />
    <glyph glyph-name="uni051A" unicode="&#x51a;" horiz-adv-x="735" 
d="M461 -157q-110 48 -197 153q-104 32 -165 122.5t-61 211.5q0 98 41 178t116.5 126t172.5 46t172 -46t116 -126t41 -178q0 -125 -63 -216t-171 -121q17 -47 55.5 -86.5t85.5 -62.5t89 -23v-26q-122 0 -232 48zM509 104.5q50 79.5 50 225.5t-50 225.5t-141 79.5
t-140.5 -79.5t-49.5 -225.5t49.5 -225.5t140.5 -79.5t141 79.5z" />
    <glyph glyph-name="uni051C" unicode="&#x51c;" horiz-adv-x="906" 
d="M61 543q-22 55 -45 78t-54 27v20l42 2q67 0 117 -24.5t81 -102.5l135 -345l90 256l-35 89q-22 54 -47.5 77.5t-58.5 27.5v20l39 2q67 0 117 -25t81 -102l143 -364l171 481h48l-237 -669h-40l-154 392l-137 -392h-40z" />
    <glyph glyph-name="uni0430" unicode="&#x430;" 
d="M73.5 26.5q-44.5 36.5 -44.5 98.5q0 50 23.5 83t82.5 50t164 17h15q0 87 -24 123.5t-71 36.5q-39 0 -64 -19t-36 -71h-55q0 34 4.5 58t20.5 42q31 35 150 35q100 0 152.5 -52.5t52.5 -157.5v-270h-85l-35 45h-5q-9 -14 -28 -28q-34 -27 -92 -27q-81 0 -125.5 36.5z
M265 48.5q15 8.5 29 23.5q13 14 20 33v125h-15q-71 0 -103 -25.5t-32 -79.5q0 -41 17 -63t48 -22q21 0 36 8.5z" />
    <glyph glyph-name="uni0431" unicode="&#x431;" horiz-adv-x="545" 
d="M107 55.5q-62 65.5 -62 184.5v30q0 122 21.5 193.5t59 104t95.5 45.5l139 32q46 11 68.5 21.5t26.5 28.5h30v-80q0 -52 -60 -65l-164 -37q-65 -16 -106 -65.5t-45 -137.5h5q25 63 68 96.5t112 33.5q95 0 152.5 -56.5t57.5 -168.5q0 -113 -60.5 -169t-169.5 -56
q-106 0 -168 65.5zM341.5 76q28.5 41 28.5 139q0 65 -14.5 105.5t-36 57.5t-44.5 17t-44.5 -17t-36 -57.5t-14.5 -105.5q0 -98 28.5 -139t66.5 -41t66.5 41z" />
    <glyph glyph-name="uni0432" unicode="&#x432;" horiz-adv-x="524" 
d="M74 340q0 51 -14 75.5t-56 24.5h-5v30h268q93 0 147.5 -31t54.5 -89q0 -44 -33 -70.5t-94 -34.5q67 -9 107 -38.5t40 -76.5q0 -130 -222 -130h-193v340zM239 270q40 0 67.5 21.5t27.5 58.5q0 39 -25.5 59.5t-59.5 20.5q-24 0 -45 -7v-153h35zM325 63.5q29 23.5 29 66.5
q0 47 -30.5 71t-84.5 24h-35v-178q21 -7 45 -7q47 0 76 23.5z" />
    <glyph glyph-name="uni0433" unicode="&#x433;" horiz-adv-x="440" 
d="M74 340q0 51 -14 75.5t-56 24.5h-5v30h345q75 0 75 -80v-70h-30q0 55 -24 80t-71 25h-90v-425h-130v340z" />
    <glyph glyph-name="uni0453" unicode="&#x453;" horiz-adv-x="440" 
d="M74 340q0 51 -14 75.5t-56 24.5h-5v30h345q75 0 75 -80v-70h-30q0 55 -24 80t-71 25h-90v-425h-130v340zM209 515l42 140h119l-106 -140h-55z" />
    <glyph glyph-name="uni0491" unicode="&#x491;" horiz-adv-x="433" 
d="M74 340q0 51 -14 75.5t-56 24.5h-5v30h295q47 0 71 25t24 80h30v-70q0 -80 -75 -80h-140v-425h-130v340z" />
    <glyph glyph-name="uni0434" unicode="&#x434;" horiz-adv-x="583" 
d="M9 10q0 15 10 25t25 10h36q32 70 46 149.5t14 155.5q0 44 -15 67t-60 23v30h445v-425h30q15 0 25 -10t10 -25v-170h-50q-5 64 -19 98.5t-36.5 48t-56.5 13.5h-242q-34 0 -56.5 -13.5t-36.5 -48t-19 -98.5h-50v170zM380 45v380h-141q0 -129 -12.5 -217.5t-42.5 -162.5h196
z" />
    <glyph glyph-name="uni0435" unicode="&#x435;" horiz-adv-x="509" 
d="M146 22q-52 32 -80.5 87.5t-28.5 125.5q0 78 28.5 133t78.5 83.5t113 28.5q62 0 112 -25t79 -70.5t29 -104.5q0 -19 -2 -43l-2 -20h-301q0 -95 29 -138.5t81 -43.5q48 0 80.5 21.5t62.5 61.5l31 -23q-29 -45 -72.5 -75t-116.5 -30q-69 0 -121 32zM342 262q0 94 -22 133.5
t-63 39.5q-38 0 -61.5 -40.5t-23.5 -132.5h170z" />
    <glyph glyph-name="uni0450" unicode="&#x450;" horiz-adv-x="509" 
d="M146 22q-52 32 -80.5 87.5t-28.5 125.5q0 78 28.5 133t78.5 83.5t113 28.5q62 0 112 -25t79 -70.5t29 -104.5q0 -19 -2 -43l-2 -20h-301q0 -95 29 -138.5t81 -43.5q48 0 80.5 21.5t62.5 61.5l31 -23q-29 -45 -72.5 -75t-116.5 -30q-69 0 -121 32zM342 262q0 94 -22 133.5
t-63 39.5q-38 0 -61.5 -40.5t-23.5 -132.5h170zM250 515l-106 140h119l42 -140h-55z" />
    <glyph glyph-name="uni0451" unicode="&#x451;" horiz-adv-x="509" 
d="M146 22q-52 32 -80.5 87.5t-28.5 125.5q0 78 28.5 133t78.5 83.5t113 28.5q62 0 112 -25t79 -70.5t29 -104.5q0 -19 -2 -43l-2 -20h-301q0 -95 29 -138.5t81 -43.5q48 0 80.5 21.5t62.5 61.5l31 -23q-29 -45 -72.5 -75t-116.5 -30q-69 0 -121 32zM342 262q0 94 -22 133.5
t-63 39.5q-38 0 -61.5 -40.5t-23.5 -132.5h170zM124 541q-15 16 -15 40t15 40t41 16t41 -16t15 -40t-15 -40t-41 -16t-41 16zM304 541q-15 16 -15 40t15 40t41 16t41 -16t15 -40t-15 -40t-41 -16t-41 16z" />
    <glyph glyph-name="uni0436" unicode="&#x436;" horiz-adv-x="740" 
d="M30.5 -7q-21.5 3 -29.5 7v24q48 12 93 76l124 176l-88 118q-38 50 -100 50v26h20q51 0 82 -18t62 -59l111 -148v225h130v-225l111 148q31 41 62 59t82 18h20v-26q-62 0 -100 -50l-88 -118l124 -176q45 -64 93 -76v-24q-8 -4 -29 -7t-40 -3q-44 0 -79.5 20.5t-69.5 69.5
l-86 123v-203h-130v203l-86 -123q-34 -49 -69.5 -69.5t-79.5 -20.5q-18 0 -39.5 3z" />
    <glyph glyph-name="uni0437" unicode="&#x437;" horiz-adv-x="460" 
d="M30 70l30 25q48 -60 125 -60q48 0 76.5 22t28.5 68q0 49 -26.5 72t-93.5 23h-50v45h50q59 0 82 19.5t23 65.5q0 42 -26 63.5t-64 21.5q-45 0 -76 -30.5t-34 -79.5h-30q0 52 4 77.5t21 42.5q18 18 55 26.5t85 8.5q93 0 146.5 -32.5t53.5 -97.5q0 -44 -32.5 -73t-87.5 -37
q62 -8 98.5 -39t36.5 -76q0 -69 -55 -102t-155 -33q-123 0 -185 80z" />
    <glyph glyph-name="uni0438" unicode="&#x438;" horiz-adv-x="569" 
d="M79 340q0 51 -14 75.5t-56 24.5h-10v30h120q36 0 55 -12t27 -39.5t8 -78.5v-215l180 345h120v-470h-130v345l-180 -345h-120v340z" />
    <glyph glyph-name="uni0439" unicode="&#x439;" horiz-adv-x="569" 
d="M79 340q0 51 -14 75.5t-56 24.5h-10v30h120q36 0 55 -12t27 -39.5t8 -78.5v-215l180 345h120v-470h-130v345l-180 -345h-120v340zM200 535.5q-37 25.5 -56 68.5l28 21q17 -21 45.5 -35.5t67.5 -14.5t67.5 14.5t45.5 35.5l28 -21q-19 -43 -56 -68.5t-85 -25.5t-85 25.5z
" />
    <glyph glyph-name="uni045D" unicode="&#x45d;" horiz-adv-x="569" 
d="M79 340q0 51 -14 75.5t-56 24.5h-10v30h120q36 0 55 -12t27 -39.5t8 -78.5v-215l180 345h120v-470h-130v345l-180 -345h-120v340zM280 515l-106 140h119l42 -140h-55z" />
    <glyph glyph-name="uni043A" unicode="&#x43a;" horiz-adv-x="524" 
d="M373.5 8.5q-36.5 18.5 -68.5 61.5l-96 126v-196h-130v340q0 51 -14 75.5t-56 24.5h-10v30h120q36 0 55 -12t27 -39.5t8 -78.5v-95l121 148q34 41 64 59t80 18h20v-26q-30 0 -54 -12t-46 -38l-97 -118l133 -176q48 -65 93 -76v-24q-8 -4 -29 -7t-40 -3q-44 0 -80.5 18.5z
" />
    <glyph glyph-name="uni045C" unicode="&#x45c;" horiz-adv-x="524" 
d="M373.5 8.5q-36.5 18.5 -68.5 61.5l-96 126v-196h-130v340q0 51 -14 75.5t-56 24.5h-10v30h120q36 0 55 -12t27 -39.5t8 -78.5v-95l121 148q34 41 64 59t80 18h20v-26q-30 0 -54 -12t-46 -38l-97 -118l133 -176q48 -65 93 -76v-24q-8 -4 -29 -7t-40 -3q-44 0 -80.5 18.5z
M231 515l42 140h119l-106 -140h-55z" />
    <glyph glyph-name="uni043B" unicode="&#x43b;" horiz-adv-x="567" 
d="M33 -12q-18 3 -27 6v29q39 6 66 34.5t43.5 99t16.5 193.5q0 44 -15.5 67t-59.5 23v30h450v-470h-130v425h-141v-75q0 -365 -170 -365q-15 0 -33 3z" />
    <glyph glyph-name="uni043C" unicode="&#x43c;" horiz-adv-x="666" 
d="M509 22.5q-48 47.5 -48 147.5v174l-144 -344h-33l-174 354v-353h-50v469h122l148 -301l130 311h131v-310q0 -85 16 -124t57 -46v-25q-107 0 -155 47.5z" />
    <glyph glyph-name="uni043D" unicode="&#x43d;" horiz-adv-x="578" 
d="M79 340q0 51 -14 75.5t-56 24.5h-10v30h120q36 0 55 -12t27 -39.5t8 -78.5v-80h160v210h130v-340q0 -51 14 -75.5t56 -24.5h10v-30h-120q-36 0 -55 11.5t-27 39t-8 79.5v85h-160v-215h-130v340z" />
    <glyph glyph-name="uni043E" unicode="&#x43e;" horiz-adv-x="552" 
d="M148.5 22.5q-54.5 32.5 -83.5 88t-29 124.5t29 124.5t83.5 88t127.5 32.5t127.5 -32.5t83.5 -88t29 -124.5t-29 -124.5t-83.5 -88t-127.5 -32.5t-127.5 32.5zM354 90q27 55 27 145t-27 145t-78 55t-78 -55t-27 -145t27 -145t78 -55t78 55z" />
    <glyph glyph-name="uni043F" unicode="&#x43f;" horiz-adv-x="554" 
d="M74 340q0 51 -14 75.5t-56 24.5h-5v30h495v-470h-130v425h-160v-425h-130v340z" />
    <glyph glyph-name="uni0440" unicode="&#x440;" horiz-adv-x="567" 
d="M80 340q0 51 -13.5 75.5t-55.5 24.5h-10v30h99q35 0 54 -9.5t30 -32.5q59 52 136 52q101 0 155.5 -68.5t54.5 -176.5t-55.5 -176.5t-159.5 -68.5q-41 0 -77 15q-16 6 -28 15v-210h-130v530zM395 235q0 92 -23 146t-72 54q-56 0 -97 -41l3 -14q4 -12 4 -34v-281
q11 -9 24 -15q28 -15 61 -15q100 0 100 200z" />
    <glyph glyph-name="uni0441" unicode="&#x441;" 
d="M145 23q-54 33 -81.5 88.5t-27.5 123.5t27.5 123.5t81.5 88.5t131 33q120 0 155 -35q17 -17 21 -45t4 -95h-30q-4 63 -39 96.5t-96 33.5q-55 0 -87.5 -50.5t-32.5 -149.5q0 -200 125 -200q48 0 80.5 21.5t62.5 61.5l31 -23q-29 -45 -73 -75t-121 -30t-131 33z" />
    <glyph glyph-name="uni0442" unicode="&#x442;" horiz-adv-x="467" 
d="M177 425h-30q-47 0 -71 -25t-24 -80h-30v70q0 80 75 80h361v-45h-151v-425h-130v425z" />
    <glyph glyph-name="uni0443" unicode="&#x443;" horiz-adv-x="509" 
d="M92 -165q55 0 89 21t55 76l21 54l-180 394q-33 72 -93 80v20h88q44 0 78 -21.5t52 -58.5l115 -252l122 322h53l-202 -535q-28 -78 -65 -106.5t-93 -28.5h-40v35z" />
    <glyph glyph-name="uni045E" unicode="&#x45e;" horiz-adv-x="495" 
d="M92 -165q55 0 89 21t55 76l21 54l-180 394q-33 72 -93 80v20h88q44 0 78 -21.5t52 -58.5l115 -252l122 322h53l-202 -535q-28 -78 -65 -106.5t-93 -28.5h-40v35zM209 521.5q-37 25.5 -56 68.5l28 21q17 -21 45.5 -35.5t67.5 -14.5t67.5 14.5t45.5 35.5l28 -21
q-19 -43 -56 -68.5t-85 -25.5t-85 25.5z" />
    <glyph glyph-name="uni0444" unicode="&#x444;" horiz-adv-x="704" 
d="M287 -10q-118 8 -184 74.5t-66 170.5t66 170.5t184 74.5v50q0 51 -14 75.5t-56 24.5h-10v30h120q36 0 55 -12t27 -39.5t8 -78.5v-50q118 -8 184 -74.5t66 -170.5t-66 -170.5t-184 -74.5v-180h-130v180zM292 445q-50 -9 -85 -63.5t-35 -146.5t35 -146.5t85 -63.5v420z
M497 88.5q35 54.5 35 146.5t-35 146.5t-85 63.5v-420q50 9 85 63.5z" />
    <glyph glyph-name="uni0445" unicode="&#x445;" 
d="M192 209l-96 161q-21 35 -45 55.5t-48 24.5v20h95q46 0 75 -20t53 -60l48 -81l131 161h67l-169 -208l97 -162q21 -35 45 -55.5t48 -24.5v-20h-95q-46 0 -75 20t-53 60l-49 81l-131 -161h-67z" />
    <glyph glyph-name="uni0447" unicode="&#x447;" horiz-adv-x="554" 
d="M364 178q-17 -7 -41 -12.5t-49 -5.5q-85 0 -137.5 36.5t-52.5 113.5v30q0 51 -14 75.5t-56 24.5h-10v30h120q36 0 55 -12t27 -39.5t8 -78.5v-30q0 -105 83 -105q22 0 36.5 3.5t30.5 12.5v249h130v-470h-130v178z" />
    <glyph glyph-name="uni0446" unicode="&#x446;" horiz-adv-x="572" 
d="M500 -61.5q-14 34.5 -36.5 48t-56.5 13.5h-328v340q0 51 -14 75.5t-56 24.5h-10v30h120q36 0 55 -12t27 -39.5t8 -78.5v-295h160v425h130v-425h30q15 0 25 -10t10 -25v-170h-45q-5 64 -19 98.5z" />
    <glyph glyph-name="uni0448" unicode="&#x448;" horiz-adv-x="759" 
d="M79 340q0 51 -14 75.5t-56 24.5h-10v30h120q36 0 55 -12t27 -39.5t8 -78.5v-295h115v425h130v-425h115v425h130v-470h-620v340z" />
    <glyph glyph-name="uni0449" unicode="&#x449;" horiz-adv-x="772" 
d="M700 -61.5q-14 34.5 -36.5 48t-56.5 13.5h-528v340q0 51 -14 75.5t-56 24.5h-10v30h120q36 0 55 -12t27 -39.5t8 -78.5v-295h115v425h130v-425h115v425h130v-425h30q15 0 25 -10t10 -25v-170h-45q-5 64 -19 98.5z" />
    <glyph glyph-name="uni045F" unicode="&#x45f;" horiz-adv-x="559" 
d="M244 0h-165v340q0 51 -14 75.5t-56 24.5h-10v30h120q36 0 55 -12t27 -39.5t8 -78.5v-295h160v425h130v-470h-165l-15 -150h-60z" />
    <glyph glyph-name="uni044C" unicode="&#x44c;" horiz-adv-x="509" 
d="M79 340q0 51 -14 75.5t-56 24.5h-10v30h120q36 0 55 -12t27 -39.5t8 -78.5v-60h75q95 0 150 -36.5t55 -103.5t-55 -103.5t-150 -36.5h-205v340zM326.5 63.5q27.5 23.5 27.5 76.5t-27.5 76.5t-72.5 23.5q-24 0 -45 -7v-186q21 -7 45 -7q45 0 72.5 23.5z" />
    <glyph glyph-name="uni044A" unicode="&#x44a;" horiz-adv-x="598" 
d="M168 425q-52 -4 -74 -35.5t-26 -99.5h-40v145q0 15 10 25t25 10h235v-190h75q95 0 150 -36.5t55 -103.5t-55 -103.5t-150 -36.5h-205v425zM415.5 63.5q27.5 23.5 27.5 76.5t-27.5 76.5t-72.5 23.5q-24 0 -45 -7v-186q21 -7 45 -7q45 0 72.5 23.5z" />
    <glyph glyph-name="uni044B" unicode="&#x44b;" horiz-adv-x="738" 
d="M79 340q0 51 -14 75.5t-56 24.5h-10v30h120q36 0 55 -12t27 -39.5t8 -78.5v-60h65q95 0 150 -36.5t55 -103.5t-55 -103.5t-150 -36.5h-195v340zM564 11.5q-19 11.5 -27 39t-8 79.5v340h130v-340q0 -51 14 -75.5t56 -24.5h10v-30h-120q-36 0 -55 11.5zM318 63.5
q26 23.5 26 76.5t-26 76.5t-64 23.5q-24 0 -45 -7v-186q21 -7 45 -7q38 0 64 23.5z" />
    <glyph glyph-name="uni0459" unicode="&#x459;" horiz-adv-x="795" 
d="M33 -12q-18 3 -27 6v29q39 6 66 34.5t43.5 99t16.5 193.5q0 44 -15.5 67t-59.5 23v30h438v-190h75q95 0 150 -36.5t55 -103.5t-55 -103.5t-150 -36.5h-205v425h-129v-75q0 -365 -170 -365q-15 0 -33 3zM612.5 63.5q27.5 23.5 27.5 76.5t-27.5 76.5t-72.5 23.5
q-24 0 -45 -7v-186q21 -7 45 -7q45 0 72.5 23.5z" />
    <glyph glyph-name="uni045A" unicode="&#x45a;" horiz-adv-x="788" 
d="M79 340q0 51 -14 75.5t-56 24.5h-10v30h120q36 0 55 -12t27 -39.5t8 -78.5v-70h150v200h130v-200h75q94 0 149.5 -36t55.5 -99t-55.5 -99t-149.5 -36h-205v225h-150v-225h-130v340zM606.5 62.5q27.5 22.5 27.5 72.5t-27.5 72.5t-72.5 22.5q-24 0 -45 -7v-176q21 -7 45 -7
q45 0 72.5 22.5z" />
    <glyph glyph-name="uni0455" unicode="&#x455;" horiz-adv-x="468" 
d="M68 31q-16 15 -20 42.5t-4 76.5h35q9 -52 41 -83.5t89 -31.5q100 0 100 68q0 26 -21.5 43t-68.5 38l-52 22q-64 28 -96 61t-32 80q0 63 52.5 98t137.5 35q117 0 161 -41q16 -15 20 -42t4 -77h-35q-9 52 -41 83.5t-89 31.5q-43 0 -64 -18.5t-21 -49.5q0 -25 17.5 -41.5
t53.5 -32.5l60 -25q74 -31 106.5 -62.5t32.5 -82.5q0 -64 -56.5 -98.5t-148.5 -34.5q-117 0 -161 41z" />
    <glyph glyph-name="uni0454" unicode="&#x454;" horiz-adv-x="501" 
d="M145 23q-54 33 -81.5 88.5t-27.5 123.5t27.5 123.5t81.5 88.5t131 33q120 0 155 -35q17 -17 21 -45t4 -95h-30q-4 63 -39 96.5t-96 33.5q-52 0 -83.5 -46t-35.5 -134h189v-45h-189q7 -175 124 -175q48 0 80.5 21.5t62.5 61.5l31 -23q-29 -45 -73 -75t-121 -30t-131 33z
" />
    <glyph glyph-name="uni044D" unicode="&#x44d;" horiz-adv-x="501" 
d="M104 20q-44 30 -73 75l31 23q31 -41 62.5 -62t80.5 -21q117 0 124 175h-189v45h189q-4 88 -35.5 134t-83.5 46q-61 0 -96 -33.5t-39 -96.5h-30q0 67 4 95t21 45q35 35 155 35q77 0 131 -33t81.5 -88.5t27.5 -123.5t-27.5 -123.5t-81.5 -88.5t-131 -33t-121 30z" />
    <glyph glyph-name="uni0456" unicode="&#x456;" horiz-adv-x="267" 
d="M88.5 546q-19.5 22 -19.5 54q0 26 15.5 41t39.5 15q36 0 55.5 -22t19.5 -54q0 -26 -15.5 -41t-39.5 -15q-36 0 -55.5 22zM79 340q0 51 -14 75.5t-56 24.5h-10v30h120q36 0 55 -12t27 -39.5t8 -78.5v-340h-130v340z" />
    <glyph glyph-name="uni0457" unicode="&#x457;" horiz-adv-x="267" 
d="M-1.5 556q-19.5 22 -19.5 54q0 26 15.5 41t39.5 15q36 0 55.5 -22t19.5 -54q0 -26 -15.5 -41t-39.5 -15q-36 0 -55.5 22zM183.5 556q-19.5 22 -19.5 54q0 26 15.5 41t39.5 15q36 0 55.5 -22t19.5 -54q0 -26 -15.5 -41t-39.5 -15q-36 0 -55.5 22zM79 340q0 51 -14 75.5
t-56 24.5h-10v30h120q36 0 55 -12t27 -39.5t8 -78.5v-340h-130v340z" />
    <glyph glyph-name="uni0458" unicode="&#x458;" horiz-adv-x="267" 
d="M88.5 546q-19.5 22 -19.5 54q0 26 15.5 41t39.5 15q36 0 55.5 -22t19.5 -54q0 -26 -15.5 -41t-39.5 -15q-36 0 -55.5 22zM-9 -165q47 9 67.5 50t20.5 140v315q0 51 -14 75.5t-56 24.5h-10v30h120q36 0 55 -12t27 -39.5t8 -78.5v-315q0 -84 -20.5 -130t-67 -65.5
t-130.5 -19.5v25z" />
    <glyph glyph-name="uni045B" unicode="&#x45b;" horiz-adv-x="546" 
d="M60 495h-70v45h70v60l50 60h80v-120h100v-45h-100v-115q23 23 55 36.5t65 13.5q82 0 131 -40t49 -140v-250h-130v250q0 130 -80 130q-23 0 -47 -13t-43 -35v-332h-130v495z" />
    <glyph glyph-name="uni044E" unicode="&#x44e;" horiz-adv-x="735" 
d="M361.5 19.5q-49.5 29.5 -79 80.5t-33.5 115h-40v-215h-130v340q0 51 -14 75.5t-56 24.5h-10v30h120q36 0 55 -12t27 -39.5t8 -78.5v-80h41q6 62 35 112t78 79t111 29q66 0 117.5 -32.5t79.5 -88.5t28 -124t-28 -124t-79.5 -88.5t-117.5 -32.5q-63 0 -112.5 29.5zM541 90
q23 55 23 145t-23 145t-67 55t-67 -55t-23 -145t23 -145t67 -55t67 55z" />
    <glyph glyph-name="uni044F" unicode="&#x44f;" horiz-adv-x="528" 
d="M15 -5v26q46 6 85 74l60 104q-53 8 -84 42.5t-31 83.5q0 75 58.5 110t161.5 35h260v-30h-5q-42 0 -56 -24.5t-14 -75.5v-340h-130v194h-44l-60 -119q-23 -47 -53.5 -68.5t-82.5 -21.5q-35 0 -65 10zM306 238.5q13 3.5 14 3.5v181q-1 0 -14 3.5t-31 3.5q-42 0 -68.5 -22.5
t-26.5 -72.5t27 -75t68 -25q18 0 31 3.5z" />
    <glyph glyph-name="uni0452" unicode="&#x452;" horiz-adv-x="546" 
d="M277 -115q43 8 63 48t20 122v195q0 130 -80 130q-23 0 -47 -13t-43 -35v-332h-130v495h-70v45h70v60l50 60h80v-120h150v-45h-150v-115q23 23 55 36.5t65 13.5q82 0 131 -40t49 -140v-195q0 -99 -52.5 -147t-160.5 -48v25z" />
    <glyph glyph-name="uni0463" unicode="&#x463;" horiz-adv-x="586" 
d="M511 243.5q55 -36.5 55 -103.5t-55 -103.5t-150 -36.5h-205v425h-9q-47 0 -71 -25t-24 -80h-30v70q0 80 75 80h59v60q0 51 -14 75.5t-56 24.5h-10v30h120q36 0 55 -12t27 -39.5t8 -78.5v-60h152v-45h-152v-145h75q95 0 150 -36.5zM403.5 63.5q27.5 23.5 27.5 76.5
t-27.5 76.5t-72.5 23.5q-24 0 -45 -7v-186q21 -7 45 -7q45 0 72.5 23.5z" />
    <glyph glyph-name="uni046B" unicode="&#x46b;" horiz-adv-x="741" 
d="M30.5 -7q-20.5 3 -28.5 7l-1 24q48 12 94 76l62 87q48 72 118 73l-125 134q-27 25 -49.5 37.5t-50.5 12.5l1 26h630l-1 -26q-27 0 -47 -11.5t-53 -38.5l-130 -134h13q28 0 61 -18t58 -49l65 -93q45 -64 92 -76l1 -24q-9 -4 -30.5 -7t-39.5 -3q-44 0 -79.5 20.5
t-69.5 69.5l-85 123v-203h-130v203l-87 -123q-34 -49 -69.5 -69.5t-79.5 -20.5q-19 0 -39.5 3zM362 236l180 189h-351z" />
    <glyph glyph-name="uni0473" unicode="&#x473;" horiz-adv-x="552" 
d="M403.5 447.5q54.5 -32.5 83.5 -88t29 -124.5t-29 -124.5t-83.5 -88t-127.5 -32.5t-127.5 32.5t-83.5 88t-29 124.5t29 124.5t83.5 88t127.5 32.5t127.5 -32.5zM202 387q-27 -48 -30 -127h208q-3 79 -30 127t-74 48t-74 -48zM351 84q27 49 30 131h-210q3 -82 30 -131
t75 -49t75 49z" />
    <glyph glyph-name="uni0475" unicode="&#x475;" horiz-adv-x="553" 
d="M523 450q-35 -4 -55.5 -27t-43.5 -81l-142 -351l-36 -1l-169 365q-27 56 -46 78.5t-43 24.5v20l37 2q67 0 112.5 -26t79.5 -99l85 -184l68 168q30 74 57 101.5t62 29.5q12 1 20 0.5t13 -0.5z" />
    <glyph glyph-name="uni0493" unicode="&#x493;" horiz-adv-x="440" 
d="M419 390v-70h-30q0 55 -24 80t-71 25h-90v-168h112v-45h-112v-212h-130v212h-57v45h57v83q0 51 -14 75.5t-56 24.5h-5v30h345q75 0 75 -80z" />
    <glyph glyph-name="uni0495" unicode="&#x495;" horiz-adv-x="510" 
d="M430 216.5q55 -54.5 55 -148.5q0 -107 -61.5 -157.5t-192.5 -50.5v25q64 8 94 49.5t30 130.5q0 76 -28.5 115.5t-84.5 39.5q-24 0 -38 -1v-219h-130v340q0 51 -14 75.5t-56 24.5h-5v30h345q75 0 75 -80v-70h-30q0 55 -24 80t-71 25h-90v-158q32 4 68 4q103 0 158 -54.5z
" />
    <glyph glyph-name="uni0497" unicode="&#x497;" horiz-adv-x="753" 
d="M743 35q10 -10 10 -25v-170h-45q-7 75 -26.5 109t-57.5 47q-55 15 -103 84l-86 123v-203h-130v203l-86 -123q-34 -49 -69.5 -69.5t-79.5 -20.5q-18 0 -39.5 3t-29.5 7v24q48 12 93 76l124 176l-88 118q-38 50 -100 50v26h20q51 0 82 -18t62 -59l111 -148v225h130v-225
l111 148q31 41 62 59t82 18h20v-26q-62 0 -100 -50l-88 -118l124 -176q18 -24 26 -32q22 -23 46 -23q15 0 25 -10z" />
    <glyph glyph-name="uni0499" unicode="&#x499;" horiz-adv-x="460" 
d="M383.5 32.5q-41.5 -32.5 -117.5 -40.5v-152h-45q-3 68 -11.5 103t-23.5 48q-102 9 -156 79l30 25q48 -60 125 -60q48 0 76.5 22t28.5 68q0 49 -26.5 72t-93.5 23h-50v45h50q59 0 82 19.5t23 65.5q0 42 -26 63.5t-64 21.5q-45 0 -76 -30.5t-34 -79.5h-30q0 52 4 77.5
t21 42.5q18 18 55 26.5t85 8.5q93 0 146.5 -32.5t53.5 -97.5q0 -44 -32.5 -73t-87.5 -37q62 -8 98.5 -39t36.5 -76q0 -60 -41.5 -92.5z" />
    <glyph glyph-name="uni049B" unicode="&#x49b;" horiz-adv-x="538" 
d="M528 35q10 -10 10 -25v-170h-45q-7 77 -28.5 112.5t-60.5 43.5q-56 16 -99 74l-96 126v-196h-130v340q0 51 -14 75.5t-56 24.5h-10v30h120q36 0 55 -12t27 -39.5t8 -78.5v-95l121 148q34 41 64 59t80 18h20v-26q-30 0 -54 -12t-46 -38l-97 -118l133 -176q12 -17 21 -26
q15 -17 27 -23t25 -6q15 0 25 -10z" />
    <glyph glyph-name="uni049D" unicode="&#x49d;" horiz-adv-x="604" 
d="M603 24v-24q-8 -4 -29 -7t-40 -3q-44 0 -80.5 18.5t-68.5 61.5l-93 122v-96h-55v104h-28v-200h-130v340q0 51 -14 75.5t-56 24.5h-10v30h120q36 0 55 -12t27 -39.5t8 -78.5v-95h28v110h55v-107l118 145q33 41 63.5 59t80.5 18h20v-26q-30 0 -54 -12t-46 -38l-97 -118
l133 -176q48 -65 93 -76z" />
    <glyph glyph-name="uni04A1" unicode="&#x4a1;" horiz-adv-x="614" 
d="M463.5 8.5q-36.5 18.5 -68.5 61.5l-96 126v-196h-130v425h-22q-47 0 -71 -25t-24 -80h-30v70q0 80 75 80h202v-225l121 148q34 41 64 59t80 18h20v-26q-30 0 -54 -12t-46 -38l-97 -118l133 -176q48 -65 93 -76v-24q-8 -4 -29 -7t-40 -3q-44 0 -80.5 18.5z" />
    <glyph glyph-name="uni04A3" unicode="&#x4a3;" horiz-adv-x="572" 
d="M500 -61.5q-14 34.5 -36.5 48t-56.5 13.5h-38v215h-160v-215h-130v340q0 51 -14 75.5t-56 24.5h-10v30h120q36 0 55 -12t27 -39.5t8 -78.5v-80h160v210h130v-425h30q15 0 25 -10t10 -25v-170h-45q-5 64 -19 98.5z" />
    <glyph glyph-name="uni0525" unicode="&#x525;" horiz-adv-x="567" 
d="M549 35q10 -10 10 -25v-170h-45q-5 64 -19 98.5t-36.5 48t-56.5 13.5h-38v425h-160v-425h-130v340q0 51 -14 75.5t-56 24.5h-5v30h495v-425h30q15 0 25 -10z" />
    <glyph glyph-name="uni04AB" unicode="&#x4ab;" 
d="M408.5 28q-35.5 -28 -95.5 -36v-152h-45q-3 71 -12.5 106.5t-25.5 46.5q-93 14 -143.5 81.5t-50.5 160.5q0 68 27.5 123.5t81.5 88.5t131 33q120 0 155 -35q17 -17 21 -45t4 -95h-30q-4 63 -39 96.5t-96 33.5q-55 0 -87.5 -50.5t-32.5 -149.5q0 -200 125 -200
q48 0 80.5 21.5t62.5 61.5l31 -23q-26 -39 -61.5 -67z" />
    <glyph glyph-name="uni04AF" unicode="&#x4af;" horiz-adv-x="500" 
d="M330 -1v-189h-130v191l-123 354q-26 56 -45 78.5t-44 24.5v20l37 2q67 0 112.5 -26t79.5 -99l91 -282l133 397h54z" />
    <glyph glyph-name="uni04B1" unicode="&#x4b1;" horiz-adv-x="500" 
d="M338 22h79v-45h-87v-167h-130v167h-82v45h75l-116 333q-26 56 -45 78.5t-44 24.5v20l37 2q67 0 112.5 -26t79.5 -99l91 -282l133 397h54z" />
    <glyph glyph-name="uni04B7" unicode="&#x4b7;" horiz-adv-x="567" 
d="M549 35q10 -10 10 -25v-170h-45q-5 64 -19 98.5t-36.5 48t-56.5 13.5h-38v178q-17 -7 -41 -12.5t-49 -5.5q-85 0 -137.5 36.5t-52.5 113.5v30q0 51 -14 75.5t-56 24.5h-10v30h120q36 0 55 -12t27 -39.5t8 -78.5v-30q0 -105 83 -105q22 0 36.5 3.5t30.5 12.5v249h130v-425
h30q15 0 25 -10z" />
    <glyph glyph-name="uni04B9" unicode="&#x4b9;" horiz-adv-x="554" 
d="M494 470v-470h-130v178q-24 -10 -50 -14v-119h-55v115q-79 3 -127 39.5t-48 110.5v30q0 51 -14 75.5t-56 24.5h-10v30h120q36 0 55 -12t27 -39.5t8 -78.5v-30q0 -77 45 -98v112h55v-118q25 1 50 15v249h130z" />
    <glyph glyph-name="uni04BB" unicode="&#x4bb;" horiz-adv-x="544" 
d="M60 530q0 51 -14 75.5t-56 24.5h-10v30h120q36 0 55 -12t27 -39.5t8 -78.5v-88q9 7 31 19q40 19 79 19q81 0 135.5 -41.5t54.5 -141.5v-297h-130v292q0 72 -25.5 105t-64.5 33q-27 0 -57 -18q-12 -7 -23 -17v-395h-130v530z" />
    <glyph glyph-name="uni04CF" unicode="&#x4cf;" horiz-adv-x="258" 
d="M64 530q0 51 -14 75.5t-56 24.5h-10v30h120q36 0 55 -12t27 -39.5t8 -78.5v-530h-130v530z" />
    <glyph glyph-name="uni04C2" unicode="&#x4c2;" horiz-adv-x="740" 
d="M30.5 -7q-21.5 3 -29.5 7v24q48 12 93 76l124 176l-88 118q-38 50 -100 50v26h20q51 0 82 -18t62 -59l111 -148v225h130v-225l111 148q31 41 62 59t82 18h20v-26q-62 0 -100 -50l-88 -118l124 -176q45 -64 93 -76v-24q-8 -4 -29 -7t-40 -3q-44 0 -79.5 20.5t-69.5 69.5
l-86 123v-203h-130v203l-86 -123q-34 -49 -69.5 -69.5t-79.5 -20.5q-18 0 -39.5 3zM285 525.5q-37 25.5 -56 68.5l28 21q17 -21 45.5 -35.5t67.5 -14.5t67.5 14.5t45.5 35.5l28 -21q-19 -43 -56 -68.5t-85 -25.5t-85 25.5z" />
    <glyph glyph-name="uni04CC" unicode="&#x4cc;" horiz-adv-x="554" 
d="M494 470v-470h-38q-34 0 -56.5 -13.5t-36.5 -48t-19 -98.5h-45v170q0 15 10 25t25 10h30v133q-17 -7 -41 -12.5t-49 -5.5q-85 0 -137.5 36.5t-52.5 113.5v30q0 51 -14 75.5t-56 24.5h-10v30h120q36 0 55 -12t27 -39.5t8 -78.5v-30q0 -105 83 -105q22 0 36.5 3.5
t30.5 12.5v249h130z" />
    <glyph glyph-name="uni04D1" unicode="&#x4d1;" 
d="M73.5 26.5q-44.5 36.5 -44.5 98.5q0 50 23.5 83t82.5 50t164 17h15q0 87 -24 123.5t-71 36.5q-39 0 -64 -19t-36 -71h-55q0 34 4.5 58t20.5 42q31 35 150 35q100 0 152.5 -52.5t52.5 -157.5v-270h-85l-35 45h-5q-9 -14 -28 -28q-34 -27 -92 -27q-81 0 -125.5 36.5z
M265 48.5q15 8.5 29 23.5q13 14 20 33v125h-15q-71 0 -103 -25.5t-32 -79.5q0 -41 17 -63t48 -22q21 0 36 8.5zM163 525.5q-37 25.5 -56 68.5l28 21q17 -21 45.5 -35.5t67.5 -14.5t67.5 14.5t45.5 35.5l28 -21q-19 -43 -56 -68.5t-85 -25.5t-85 25.5z" />
    <glyph glyph-name="uni04D3" unicode="&#x4d3;" 
d="M73.5 26.5q-44.5 36.5 -44.5 98.5q0 50 23.5 83t82.5 50t164 17h15q0 87 -24 123.5t-71 36.5q-39 0 -64 -19t-36 -71h-55q0 34 4.5 58t20.5 42q31 35 150 35q100 0 152.5 -52.5t52.5 -157.5v-270h-85l-35 45h-5q-9 -14 -28 -28q-34 -27 -92 -27q-81 0 -125.5 36.5z
M265 48.5q15 8.5 29 23.5q13 14 20 33v125h-15q-71 0 -103 -25.5t-32 -79.5q0 -41 17 -63t48 -22q21 0 36 8.5zM117 541q-15 16 -15 40t15 40t41 16t41 -16t15 -40t-15 -40t-41 -16t-41 16zM297 541q-15 16 -15 40t15 40t41 16t41 -16t15 -40t-15 -40t-41 -16t-41 16z" />
    <glyph glyph-name="uni04D7" unicode="&#x4d7;" horiz-adv-x="509" 
d="M146 22q-52 32 -80.5 87.5t-28.5 125.5q0 78 28.5 133t78.5 83.5t113 28.5q62 0 112 -25t79 -70.5t29 -104.5q0 -19 -2 -43l-2 -20h-301q0 -95 29 -138.5t81 -43.5q48 0 80.5 21.5t62.5 61.5l31 -23q-29 -45 -72.5 -75t-116.5 -30q-69 0 -121 32zM342 262q0 94 -22 133.5
t-63 39.5q-38 0 -61.5 -40.5t-23.5 -132.5h170zM170 525.5q-37 25.5 -56 68.5l28 21q17 -21 45.5 -35.5t67.5 -14.5t67.5 14.5t45.5 35.5l28 -21q-19 -43 -56 -68.5t-85 -25.5t-85 25.5z" />
    <glyph glyph-name="uni04D9" unicode="&#x4d9;" horiz-adv-x="509" 
d="M363 448q52 -32 80.5 -87.5t28.5 -125.5q0 -78 -28.5 -133t-78.5 -83.5t-113 -28.5q-62 0 -112 25t-79 70.5t-29 104.5q0 19 2 43l2 20h301q0 95 -29 138.5t-81 43.5q-48 0 -80.5 -21.5t-62.5 -61.5l-31 23q29 45 72.5 75t116.5 30q69 0 121 -32zM167 208
q0 -94 22 -133.5t63 -39.5q38 0 61.5 40.5t23.5 132.5h-170z" />
    <glyph glyph-name="uni04DD" unicode="&#x4dd;" horiz-adv-x="740" 
d="M30.5 -7q-21.5 3 -29.5 7v24q48 12 93 76l124 176l-88 118q-38 50 -100 50v26h20q51 0 82 -18t62 -59l111 -148v225h130v-225l111 148q31 41 62 59t82 18h20v-26q-62 0 -100 -50l-88 -118l124 -176q45 -64 93 -76v-24q-8 -4 -29 -7t-40 -3q-44 0 -79.5 20.5t-69.5 69.5
l-86 123v-203h-130v203l-86 -123q-34 -49 -69.5 -69.5t-79.5 -20.5q-18 0 -39.5 3zM239 541q-15 16 -15 40t15 40t41 16t41 -16t15 -40t-15 -40t-41 -16t-41 16zM419 541q-15 16 -15 40t15 40t41 16t41 -16t15 -40t-15 -40t-41 -16t-41 16z" />
    <glyph glyph-name="uni04DF" unicode="&#x4df;" horiz-adv-x="460" 
d="M30 70l30 25q48 -60 125 -60q48 0 76.5 22t28.5 68q0 49 -26.5 72t-93.5 23h-50v45h50q59 0 82 19.5t23 65.5q0 42 -26 63.5t-64 21.5q-45 0 -76 -30.5t-34 -79.5h-30q0 52 4 77.5t21 42.5q18 18 55 26.5t85 8.5q93 0 146.5 -32.5t53.5 -97.5q0 -44 -32.5 -73t-87.5 -37
q62 -8 98.5 -39t36.5 -76q0 -69 -55 -102t-155 -33q-123 0 -185 80zM79 541q-15 16 -15 40t15 40t41 16t41 -16t15 -40t-15 -40t-41 -16t-41 16zM259 541q-15 16 -15 40t15 40t41 16t41 -16t15 -40t-15 -40t-41 -16t-41 16z" />
    <glyph glyph-name="uni04E3" unicode="&#x4e3;" horiz-adv-x="569" 
d="M79 340q0 51 -14 75.5t-56 24.5h-10v30h120q36 0 55 -12t27 -39.5t8 -78.5v-215l180 345h120v-470h-130v345l-180 -345h-120v340zM145 547v85h279v-85h-279z" />
    <glyph glyph-name="uni04E5" unicode="&#x4e5;" horiz-adv-x="569" 
d="M79 340q0 51 -14 75.5t-56 24.5h-10v30h120q36 0 55 -12t27 -39.5t8 -78.5v-215l180 345h120v-470h-130v345l-180 -345h-120v340zM154 541q-15 16 -15 40t15 40t41 16t41 -16t15 -40t-15 -40t-41 -16t-41 16zM334 541q-15 16 -15 40t15 40t41 16t41 -16t15 -40t-15 -40
t-41 -16t-41 16z" />
    <glyph glyph-name="uni04E7" unicode="&#x4e7;" horiz-adv-x="552" 
d="M148.5 22.5q-54.5 32.5 -83.5 88t-29 124.5t29 124.5t83.5 88t127.5 32.5t127.5 -32.5t83.5 -88t29 -124.5t-29 -124.5t-83.5 -88t-127.5 -32.5t-127.5 32.5zM354 90q27 55 27 145t-27 145t-78 55t-78 -55t-27 -145t27 -145t78 -55t78 55zM145 541q-15 16 -15 40t15 40
t41 16t41 -16t15 -40t-15 -40t-41 -16t-41 16zM325 541q-15 16 -15 40t15 40t41 16t41 -16t15 -40t-15 -40t-41 -16t-41 16z" />
    <glyph glyph-name="uni04E9" unicode="&#x4e9;" horiz-adv-x="552" 
d="M403.5 447.5q54.5 -32.5 83.5 -88t29 -124.5t-29 -124.5t-83.5 -88t-127.5 -32.5t-127.5 32.5t-83.5 88t-29 124.5t29 124.5t83.5 88t127.5 32.5t127.5 -32.5zM202 387q-27 -48 -30 -127h208q-3 79 -30 127t-74 48t-74 -48zM351 84q27 49 30 131h-210q3 -82 30 -131
t75 -49t75 49z" />
    <glyph glyph-name="uni04EF" unicode="&#x4ef;" horiz-adv-x="509" 
d="M92 -165q55 0 89 21t55 76l21 54l-180 394q-33 72 -93 80v20h88q44 0 78 -21.5t52 -58.5l115 -252l122 322h53l-202 -535q-28 -78 -65 -106.5t-93 -28.5h-40v35zM135 547v85h279v-85h-279z" />
    <glyph glyph-name="uni04F1" unicode="&#x4f1;" horiz-adv-x="509" 
d="M92 -165q55 0 89 21t55 76l21 54l-180 394q-33 72 -93 80v20h88q44 0 78 -21.5t52 -58.5l115 -252l122 322h53l-202 -535q-28 -78 -65 -106.5t-93 -28.5h-40v35zM144 541q-15 16 -15 40t15 40t41 16t41 -16t15 -40t-15 -40t-41 -16t-41 16zM324 541q-15 16 -15 40t15 40
t41 16t41 -16t15 -40t-15 -40t-41 -16t-41 16z" />
    <glyph glyph-name="uni04F3" unicode="&#x4f3;" horiz-adv-x="509" 
d="M92 -165q55 0 89 21t55 76l21 54l-180 394q-33 72 -93 80v20h88q44 0 78 -21.5t52 -58.5l115 -252l122 322h53l-202 -535q-28 -78 -65 -106.5t-93 -28.5h-40v35zM197 515l42 140h79l-86 -140h-35zM307 515l42 140h79l-86 -140h-35z" />
    <glyph glyph-name="uni04F5" unicode="&#x4f5;" horiz-adv-x="554" 
d="M364 178q-17 -7 -41 -12.5t-49 -5.5q-85 0 -137.5 36.5t-52.5 113.5v30q0 51 -14 75.5t-56 24.5h-10v30h120q36 0 55 -12t27 -39.5t8 -78.5v-30q0 -105 83 -105q22 0 36.5 3.5t30.5 12.5v249h130v-470h-130v178zM146 541q-15 16 -15 40t15 40t41 16t41 -16t15 -40
t-15 -40t-41 -16t-41 16zM326 541q-15 16 -15 40t15 40t41 16t41 -16t15 -40t-15 -40t-41 -16t-41 16z" />
    <glyph glyph-name="uni04F7" unicode="&#x4f7;" horiz-adv-x="440" 
d="M419 390v-70h-30q0 55 -24 80t-71 25h-90v-380h30q15 0 25 -10t10 -25v-170h-45q-5 64 -19 98.5t-36.5 48t-56.5 13.5h-38v340q0 51 -14 75.5t-56 24.5h-5v30h345q75 0 75 -80z" />
    <glyph glyph-name="uni04F9" unicode="&#x4f9;" horiz-adv-x="738" 
d="M79 340q0 51 -14 75.5t-56 24.5h-10v30h120q36 0 55 -12t27 -39.5t8 -78.5v-60h65q95 0 150 -36.5t55 -103.5t-55 -103.5t-150 -36.5h-195v340zM564 11.5q-19 11.5 -27 39t-8 79.5v340h130v-340q0 -51 14 -75.5t56 -24.5h10v-30h-120q-36 0 -55 11.5zM318 63.5
q26 23.5 26 76.5t-26 76.5t-64 23.5q-24 0 -45 -7v-186q21 -7 45 -7q38 0 64 23.5zM238 541q-15 16 -15 40t15 40t41 16t41 -16t15 -40t-15 -40t-41 -16t-41 16zM418 541q-15 16 -15 40t15 40t41 16t41 -16t15 -40t-15 -40t-41 -16t-41 16z" />
    <glyph glyph-name="uni051B" unicode="&#x51b;" horiz-adv-x="547" 
d="M357 20q-12 -9 -28 -15q-36 -15 -77 -15q-104 0 -159.5 68.5t-55.5 176.5t54.5 176.5t155.5 68.5q52 0 87 -28q19 -13 28 -27h5l35 45h85v-660h-130v210zM333 50q14 6 24 15v305q-13 22 -23 32q-31 33 -67 33q-50 0 -72.5 -53.5t-22.5 -146.5q0 -200 100 -200q33 0 61 15
z" />
    <glyph glyph-name="uni051D" unicode="&#x51d;" horiz-adv-x="775" 
d="M79 355q-24 56 -45 79t-48 25v19l48 2q66 0 107.5 -27t74.5 -98l85 -191l67 160l-14 31q-24 54 -45 78t-43 26v19l38 2q68 0 114 -27.5t78 -97.5l92 -201l122 316h53l-184 -480h-46l-130 281l-116 -281h-45z" />
    <glyph glyph-name="uni04A4" unicode="&#x4a4;" horiz-adv-x="944" 
d="M929 580v-85h-30q0 63 -31.5 91.5t-93.5 28.5h-149v-485q0 -51 14 -75.5t56 -24.5h10v-30h-120q-36 0 -55 11.5t-27 39t-8 79.5v190h-270v-320h-130v530q0 51 -14 75.5t-56 24.5h-10v30h120q36 0 55 -12t27 -39.5t8 -78.5v-165h270v165q0 51 -14 75.5t-56 24.5h-10v30
h429q85 0 85 -80z" />
    <glyph glyph-name="uni04A5" unicode="&#x4a5;" horiz-adv-x="735" 
d="M714 390v-70h-30q0 55 -24 80t-71 25h-90v-295q0 -51 14 -75.5t56 -24.5h10v-30h-120q-36 0 -55 11.5t-27 39t-8 79.5v85h-160v-215h-130v340q0 51 -14 75.5t-56 24.5h-10v30h120q36 0 55 -12t27 -39.5t8 -78.5v-80h160v80q0 51 -14 75.5t-56 24.5h-5v30h345q75 0 75 -80
z" />
    <glyph glyph-name="uni04D4" unicode="&#x4d4;" horiz-adv-x="868" 
d="M348 660h376q85 0 85 -80v-85h-30q0 62 -31.5 91t-93.5 29h-161v-250h260v-45h-260v-275h171q57 0 95 25.5t63 88.5l27 -10l-29 -79q-13 -36 -31 -53t-56 -17h-370v190h-218l-107 -190h-60zM170 235h193v344z" />
    <glyph glyph-name="uni04D5" unicode="&#x4d5;" horiz-adv-x="795" 
d="M74.5 26q-46.5 36 -46.5 94q0 69 61 105.5t214 36.5h15q0 89 -25 131t-75 42q-39 0 -64 -19t-36 -71h-55q0 34 4.5 58t20.5 42t53.5 26.5t76.5 8.5q62 0 106.5 -24t68.5 -67q29 45 70 68t90 23q58 0 106 -25t76 -70.5t28 -104.5q0 -19 -2 -43l-2 -20h-301v-10
q1 -89 30 -130.5t80 -41.5q48 0 80.5 21.5t62.5 61.5l31 -23q-29 -45 -72.5 -75t-116.5 -30q-110 0 -170 90q-20 -38 -65 -64t-110 -26q-87 0 -133.5 36zM628 262q0 88 -23 130.5t-62 42.5q-37 0 -61 -43t-24 -130h170zM297 72q12 14 21 33v112h-15q-82 0 -111 -24t-29 -73
q0 -35 18 -57.5t47 -22.5q39 0 69 32z" />
    <glyph glyph-name="zero" unicode="0" horiz-adv-x="606" 
d="M43 330q0 350 260 350t260 -350t-260 -350t-260 350zM394.5 98q28.5 73 28.5 232t-28.5 232t-91.5 73t-91.5 -73t-28.5 -232t28.5 -232t91.5 -73t91.5 73z" />
    <glyph glyph-name="one" unicode="1" horiz-adv-x="323" 
d="M119 0v542l-87 -56l-24 31l154 143h87v-660h-130z" />
    <glyph glyph-name="two" unicode="2" horiz-adv-x="539" 
d="M41 65q28 28 46 44q73 68 127 126t95 125.5t41 126.5q0 73 -32 110.5t-78 37.5q-65 0 -107 -43t-57 -132h-35q0 53 4 86t20 54q28 34 81 57t114 23q91 0 160.5 -42t69.5 -151q0 -68 -47.5 -139t-108 -127.5t-141.5 -120.5q-48 -38 -65 -55h207q60 0 92.5 28.5t32.5 81.5
h30v-75q0 -80 -85 -80h-364v65z" />
    <glyph glyph-name="three" unicode="3" horiz-adv-x="543" 
d="M129.5 7q-56.5 27 -102.5 81l28 29q41 -46 87.5 -69t90.5 -23q62 0 100.5 39.5t38.5 120.5q0 77 -36 116t-92 39q-37 0 -75 -10l-30 -9l-24 38l273 256h-179q-60 0 -92.5 -28.5t-32.5 -81.5h-30v75q0 80 85 80h338v-45l-249 -234q7 1 25.5 2.5t38.5 1.5q51 0 101.5 -20.5
t84.5 -65.5t34 -114q0 -77 -40 -123t-93.5 -64t-101.5 -18q-91 0 -147.5 27z" />
    <glyph glyph-name="four" unicode="4" horiz-adv-x="572" 
d="M329 0v170h-320v40l346 450h104v-445h90v-45h-90v-170h-130zM78 215h251v328z" />
    <glyph glyph-name="five" unicode="5" horiz-adv-x="546" 
d="M134.5 7q-52.5 27 -97.5 81l29 26q36 -45 83 -67t93 -22q62 0 100 40.5t38 124.5q0 77 -41 115.5t-117 38.5q-42 0 -83 -12q-14 -3 -42 -11l-40 39l11 300h389v-44h-273l-9 -231l30 2q51 3 57 3q61 0 119.5 -18.5t98.5 -63.5t40 -118q0 -78 -41 -125t-99.5 -66
t-114.5 -19q-78 0 -130.5 27z" />
    <glyph glyph-name="six" unicode="6" horiz-adv-x="560" 
d="M44 330q0 179 70 264.5t210 85.5q52 0 114 -17q25 -7 46 -17l-6 -28l-46 8q-61 9 -88 9q-77 0 -121 -62.5t-44 -187.5q16 13 38 24q48 24 102 24q112 0 161 -59.5t49 -168.5q0 -60 -27 -111.5t-80.5 -82.5t-127.5 -31q-250 0 -250 350zM367.5 76.5q26.5 51.5 26.5 128.5
q0 92 -24.5 137.5t-80.5 45.5q-27 0 -52 -11t-41.5 -24t-16.5 -16q0 -161 30 -236.5t85 -75.5q47 0 73.5 51.5z" />
    <glyph glyph-name="seven" unicode="7" horiz-adv-x="473" 
d="M346 615h-170q-60 0 -92.5 -28.5t-32.5 -81.5h-30v75q0 80 85 80h361v-45l-250 -615h-121z" />
    <glyph glyph-name="eight" unicode="8" horiz-adv-x="578" 
d="M109 22.5q-70 42.5 -70 129.5q0 65 45 107.5t122 75.5q-70 39 -106 76.5t-36 96.5q0 92 61.5 132t163.5 40t163.5 -38t61.5 -124q0 -54 -36.5 -94t-98.5 -66q76 -41 118 -85t42 -111q0 -94 -68.5 -138t-181.5 -44q-110 0 -180 42.5zM366.5 435q12.5 30 12.5 83
q0 62 -27.5 89.5t-62.5 27.5t-62.5 -25.5t-27.5 -81.5q0 -44 35.5 -81t92.5 -63q27 21 39.5 51zM372.5 55.5q31.5 30.5 31.5 86.5t-37.5 94t-107.5 75q-42 -22 -63.5 -58.5t-21.5 -100.5t31 -95.5t84 -31.5q52 0 83.5 30.5z" />
    <glyph glyph-name="nine" unicode="9" horiz-adv-x="560" 
d="M122 -3q-32 9 -46 17l6 28l46 -9q54 -8 88 -8q77 0 121 62.5t44 187.5q-16 -13 -38 -24q-48 -24 -102 -24q-112 0 -161 59.5t-49 168.5q0 60 27 111.5t80.5 82.5t127.5 31q250 0 250 -350q0 -180 -69.5 -265t-210.5 -85q-59 0 -114 17zM322 283q25 11 42 24t17 16
q0 161 -30 236.5t-85 75.5q-47 0 -73.5 -51.5t-26.5 -128.5q0 -92 24.5 -137.5t80.5 -45.5q26 0 51 11z" />
    <glyph glyph-name="uni00B9" unicode="&#xb9;" horiz-adv-x="214" 
d="M80 377v237l-34 -20l-16 22l68 64h54v-303h-72z" />
    <glyph glyph-name="uni00B2" unicode="&#xb2;" horiz-adv-x="318" 
d="M53 400l34 35q43 44 63 67t31 47t11 53q0 33 -11.5 46.5t-33.5 13.5q-59 0 -73 -79h-16q0 25 2 42.5t9 27.5q13 16 37.5 26t53.5 10q43 0 73.5 -20t30.5 -67q0 -41 -23 -70.5t-76 -76.5q-10 -9 -23.5 -21.5t-31.5 -29.5h81q29 0 43 10.5t14 33.5h15v-35q0 -36 -39 -36
h-171v23z" />
    <glyph glyph-name="uni00B3" unicode="&#xb3;" horiz-adv-x="304" 
d="M88.5 380q-25.5 13 -45.5 38l14 12q33 -36 83 -36q23 0 38.5 17t15.5 51q0 33 -17 47.5t-43 14.5q-20 0 -43 -6l-16 28l118 107h-78q-50 0 -50 -43h-13v33q0 37 39 37h153v-18l-128 -115q16 4 39 4q44 0 77.5 -22.5t33.5 -66.5q0 -51 -36 -73t-76 -22t-65.5 13z" />
    <glyph glyph-name="uni2074" unicode="&#x2074;" horiz-adv-x="331" 
d="M175 356v73h-145v24l150 207h67v-204h34v-27h-34v-73h-72zM69 456h106v146z" />
    <glyph glyph-name="fraction" unicode="&#x2044;" horiz-adv-x="450" 
d="M-50 0l455 660h95l-455 -660h-95z" />
    <glyph glyph-name="onehalf" unicode="&#xbd;" horiz-adv-x="632" 
d="M113 377v237l-34 -20l-16 22l68 64h54v-303h-72zM26 0l455 660h95l-455 -660h-95zM372 23l34 35q43 44 63 67t31 47t11 53q0 33 -11.5 46.5t-33.5 13.5q-59 0 -73 -79h-16q0 25 2 42.5t9 27.5q13 16 37.5 26t53.5 10q43 0 73.5 -20t30.5 -67q0 -41 -23 -70.5t-76 -76.5
q-10 -9 -23.5 -21.5t-31.5 -29.5h81q29 0 43 10.5t14 33.5h15v-35q0 -36 -39 -36h-171v23z" />
    <glyph glyph-name="onequarter" unicode="&#xbc;" horiz-adv-x="617" 
d="M113 377v237l-34 -20l-16 22l68 64h54v-303h-72zM26 0l455 660h95l-455 -660h-95zM467 0v73h-145v24l150 207h67v-204h34v-27h-34v-73h-72zM361 100h106v146z" />
    <glyph glyph-name="threequarters" unicode="&#xbe;" horiz-adv-x="626" 
d="M82.5 380q-25.5 13 -45.5 38l14 12q33 -36 83 -36q23 0 38.5 17t15.5 51q0 33 -17 47.5t-43 14.5q-20 0 -43 -6l-16 28l118 107h-78q-50 0 -50 -43h-13v33q0 37 39 37h153v-18l-128 -115q16 4 39 4q44 0 77.5 -22.5t33.5 -66.5q0 -51 -36 -73t-76 -22t-65.5 13zM45 0
l455 660h95l-455 -660h-95zM476 0v73h-145v24l150 207h67v-204h34v-27h-34v-73h-72zM370 100h106v146z" />
    <glyph glyph-name="asterisk" unicode="*" horiz-adv-x="434" 
d="M161 324l24 121l-98 -89l-49 86l144 50l-144 50l49 86l98 -89l-24 121h112l-24 -121l98 89l49 -86l-144 -50l144 -50l-49 -86l-99 90l25 -122h-112z" />
    <glyph glyph-name="backslash" unicode="\" horiz-adv-x="475" 
d="M342 0l-321 660h112l321 -660h-112z" />
    <glyph glyph-name="periodcentered" unicode="&#xb7;" horiz-adv-x="226" 
d="M68 286.5q-16 16.5 -16 44.5t16 44.5t45 16.5t45 -16.5t16 -44.5t-16 -44.5t-45 -16.5t-45 16.5z" />
    <glyph glyph-name="bullet" unicode="&#x2022;" horiz-adv-x="350" 
d="M78 241.5q-38 34.5 -38 88.5t38 88.5t97 34.5t97 -34.5t38 -88.5t-38 -88.5t-97 -34.5t-97 34.5z" />
    <glyph glyph-name="colon" unicode=":" horiz-adv-x="238" 
d="M74 355.5q-16 16.5 -16 44.5t16 44.5t45 16.5t45 -16.5t16 -44.5t-16 -44.5t-45 -16.5t-45 16.5zM74 2.5q-16 16.5 -16 44.5t16 44.5t45 16.5t45 -16.5t16 -44.5t-16 -44.5t-45 -16.5t-45 16.5z" />
    <glyph glyph-name="comma" unicode="," horiz-adv-x="228" 
d="M45 -136q33 22 57.5 53.5t24.5 71.5l-15 -3q-29 0 -45 16.5t-16 44.5t16 44.5t45 16.5q31 0 48.5 -23t17.5 -55q0 -59 -26.5 -104t-88.5 -86z" />
    <glyph glyph-name="ellipsis" unicode="&#x2026;" horiz-adv-x="644" 
d="M67 2.5q-16 16.5 -16 44.5t16 44.5t45 16.5t45 -16.5t16 -44.5t-16 -44.5t-45 -16.5t-45 16.5zM277 2.5q-16 16.5 -16 44.5t16 44.5t45 16.5t45 -16.5t16 -44.5t-16 -44.5t-45 -16.5t-45 16.5zM487 2.5q-16 16.5 -16 44.5t16 44.5t45 16.5t45 -16.5t16 -44.5t-16 -44.5
t-45 -16.5t-45 16.5z" />
    <glyph glyph-name="exclam" unicode="!" horiz-adv-x="245" 
d="M75 155l-19 505h133l-20 -505h-94zM77 2.5q-16 16.5 -16 44.5t16 44.5t45 16.5t45 -16.5t16 -44.5t-16 -44.5t-45 -16.5t-45 16.5z" />
    <glyph glyph-name="exclamdown" unicode="&#xa1;" horiz-adv-x="239" 
d="M74 374.5q-16 16.5 -16 44.5t16 44.5t45 16.5t45 -16.5t16 -44.5t-16 -44.5t-45 -16.5t-45 16.5zM53 -194l19 505h94l20 -505h-133z" />
    <glyph glyph-name="numbersign" unicode="#" horiz-adv-x="699" 
d="M116 0l36 172h-123v65h136l37 176h-113v65h127l41 197h99l-41 -197h127l41 197h99l-41 -197h128v-65h-142l-36 -176h118v-65h-132l-36 -172h-99l36 172h-127l-36 -172h-99zM265 237h126l37 176h-127z" />
    <glyph glyph-name="period" unicode="." horiz-adv-x="224" 
d="M67 2.5q-16 16.5 -16 44.5t16 44.5t45 16.5t45 -16.5t16 -44.5t-16 -44.5t-45 -16.5t-45 16.5z" />
    <glyph glyph-name="question" unicode="?" horiz-adv-x="498" 
d="M220.5 238.5q15.5 34.5 45.5 79.5q32 46 47.5 82t15.5 87q0 80 -27.5 114t-76.5 34q-62 0 -105 -45.5t-61 -142.5h-30q0 61 4 95t22 57q29 33 84.5 57t115.5 24q94 0 154 -51.5t60 -141.5q0 -41 -14.5 -73.5t-34.5 -55t-55 -54.5q-45 -41 -68 -72t-27 -76h-68
q3 48 18.5 82.5zM191 2.5q-16 16.5 -16 44.5t16 44.5t45 16.5t45 -16.5t16 -44.5t-16 -44.5t-45 -16.5t-45 16.5z" />
    <glyph glyph-name="questiondown" unicode="&#xbf;" horiz-adv-x="492" 
d="M214 376.5q-16 16.5 -16 44.5t16 44.5t45 16.5t45 -16.5t16 -44.5t-16 -44.5t-45 -16.5t-45 16.5zM86 -160.5q-60 51.5 -60 141.5q0 41 14.5 73.5t35 55.5t54.5 54q45 41 68 72t27 76h68q-3 -48 -18.5 -82.5t-45.5 -79.5q-32 -46 -47.5 -82t-15.5 -87q0 -80 27.5 -114
t76.5 -34q61 0 105 46t61 142h30q0 -61 -4 -95t-22 -57q-29 -34 -84.5 -57.5t-115.5 -23.5q-94 0 -154 51.5z" />
    <glyph glyph-name="quotedbl" unicode="&#x22;" horiz-adv-x="390" 
d="M75 390l-30 270h130l-30 -270h-70zM245 390l-30 270h130l-30 -270h-70z" />
    <glyph glyph-name="quotesingle" unicode="'" horiz-adv-x="220" 
d="M75 390l-30 270h130l-30 -270h-70z" />
    <glyph glyph-name="semicolon" unicode=";" horiz-adv-x="249" 
d="M79 355.5q-16 16.5 -16 44.5t16 44.5t45 16.5t45 -16.5t16 -44.5t-16 -44.5t-45 -16.5t-45 16.5zM57 -136q33 22 57.5 53.5t24.5 71.5l-15 -3q-29 0 -45 16.5t-16 44.5t16 44.5t45 16.5q31 0 48.5 -23t17.5 -55q0 -59 -26.5 -104t-88.5 -86z" />
    <glyph glyph-name="slash" unicode="/" horiz-adv-x="475" 
d="M21 0l321 660h112l-321 -660h-112z" />
    <glyph glyph-name="underscore" unicode="_" horiz-adv-x="436" 
d="M8 -70v70h420v-70h-420z" />
    <glyph glyph-name="braceleft" unicode="{" horiz-adv-x="312" 
d="M148.5 -153.5q-45.5 49.5 -45.5 123.5v140q0 45 -23.5 75.5t-76.5 38.5v32q53 8 76.5 38.5t23.5 75.5v140q0 74 45.5 123.5t144.5 57.5v-35q-33 -6 -46.5 -31.5t-13.5 -72.5v-172q0 -57 -28.5 -90t-91.5 -50q63 -17 91.5 -50t28.5 -90v-172q0 -47 13.5 -72.5t46.5 -31.5
v-35q-99 8 -144.5 57.5z" />
    <glyph glyph-name="braceright" unicode="}" horiz-adv-x="312" 
d="M19 -176q33 6 46.5 31.5t13.5 72.5v172q0 57 28.5 90t91.5 50q-63 17 -91.5 50t-28.5 90v172q0 47 -13.5 72.5t-46.5 31.5v35q99 -8 144.5 -57.5t45.5 -123.5v-140q0 -45 23.5 -75.5t76.5 -38.5v-32q-53 -8 -76.5 -38.5t-23.5 -75.5v-140q0 -74 -45.5 -123.5
t-144.5 -57.5v35z" />
    <glyph glyph-name="bracketleft" unicode="[" horiz-adv-x="331" 
d="M66 -200v880h245v-45h-125v-790h125v-45h-245z" />
    <glyph glyph-name="bracketright" unicode="]" horiz-adv-x="331" 
d="M20 -200v45h125v790h-125v45h245v-880h-245z" />
    <glyph glyph-name="parenleft" unicode="(" horiz-adv-x="320" 
d="M92.5 -14.5q-68.5 113.5 -68.5 254.5t68.5 254.5t204.5 205.5l14 -20q-84 -74 -120.5 -185.5t-36.5 -254.5t36.5 -254.5t120.5 -185.5l-14 -20q-136 92 -204.5 205.5z" />
    <glyph glyph-name="parenright" unicode=")" horiz-adv-x="321" 
d="M10 -200q84 74 120.5 185.5t36.5 254.5t-36.5 254.5t-120.5 185.5l14 20q136 -92 204.5 -205.5t68.5 -254.5t-68.5 -254.5t-204.5 -205.5z" />
    <glyph glyph-name="emdash" unicode="&#x2014;" horiz-adv-x="892" 
d="M64 227v65h764v-65h-764z" />
    <glyph glyph-name="endash" unicode="&#x2013;" horiz-adv-x="622" 
d="M64 227v65h494v-65h-494z" />
    <glyph glyph-name="hyphen" unicode="-" horiz-adv-x="395" 
d="M58 217v95h279v-95h-279z" />
    <glyph glyph-name="uni00AD" unicode="&#xad;" horiz-adv-x="395" 
d="M58 217v95h279v-95h-279z" />
    <glyph glyph-name="guillemotleft" unicode="&#xab;" horiz-adv-x="425" 
d="M189 30l-158 195l158 195h64l-97 -194l97 -196h-64zM308 80l-102 145l102 145h64l-62 -145l62 -145h-64z" />
    <glyph glyph-name="guillemotright" unicode="&#xbb;" horiz-adv-x="425" 
d="M172 30l97 196l-97 194h64l158 -195l-158 -195h-64zM53 80l62 145l-62 145h64l102 -145l-102 -145h-64z" />
    <glyph glyph-name="guilsinglleft" unicode="&#x2039;" horiz-adv-x="294" 
d="M189 30l-158 195l158 195h64l-97 -194l97 -196h-64z" />
    <glyph glyph-name="guilsinglright" unicode="&#x203a;" horiz-adv-x="294" 
d="M41 30l97 196l-97 194h64l158 -195l-158 -195h-64z" />
    <glyph glyph-name="quotedblbase" unicode="&#x201e;" horiz-adv-x="410" 
d="M45 -136q33 22 57.5 53.5t24.5 71.5l-15 -3q-29 0 -45 16.5t-16 44.5t16 44.5t45 16.5q31 0 48.5 -23t17.5 -55q0 -59 -26.5 -104t-88.5 -86zM227 -136q33 22 57.5 53.5t24.5 71.5l-15 -3q-29 0 -45 16.5t-16 44.5t16 44.5t45 16.5q31 0 48.5 -23t17.5 -55
q0 -59 -26.5 -104t-88.5 -86z" />
    <glyph glyph-name="quotedblleft" unicode="&#x201c;" horiz-adv-x="398" 
d="M60.5 443q-17.5 23 -17.5 55q0 59 26.5 104t88.5 86l18 -24q-33 -22 -57.5 -53.5t-24.5 -71.5l15 3q29 0 45 -16.5t16 -44.5t-16 -44.5t-45 -16.5q-31 0 -48.5 23zM242.5 443q-17.5 23 -17.5 55q0 59 26.5 104t88.5 86l18 -24q-33 -22 -57.5 -53.5t-24.5 -71.5l15 3
q29 0 45 -16.5t16 -44.5t-16 -44.5t-45 -16.5q-31 0 -48.5 23z" />
    <glyph glyph-name="quotedblright" unicode="&#x201d;" horiz-adv-x="400" 
d="M48 436q33 22 57.5 53.5t24.5 71.5l-15 -3q-29 0 -45 16.5t-16 44.5t16 44.5t45 16.5q31 0 48.5 -23t17.5 -55q0 -59 -26.5 -104t-88.5 -86zM230 436q33 22 57.5 53.5t24.5 71.5l-15 -3q-29 0 -45 16.5t-16 44.5t16 44.5t45 16.5q31 0 48.5 -23t17.5 -55
q0 -59 -26.5 -104t-88.5 -86z" />
    <glyph glyph-name="quoteleft" unicode="&#x2018;" horiz-adv-x="216" 
d="M60.5 443q-17.5 23 -17.5 55q0 59 26.5 104t88.5 86l18 -24q-33 -22 -57.5 -53.5t-24.5 -71.5l15 3q29 0 45 -16.5t16 -44.5t-16 -44.5t-45 -16.5q-31 0 -48.5 23z" />
    <glyph glyph-name="quoteright" unicode="&#x2019;" horiz-adv-x="218" 
d="M48 436q33 22 57.5 53.5t24.5 71.5l-15 -3q-29 0 -45 16.5t-16 44.5t16 44.5t45 16.5q31 0 48.5 -23t17.5 -55q0 -59 -26.5 -104t-88.5 -86z" />
    <glyph glyph-name="quotesinglbase" unicode="&#x201a;" horiz-adv-x="228" 
d="M45 -136q33 22 57.5 53.5t24.5 71.5l-15 -3q-29 0 -45 16.5t-16 44.5t16 44.5t45 16.5q31 0 48.5 -23t17.5 -55q0 -59 -26.5 -104t-88.5 -86z" />
    <glyph glyph-name="uni00A0" unicode="&#xa0;" horiz-adv-x="250" 
 />
    <glyph glyph-name="cent" unicode="&#xa2;" 
d="M241 -8q-68 5 -115 39t-71 87t-24 117q0 98 54.5 166t155.5 77v42h60v-41q93 -5 125 -34q17 -17 21 -45t4 -95h-30q-4 59 -34.5 91.5t-85.5 37.5v-399q44 2 73.5 23t59.5 60l31 -23q-28 -41 -65 -69.5t-99 -33.5v-42h-60v42zM241 424q-36 -18 -55.5 -65.5t-19.5 -123.5
q0 -155 75 -190v379z" />
    <glyph glyph-name="currency" unicode="&#xa4;" horiz-adv-x="605" 
d="M116 190h-50v45h50v50h-50v45h50v205q0 47 -14 71t-56 24h-10v30h275q116 0 190.5 -45.5t74.5 -134.5q0 -97 -75 -146t-195 -49h-60v-50h250v-45h-250v-190h-130v190zM306 330q56 0 93 35t37 115q0 47 -19 78.5t-47.5 46.5t-58.5 15q-45 0 -65 -5v-285h60z" />
    <glyph glyph-name="dollar" unicode="$" horiz-adv-x="550" 
d="M235 -15q-81 6 -137 37.5t-56 80.5v117h28q15 -92 55 -137.5t110 -53.5v258l-68 41q-67 39 -95.5 81t-28.5 98q0 72 51 117t141 53v58h70v-59q76 -6 132 -38.5t56 -79.5v-117h-28q-15 93 -54 138t-106 52v-241l83 -49q70 -41 100.5 -79.5t30.5 -92.5q0 -79 -56 -128
t-158 -57v-64h-70v65zM235 628q-36 -10 -55 -33.5t-19 -58.5q0 -34 17.5 -56t56.5 -48v196zM369.5 63.5q23.5 23.5 23.5 61.5q0 37 -21.5 64.5t-66.5 55.5v-214q41 9 64.5 32.5z" />
    <glyph glyph-name="Euro" unicode="&#x20ac;" horiz-adv-x="741" 
d="M196.5 54q-84.5 74 -105.5 196h-65l12 45h48v25q0 23 1 35h-46l12 45h40q16 81 62 144.5t113.5 99.5t147.5 36q88 0 147 -22.5t90 -58.5q18 -23 22 -57t4 -95h-30q-19 92 -70 140t-133 48q-191 0 -216 -235h195l-12 -45h-187v-60h184l-12 -45h-168q13 -100 67 -162.5
t149 -62.5q70 0 128.5 37t94.5 106l35 -27q-48 -84 -116 -122.5t-172 -38.5q-135 0 -219.5 74z" />
    <glyph glyph-name="florin" unicode="&#x192;" horiz-adv-x="417" 
d="M-92 -165q48 9 76 50.5t45 139.5l70 400h-60l8 45h60l5 27q15 85 71.5 129t154.5 44q27 0 51.5 -4.5t36.5 -12.5q24 -16 31 -43l-46 -35q-12 24 -31 37t-45 13q-35 0 -58 -29t-35 -99l-5 -27h130l-8 -45h-130l-70 -400q-15 -84 -43 -130t-78 -65.5t-134 -19.5z" />
    <glyph glyph-name="uni20B4" unicode="&#x20b4;" horiz-adv-x="533" 
d="M496 220v-115q0 -33 -29.5 -61t-79 -44.5t-107.5 -16.5q-233 0 -233 129q0 39 19 72t58 69h-63v45h117q22 18 52 40h-169v45h226q44 38 61.5 72.5t17.5 75.5q0 48 -24.5 74.5t-72.5 26.5q-129 0 -160 -191h-28v100q0 39 25.5 70t70.5 49t99 18q58 0 105 -20t73.5 -55.5
t26.5 -78.5q0 -41 -15 -72.5t-52 -68.5h57v-45h-107l-43 -36l-6 -4h156v-45h-221q-44 -34 -61 -64.5t-17 -70.5q0 -90 122 -90q72 0 114 44.5t60 147.5h28z" />
    <glyph glyph-name="uni20BD" unicode="&#x20bd;" horiz-adv-x="577" 
d="M225 267v-54h100v-45h-100v-168h-130v168h-69v45h69v54h-69v40h69v223q0 51 -14 75.5t-56 24.5h-10v30h275q103 0 186.5 -40.5t83.5 -160.5q0 -78 -43.5 -121t-97.5 -57t-99 -14h-95zM225 307h60q59 0 97 36t38 121q0 84 -37.5 120t-92.5 36q-29 0 -45 -4l-20 -3v-306z
" />
    <glyph glyph-name="sterling" unicode="&#xa3;" horiz-adv-x="535" 
d="M36 30q26 8 40 27.5t19.5 57.5t5.5 105v100h-60v45h60v95q0 115 61 162.5t144 47.5q49 0 90.5 -8.5t59.5 -26.5q17 -17 21 -40.5t4 -59.5h-55q-11 47 -36 68.5t-64 21.5q-95 0 -95 -165v-95h130v-45h-130v-100q0 -117 -70 -175h190q59 0 87 29.5t28 90.5h30v-85
q0 -80 -85 -80h-375v30z" />
    <glyph glyph-name="uni20B8" unicode="&#x20b8;" horiz-adv-x="578" 
d="M16 615v45h558v-45h-558zM232 525h-71q-56 0 -85.5 -28t-29.5 -92h-30v85q0 80 85 80h470v-45h-209v-525h-130v525z" />
    <glyph glyph-name="uni20AE" unicode="&#x20ae;" horiz-adv-x="575" 
d="M362 615v-208l116 23v-40l-116 -23v-60l116 23v-40l-116 -23v-267h-130v242l-114 -22v40l114 22v60l-114 -22v40l114 22v233h-71q-56 0 -85.5 -28t-29.5 -92h-30v85q0 80 85 80h470v-45h-209z" />
    <glyph glyph-name="yen" unicode="&#xa5;" horiz-adv-x="711" 
d="M331 135h-84v45h84v40h-84v45h83l-176 265q-30 43 -65.5 75t-67.5 35v20h109q51 0 92.5 -32t70.5 -78l136 -205l194 315h65l-227 -369v-26h86v-45h-86v-40h86v-45h-86v-135h-130v135z" />
    <glyph glyph-name="uni2215" unicode="&#x2215;" horiz-adv-x="475" 
d="M21 0l321 660h112l-321 -660h-112z" />
    <glyph glyph-name="plus" unicode="+" horiz-adv-x="546" 
d="M228 100v195h-197v70h197v195h90v-195h197v-70h-197v-195h-90z" />
    <glyph glyph-name="multiply" unicode="&#xd7;" horiz-adv-x="489" 
d="M105 132l-63 63l139 139l-138 138l64 64l138 -138l139 139l64 -63l-140 -140l138 -138l-64 -63l-137 138z" />
    <glyph glyph-name="divide" unicode="&#xf7;" horiz-adv-x="548" 
d="M233 441q-15 16 -15 40t15 40t41 16t41 -16t15 -40t-15 -40t-41 -16t-41 16zM44 297v65h460v-65h-460zM233 139q-15 16 -15 40t15 40t41 16t41 -16t15 -40t-15 -40t-41 -16t-41 16z" />
    <glyph glyph-name="equal" unicode="=" horiz-adv-x="665" 
d="M58 385v70h549v-70h-549zM58 205v70h549v-70h-549z" />
    <glyph glyph-name="greater" unicode="&#x3e;" horiz-adv-x="610" 
d="M61 74v91l392 170l-392 170v91l520 -226v-70z" />
    <glyph glyph-name="less" unicode="&#x3c;" horiz-adv-x="610" 
d="M549 74l-520 226v70l520 226v-91l-392 -170l392 -170v-91z" />
    <glyph glyph-name="plusminus" unicode="&#xb1;" horiz-adv-x="582" 
d="M49 55v70h197v170h-197v70h197v195h90v-195h197v-70h-197v-170h197v-70h-484z" />
    <glyph glyph-name="asciitilde" unicode="~" horiz-adv-x="611" 
d="M367 178q-34 11 -82 32q-44 20 -68.5 28.5t-45.5 8.5q-41 0 -60.5 -15t-19.5 -45h-40q0 79 29 117.5t91 38.5q40 0 74 -11t82 -32q44 -20 68.5 -28.5t45.5 -8.5q42 0 61 15t19 45h40q0 -79 -29 -117.5t-91 -38.5q-40 0 -74 11z" />
    <glyph glyph-name="logicalnot" unicode="&#xac;" horiz-adv-x="662" 
d="M513 115v105h-455v70h545v-175h-90z" />
    <glyph glyph-name="uni00B5" unicode="&#xb5;" horiz-adv-x="550" 
d="M63 470h130v-235q0 -100 24.5 -150t70.5 -50q57 0 85 65v370h130v-470h-85l-35 45h-5q-9 -15 -26 -28q-34 -27 -79 -27q-30 0 -53 10.5t-47 34.5v-225h-110v660z" />
    <glyph glyph-name="percent" unicode="%" horiz-adv-x="755" 
d="M72.5 425q-42.5 36 -42.5 102t42.5 102t117.5 36q73 0 115.5 -36.5t42.5 -101.5t-42.5 -101.5t-115.5 -36.5q-75 0 -117.5 36zM83 0l484 660h106l-484 -660h-106zM248 454q20 25 20 73t-20.5 73t-59.5 25q-38 0 -58 -25t-20 -73t20 -73t59 -25t59 25zM450.5 31
q-42.5 36 -42.5 102t42.5 102t117.5 36q73 0 115.5 -36.5t42.5 -101.5t-42.5 -101.5t-115.5 -36.5q-75 0 -117.5 36zM626 60q20 25 20 73t-20.5 73t-59.5 25q-38 0 -58 -25t-20 -73t20 -73t59 -25t59 25z" />
    <glyph glyph-name="perthousand" unicode="&#x2030;" horiz-adv-x="1070" 
d="M75.5 425q-42.5 36 -42.5 102t42.5 102t117.5 36q73 0 115.5 -36.5t42.5 -101.5t-42.5 -101.5t-115.5 -36.5q-75 0 -117.5 36zM86 0l484 660h106l-484 -660h-106zM251 454q20 25 20 73t-20.5 73t-59.5 25q-38 0 -58 -25t-20 -73t20 -73t59 -25t59 25zM433.5 31
q-42.5 36 -42.5 102t42.5 102t117.5 36q73 0 115.5 -36.5t42.5 -101.5t-42.5 -101.5t-115.5 -36.5q-75 0 -117.5 36zM767.5 31q-42.5 36 -42.5 102t42.5 102t117.5 36q73 0 115.5 -36.5t42.5 -101.5t-42.5 -101.5t-115.5 -36.5q-75 0 -117.5 36zM609 60q20 25 20 73
t-20.5 73t-59.5 25q-38 0 -58 -25t-20 -73t20 -73t59 -25t59 25zM943 60q20 25 20 73t-20.5 73t-59.5 25q-38 0 -58 -25t-20 -73t20 -73t59 -25t59 25z" />
    <glyph glyph-name="at" unicode="@" horiz-adv-x="877" 
d="M227.5 -131q-91.5 49 -142.5 146t-51 235t51 235t142.5 146t212.5 49q120 0 212 -48.5t143 -141t51 -220.5q0 -133 -51.5 -199t-159.5 -66q-41 0 -75 10t-50 45h-5q-11 -17 -26 -28q-34 -27 -89 -27q-81 0 -125.5 36.5t-44.5 98.5q0 48 23.5 80.5t83 50t163.5 17.5h15
q0 92 -23 127t-68 35q-36 0 -62.5 -22t-37.5 -68h-55q0 69 36 105q14 14 53 22t86 8q97 0 149 -53t52 -157v-183q0 -23 10 -37t30 -14q50 0 75.5 49t25.5 170q0 117 -41.5 199t-117.5 124t-177 42q-102 0 -177.5 -43t-117 -129.5t-41.5 -212.5t41.5 -212.5t117 -129.5
t177.5 -43q180 0 317 95l26 -40q-142 -100 -343 -100q-121 0 -212.5 49zM456 63.5q15 8.5 29 23.5q13 14 20 33v122h-15q-79 0 -109.5 -24t-30.5 -78q0 -85 70 -85q21 0 36 8.5z" />
    <glyph glyph-name="ampersand" unicode="&#x26;" horiz-adv-x="636" 
d="M489 0l-38 38q0 -2 -25.5 -17t-64 -28t-82.5 -13q-130 0 -188.5 43t-58.5 112q0 62 42 107.5t116 83.5q-35 31 -73 84.5t-38 113.5q0 74 53 115t147 41q89 0 137 -38t48 -102q0 -57 -42 -105.5t-113 -94.5l185 -200q27 30 60 81q11 16 24 40l38 -25q-9 -22 -22 -43
q-30 -51 -66 -90l97 -103h-136zM226 614q-17 -26 -17 -90q0 -80 63 -143q35 32 53.5 67.5t18.5 81.5q0 57 -19.5 83.5t-45.5 26.5q-36 0 -53 -26zM421 72q-28 32 -52 57t-43 46l-96 103q-68 -60 -68 -133q0 -58 32 -91.5t94 -33.5q51 0 97 26q18 10 36 26z" />
    <glyph glyph-name="paragraph" unicode="&#xb6;" horiz-adv-x="634" 
d="M256 270q-65 0 -117.5 25t-82.5 69.5t-30 100.5t30 100.5t82.5 69.5t117.5 25h340v-45h-55v-805h-120v805h-45v-805h-120v460z" />
    <glyph glyph-name="section" unicode="&#xa7;" horiz-adv-x="450" 
d="M136 -189.5q-37 10.5 -57 30.5t-24.5 42t-4.5 68h32q8 -50 36 -78t72 -28q40 0 60.5 21t20.5 67q0 31 -13 53.5t-31.5 37t-55.5 39.5q-43 28 -68.5 48t-44 48.5t-18.5 65.5q0 46 31 84.5t81 60.5q-46 31 -71.5 66t-25.5 81q0 76 50 114.5t125 38.5q47 0 84 -10.5
t57 -30.5t24.5 -42t4.5 -68h-32q-8 50 -36 78t-72 28q-40 0 -60 -20.5t-20 -67.5q0 -31 12.5 -53.5t31 -36.5t55.5 -39q42 -27 68 -48t44.5 -50t18.5 -65q0 -49 -30.5 -86.5t-83.5 -58.5q47 -33 73 -67t26 -80q0 -76 -50 -114.5t-125 -38.5q-47 0 -84 10.5zM290.5 154.5
q10.5 21.5 10.5 60.5q0 38 -28.5 68.5t-80.5 60.5q-43 -17 -43 -89q0 -70 109 -130q22 8 32.5 29.5z" />
    <glyph glyph-name="copyright" unicode="&#xa9;" horiz-adv-x="806" 
d="M213 18.5q-84 46.5 -132 128t-48 183.5t48 183.5t132 128t190 46.5t190 -46.5t132 -128t48 -183.5t-48 -183.5t-132 -128t-190 -46.5t-190 46.5zM558.5 57q68.5 40 106.5 111t38 162t-38 162t-106.5 111t-155.5 40t-155.5 -40t-106.5 -111t-38 -162t38 -162t106.5 -111
t155.5 -40t155.5 40zM290 132q-49 30 -75.5 81t-26.5 114q0 65 29 119.5t78.5 86.5t107.5 32q60 0 100.5 -15t59.5 -38q14 -17 17.5 -40.5t3.5 -62.5h-31q-12 64 -43 94t-87 30q-63 0 -101.5 -48.5t-38.5 -157.5q0 -80 35.5 -136.5t104.5 -56.5q86 0 144 96l25 -18
q-32 -59 -77 -84.5t-112 -25.5q-64 0 -113 30z" />
    <glyph glyph-name="registered" unicode="&#xae;" horiz-adv-x="806" 
d="M213 20.5q-84 45.5 -132 126.5t-48 183t48 183t132 126.5t190 45.5t190 -45.5t132 -126.5t48 -183t-48 -183t-132 -126.5t-190 -45.5t-190 45.5zM558.5 59q68.5 39 106.5 109.5t38 161.5t-38 161.5t-106.5 109.5t-155.5 39t-155.5 -39t-106.5 -109.5t-38 -161.5
t38 -161.5t106.5 -109.5t155.5 -39t155.5 39zM490.5 138q-26.5 20 -59.5 74l-67 108h-20v-195h-88v352q0 32 -5.5 47t-24.5 15h-18v16h173q78 0 127.5 -27.5t49.5 -93.5q0 -47 -29.5 -72.5t-73.5 -35.5l68 -110q25 -39 43 -56.5t41 -20.5v-14q0 -1 -14.5 -4t-37.5 -3
q-38 0 -64.5 20zM440 370.5q23 21.5 23 67.5t-23 67t-62 21l-24 -1q-3 -1 -10 -1v-173q4 -1 11 -1q7 -1 23 -1q39 0 62 21.5z" />
    <glyph glyph-name="trademark" unicode="&#x2122;" horiz-adv-x="940" 
d="M189 628h-46q-35 0 -55.5 -21.5t-20.5 -63.5h-16v51q0 66 72 66h283v-32h-121v-331h-96v331zM788 323.5q-35 33.5 -35 114.5v118l-116 -259h-25l-145 275v-275h-38v363h88l128 -243l109 243h95v-222q0 -69 11.5 -99.5t36.5 -36.5v-12q-74 0 -109 33.5z" />
    <glyph glyph-name="degree" unicode="&#xb0;" horiz-adv-x="416" 
d="M83 405q-45 45 -45 115t45 115t125 45t125 -45t45 -115t-45 -115t-125 -45t-125 45zM272.5 448q25.5 28 25.5 72t-25.5 72t-64.5 28t-64.5 -28t-25.5 -72t25.5 -72t64.5 -28t64.5 28z" />
    <glyph glyph-name="bar" unicode="|" horiz-adv-x="262" 
d="M66 -190v870h130v-870h-130z" />
    <glyph glyph-name="brokenbar" unicode="&#xa6;" horiz-adv-x="268" 
d="M69 327v353h130v-353h-130zM69 -190v353h130v-353h-130z" />
    <glyph glyph-name="dagger" unicode="&#x2020;" horiz-adv-x="539" 
d="M204 -190v595h-179v70h179v205h130v-205h180v-70h-180v-595h-130z" />
    <glyph glyph-name="daggerdbl" unicode="&#x2021;" horiz-adv-x="561" 
d="M215 -190v205h-179v70h179v320h-179v70h179v205h130v-205h180v-70h-180v-320h180v-70h-180v-205h-130z" />
    <glyph glyph-name="uni2116" unicode="&#x2116;" horiz-adv-x="1039" 
d="M709 405q-45 45 -45 115t45 115t125 45t125 -45t45 -115t-45 -115t-125 -45t-125 45zM154 495v-495h-50v540q0 42 -20.5 66t-69.5 24h-5v30h70q56 0 91.5 -14.5t59.5 -45.5l344 -400v460h50v-663h-46zM899 439q25 29 25 81t-25 81t-65 29t-65 -29t-25 -81t25 -81t65 -29
t65 29zM674 247v65h320v-65h-320z" />
    <glyph glyph-name="asciicircum" unicode="^" horiz-adv-x="514" 
d="M20 330l215 350h44l215 -350h-98l-139 227l-139 -227h-98z" />
    <glyph glyph-name="uni0308" unicode="&#x308;" horiz-adv-x="0" 
d="M-377 551q-15 16 -15 40t15 40t41 16t41 -16t15 -40t-15 -40t-41 -16t-41 16zM-197 551q-15 16 -15 40t15 40t41 16t41 -16t15 -40t-15 -40t-41 -16t-41 16z" />
    <glyph glyph-name="gravecomb" unicode="&#x300;" horiz-adv-x="0" 
d="M-155 525l-106 140h119l42 -140h-55z" />
    <glyph glyph-name="acutecomb" unicode="&#x301;" horiz-adv-x="0" 
d="M-261 525l42 140h119l-106 -140h-55z" />
    <glyph glyph-name="uni030B" unicode="&#x30b;" horiz-adv-x="0" 
d="M-331 525l42 140h79l-86 -140h-35zM-221 525l42 140h79l-86 -140h-35z" />
    <glyph glyph-name="uni0302" unicode="&#x302;" horiz-adv-x="0" 
d="M-390 535l80 125h130l80 -125h-60l-85 80l-85 -80h-60z" />
    <glyph glyph-name="uni030C" unicode="&#x30c;" horiz-adv-x="0" 
d="M-310 520l-80 125h70l75 -80l75 80h70l-80 -125h-130z" />
    <glyph glyph-name="uni0306" unicode="&#x306;" horiz-adv-x="0" 
d="M-326 535.5q-37 25.5 -56 68.5l28 21q17 -21 45.5 -35.5t67.5 -14.5t67.5 14.5t45.5 35.5l28 -21q-19 -43 -56 -68.5t-85 -25.5t-85 25.5z" />
    <glyph glyph-name="uni030A" unicode="&#x30a;" horiz-adv-x="0" 
d="M-263.5 546.5q-26.5 26.5 -26.5 68.5t26.5 68.5t68.5 26.5t68.5 -26.5t26.5 -68.5t-26.5 -68.5t-68.5 -26.5t-68.5 26.5zM-163 578.5q13 13.5 13 36.5t-13 36.5t-32 13.5t-32 -13.5t-13 -36.5t13 -36.5t32 -13.5t32 13.5z" />
    <glyph glyph-name="tildecomb" unicode="&#x303;" horiz-adv-x="0" 
d="M-317.5 638q17.5 22 50.5 22q17 0 29.5 -6.5t28.5 -17.5q2 -2 13 -9t21 -7q16 0 25.5 12t9.5 28h40q0 -56 -17 -78t-50 -22q-16 0 -28 6t-30 18q-9 6 -18 11t-17 5q-16 0 -25.5 -12t-9.5 -28h-40q0 56 17.5 78z" />
    <glyph glyph-name="uni0304" unicode="&#x304;" horiz-adv-x="0" 
d="M-379 557v85h279v-85h-279z" />
    <glyph glyph-name="hookabovecomb" unicode="&#x309;" horiz-adv-x="0" 
d="M-309 548q4 11 13 26q15 23 15 41q0 12 -9.5 20t-23.5 8q-18 0 -28 -10.5t-15 -41.5l-55 1q0 56 23 84.5t75 28.5q47 0 73 -23t26 -58q0 -16 -6 -27.5t-17 -24.5q-12 -15 -17.5 -25.5t-6.5 -25.5h-52q1 16 5 27z" />
    <glyph glyph-name="uni031B" unicode="&#x31b;" horiz-adv-x="0" 
d="M-196 469q50 0 75 31t25 73h80q0 -36 -20 -70t-60.5 -55.5t-99.5 -21.5v43z" />
    <glyph glyph-name="dotbelowcomb" unicode="&#x323;" horiz-adv-x="0" 
d="M-150 -159q-13 14 -13 37q0 22 13.5 36t36.5 14q24 0 37.5 -14t13.5 -36q0 -23 -13.5 -37t-37.5 -14t-37 14z" />
    <glyph glyph-name="uni0326" unicode="&#x326;" horiz-adv-x="0" 
d="M-233 -306q33 22 57.5 53.5t24.5 71.5l-15 -3q-29 0 -45 16.5t-16 44.5t16 44.5t45 16.5q31 0 48.5 -23t17.5 -55q0 -59 -26.5 -104t-88.5 -86z" />
    <glyph glyph-name="uni0327" unicode="&#x327;" horiz-adv-x="0" 
d="M-260 -160h50q18 0 29 9.5t11 22.5q0 15 -11 24t-29 9h-45v95h65v-50q42 0 66 -21t24 -57t-24 -57t-66 -21h-70v46z" />
    <glyph glyph-name="uni0335" unicode="&#x335;" horiz-adv-x="0" 
d="M-399 220v45h299v-45h-299z" />
    <glyph glyph-name="uni02BC" unicode="&#x2bc;" horiz-adv-x="333" 
d="M100 534q33 22 57.5 53.5t24.5 71.5l-15 -3q-29 0 -45 16.5t-16 44.5t16 44.5t45 16.5q31 0 48.5 -23t17.5 -55q0 -59 -26.5 -104t-88.5 -86z" />
    <glyph glyph-name="acute" unicode="&#xb4;" horiz-adv-x="201" 
d="M20 700l42 140h119l-106 -140h-55z" />
    <glyph glyph-name="breve" unicode="&#x2d8;" horiz-adv-x="322" 
d="M76 535.5q-37 25.5 -56 68.5l28 21q17 -21 45.5 -35.5t67.5 -14.5t67.5 14.5t45.5 35.5l28 -21q-19 -43 -56 -68.5t-85 -25.5t-85 25.5z" />
    <glyph glyph-name="caron" unicode="&#x2c7;" horiz-adv-x="330" 
d="M100 520l-80 125h70l75 -80l75 80h70l-80 -125h-130z" />
    <glyph glyph-name="cedilla" unicode="&#xb8;" horiz-adv-x="200" 
d="M40 -160h50q18 0 29 9.5t11 22.5q0 15 -11 24t-29 9h-45v95h65v-50q42 0 66 -21t24 -57t-24 -57t-66 -21h-70v46z" />
    <glyph glyph-name="circumflex" unicode="&#x2c6;" horiz-adv-x="330" 
d="M20 660l80 125h130l80 -125h-60l-85 80l-85 -80h-60z" />
    <glyph glyph-name="dieresis" unicode="&#xa8;" horiz-adv-x="282" 
d="M15 706q-15 16 -15 40t15 40t41 16t41 -16t15 -40t-15 -40t-41 -16t-41 16zM185 706q-15 16 -15 40t15 40t41 16t41 -16t15 -40t-15 -40t-41 -16t-41 16z" />
    <glyph glyph-name="grave" unicode="`" horiz-adv-x="227" 
d="M133 477l-113 203h125l62 -203h-74z" />
    <glyph glyph-name="macron" unicode="&#xaf;" horiz-adv-x="479" 
d="M100 557v85h279v-85h-279z" />
    <glyph glyph-name="ring" unicode="&#x2da;" horiz-adv-x="230" 
d="M46.5 546.5q-26.5 26.5 -26.5 68.5t26.5 68.5t68.5 26.5t68.5 -26.5t26.5 -68.5t-26.5 -68.5t-68.5 -26.5t-68.5 26.5zM147 578.5q13 13.5 13 36.5t-13 36.5t-32 13.5t-32 -13.5t-13 -36.5t13 -36.5t32 -13.5t32 13.5z" />
    <glyph glyph-name="tilde" unicode="&#x2dc;" horiz-adv-x="275" 
d="M37.5 758q17.5 22 50.5 22q17 0 29.5 -6.5t28.5 -17.5q2 -2 13 -9t21 -7q16 0 25.5 12t9.5 28h40q0 -56 -17 -78t-50 -22q-16 0 -28 6t-30 18q-9 6 -18 11t-17 5q-16 0 -25.5 -12t-9.5 -28h-40q0 56 17.5 78z" />
    <glyph glyph-name="dieresis.alt2" horiz-adv-x="332" 
d="M35 746q-15 16 -15 40t15 40t41 16t41 -16t15 -40t-15 -40t-41 -16t-41 16zM215 746q-15 16 -15 40t15 40t41 16t41 -16t15 -40t-15 -40t-41 -16t-41 16z" />
    <glyph glyph-name="brevecombcy" horiz-adv-x="0" 
d="M-326 535.5q-37 25.5 -56 68.5l28 21q17 -21 45.5 -35.5t67.5 -14.5t67.5 14.5t45.5 35.5l28 -21q-19 -43 -56 -68.5t-85 -25.5t-85 25.5z" />
    <glyph glyph-name="brevecombcy.case" horiz-adv-x="0" 
d="M-430 730.5q-37 25.5 -56 68.5l28 21q17 -21 45.5 -35.5t67.5 -14.5t67.5 14.5t45.5 35.5l28 -21q-19 -43 -56 -68.5t-85 -25.5t-85 25.5z" />
    </font>
</defs>
</svg>
