<?xml version="1.0" standalone="no"?>
<!DOCTYPE svg PUBLIC "-//W3C//DTD SVG 1.1//EN" "http://www.w3.org/Graphics/SVG/1.1/DTD/svg11.dtd" >
<svg xmlns="http://www.w3.org/2000/svg" xmlns:xlink="http://www.w3.org/1999/xlink" version="1.1">
<metadata>
Created by FontForge 20190801 at Thu Jan 23 23:42:53 2020
 By Jimmy Wärting
Copyright 2020 The Inter Project Authors (https://github.com/rsms/inter)
</metadata>
<defs>
<font id="Inter-Thin" horiz-adv-x="0" >
  <font-face 
    font-family="Inter Thin"
    font-weight="250"
    font-stretch="normal"
    units-per-em="2816"
    panose-1="2 11 5 2 3 0 0 0 0 4"
    ascent="2252"
    descent="-564"
    x-height="1536"
    cap-height="2048"
    bbox="-2006 -900 7274 3028"
    underline-thickness="192"
    underline-position="-560"
    unicode-range="U+0020-1F852"
  />
<missing-glyph horiz-adv-x="2644" 
d="M204 -640v512h2236v-512h-2236zM204 1472v512h2236v-512h-2236zM204 2176v512h2236v-512h-2236zM204 64v512h2236v-512h-2236zM204 768v512h2236v-512h-2236z" />
    <glyph glyph-name="uni24B6" unicode="A&#x20dd;" horiz-adv-x="3912" 
d="M1248 0h-68l732 2048h88l732 -2048h-68l-704 1968h-8zM1480 756h952v-64h-952v64zM1956 -900q-319 0 -607.5 97t-529 273.5t-417 417t-273.5 529t-97 607.5t97 607.5t273.5 529t417 417t529 273.5t607.5 97t607.5 -97t529 -273.5t417 -417t273.5 -529t97 -607.5
t-97 -607.5t-273.5 -529t-417 -417t-529 -273.5t-607.5 -97zM1956 -836q308 0 587 94t511.5 264.5t403 403t264.5 511.5t94 587t-94 587t-264.5 511.5t-403 403t-511.5 264.5t-587 94t-587 -94t-511.5 -264.5t-403 -403t-264.5 -511.5t-94 -587t94 -587t264.5 -511.5
t403 -403t511.5 -264.5t587 -94z" />
    <glyph glyph-name="uni24B7" unicode="B&#x20dd;" horiz-adv-x="3912" 
d="M1402 0v2048h640q172 0 294.5 -62.5t188 -179t65.5 -278.5q0 -120 -36.5 -221t-106.5 -169.5t-169 -93.5v-8q111 -9 200 -77t140.5 -180t51.5 -255q0 -158 -66.5 -276t-192 -183t-301.5 -65h-708zM1466 64h644q225 0 360.5 126.5t135.5 333.5q0 142 -64 251t-175.5 171
t-256.5 62h-644v-944zM1466 1072h644q140 0 232 63t138 167t46 226q0 218 -130 337t-354 119h-576v-912zM1956 -900q-319 0 -607.5 97t-529 273.5t-417 417t-273.5 529t-97 607.5t97 607.5t273.5 529t417 417t529 273.5t607.5 97t607.5 -97t529 -273.5t417 -417t273.5 -529
t97 -607.5t-97 -607.5t-273.5 -529t-417 -417t-529 -273.5t-607.5 -97zM1956 -836q308 0 587 94t511.5 264.5t403 403t264.5 511.5t94 587t-94 587t-264.5 511.5t-403 403t-511.5 264.5t-587 94t-587 -94t-511.5 -264.5t-403 -403t-264.5 -511.5t-94 -587t94 -587
t264.5 -511.5t403 -403t511.5 -264.5t587 -94z" />
    <glyph glyph-name="uni24B8" unicode="C&#x20dd;" horiz-adv-x="3912" 
d="M2772 1408h-68q-19 102 -74 208t-146 196t-215 145t-281 55q-210 0 -388.5 -114.5t-287 -335t-108.5 -538.5q0 -322 108.5 -542t287 -333t388.5 -113q157 0 281 54.5t215 144t146 196t74 209.5h68q-19 -108 -76 -224.5t-154 -217.5t-235 -163.5t-319 -62.5
q-252 0 -443 132t-298 369t-107 551t107 551t298 369t443 132q181 0 319 -62t235 -162.5t154 -217t76 -226.5zM1956 -900q-319 0 -607.5 97t-529 273.5t-417 417t-273.5 529t-97 607.5t97 607.5t273.5 529t417 417t529 273.5t607.5 97t607.5 -97t529 -273.5t417 -417
t273.5 -529t97 -607.5t-97 -607.5t-273.5 -529t-417 -417t-529 -273.5t-607.5 -97zM1956 -836q308 0 587 94t511.5 264.5t403 403t264.5 511.5t94 587t-94 587t-264.5 511.5t-403 403t-511.5 264.5t-587 94t-587 -94t-511.5 -264.5t-403 -403t-264.5 -511.5t-94 -587
t94 -587t264.5 -511.5t403 -403t511.5 -264.5t587 -94z" />
    <glyph glyph-name="uni24B9" unicode="D&#x20dd;" horiz-adv-x="3912" 
d="M1848 0h-536v2048h588q283 0 484.5 -121.5t309 -348.5t106.5 -546q-1 -327 -113.5 -557.5t-325 -352.5t-513.5 -122zM1376 64h472q284 0 483 115.5t302.5 332.5t102.5 520q-1 299 -99.5 512t-284.5 326.5t-452 113.5h-524v-1920zM1956 -900q-319 0 -607.5 97t-529 273.5
t-417 417t-273.5 529t-97 607.5t97 607.5t273.5 529t417 417t529 273.5t607.5 97t607.5 -97t529 -273.5t417 -417t273.5 -529t97 -607.5t-97 -607.5t-273.5 -529t-417 -417t-529 -273.5t-607.5 -97zM1956 -836q308 0 587 94t511.5 264.5t403 403t264.5 511.5t94 587t-94 587
t-264.5 511.5t-403 403t-511.5 264.5t-587 94t-587 -94t-511.5 -264.5t-403 -403t-264.5 -511.5t-94 -587t94 -587t264.5 -511.5t403 -403t511.5 -264.5t587 -94z" />
    <glyph glyph-name="uni24BA" unicode="E&#x20dd;" horiz-adv-x="3912" 
d="M1396 0v2048h1092v-64h-1028v-928h968v-64h-968v-928h1056v-64h-1120zM1956 -900q-319 0 -607.5 97t-529 273.5t-417 417t-273.5 529t-97 607.5t97 607.5t273.5 529t417 417t529 273.5t607.5 97t607.5 -97t529 -273.5t417 -417t273.5 -529t97 -607.5t-97 -607.5
t-273.5 -529t-417 -417t-529 -273.5t-607.5 -97zM1956 -836q308 0 587 94t511.5 264.5t403 403t264.5 511.5t94 587t-94 587t-264.5 511.5t-403 403t-511.5 264.5t-587 94t-587 -94t-511.5 -264.5t-403 -403t-264.5 -511.5t-94 -587t94 -587t264.5 -511.5t403 -403
t511.5 -264.5t587 -94z" />
    <glyph glyph-name="uni24BB" unicode="F&#x20dd;" horiz-adv-x="3912" 
d="M1406 0v2048h1100v-64h-1036v-928h940v-64h-940v-992h-64zM1956 -900q-319 0 -607.5 97t-529 273.5t-417 417t-273.5 529t-97 607.5t97 607.5t273.5 529t417 417t529 273.5t607.5 97t607.5 -97t529 -273.5t417 -417t273.5 -529t97 -607.5t-97 -607.5t-273.5 -529
t-417 -417t-529 -273.5t-607.5 -97zM1956 -836q308 0 587 94t511.5 264.5t403 403t264.5 511.5t94 587t-94 587t-264.5 511.5t-403 403t-511.5 264.5t-587 94t-587 -94t-511.5 -264.5t-403 -403t-264.5 -511.5t-94 -587t94 -587t264.5 -511.5t403 -403t511.5 -264.5t587 -94
z" />
    <glyph glyph-name="uni24BC" unicode="G&#x20dd;" horiz-adv-x="3912" 
d="M2700 1408q-18 105 -73.5 211.5t-147 195.5t-216.5 143t-283 54q-235 0 -411.5 -123.5t-274.5 -346t-98 -518.5q0 -292 97 -515t275 -348t420 -125q214 0 380 101.5t259 292t89 458.5l28 -24h-736v64h772v-64q0 -280 -102 -479.5t-281 -306t-409 -106.5
q-260 0 -452.5 132.5t-298 369.5t-105.5 550q0 236 60.5 429.5t173 333t268.5 214.5t346 75q180 0 318 -62t235.5 -162.5t155 -217t75.5 -226.5h-64zM1956 -900q-319 0 -607.5 97t-529 273.5t-417 417t-273.5 529t-97 607.5t97 607.5t273.5 529t417 417t529 273.5t607.5 97
t607.5 -97t529 -273.5t417 -417t273.5 -529t97 -607.5t-97 -607.5t-273.5 -529t-417 -417t-529 -273.5t-607.5 -97zM1956 -836q308 0 587 94t511.5 264.5t403 403t264.5 511.5t94 587t-94 587t-264.5 511.5t-403 403t-511.5 264.5t-587 94t-587 -94t-511.5 -264.5t-403 -403
t-264.5 -511.5t-94 -587t94 -587t264.5 -511.5t403 -403t511.5 -264.5t587 -94z" />
    <glyph glyph-name="uni24BD" unicode="H&#x20dd;" horiz-adv-x="3912" 
d="M1240 0v2048h64v-992h1304v992h64v-2048h-64v992h-1304v-992h-64zM1956 -900q-319 0 -607.5 97t-529 273.5t-417 417t-273.5 529t-97 607.5t97 607.5t273.5 529t417 417t529 273.5t607.5 97t607.5 -97t529 -273.5t417 -417t273.5 -529t97 -607.5t-97 -607.5t-273.5 -529
t-417 -417t-529 -273.5t-607.5 -97zM1956 -836q308 0 587 94t511.5 264.5t403 403t264.5 511.5t94 587t-94 587t-264.5 511.5t-403 403t-511.5 264.5t-587 94t-587 -94t-511.5 -264.5t-403 -403t-264.5 -511.5t-94 -587t94 -587t264.5 -511.5t403 -403t511.5 -264.5t587 -94
z" />
    <glyph glyph-name="uni24BE" unicode="I&#x20dd;" horiz-adv-x="3912" 
d="M1988 2048v-2048h-64v2048h64zM1956 -900q-319 0 -607.5 97t-529 273.5t-417 417t-273.5 529t-97 607.5t97 607.5t273.5 529t417 417t529 273.5t607.5 97t607.5 -97t529 -273.5t417 -417t273.5 -529t97 -607.5t-97 -607.5t-273.5 -529t-417 -417t-529 -273.5t-607.5 -97z
M1956 -836q308 0 587 94t511.5 264.5t403 403t264.5 511.5t94 587t-94 587t-264.5 511.5t-403 403t-511.5 264.5t-587 94t-587 -94t-511.5 -264.5t-403 -403t-264.5 -511.5t-94 -587t94 -587t264.5 -511.5t403 -403t511.5 -264.5t587 -94z" />
    <glyph glyph-name="uni24BF" unicode="J&#x20dd;" horiz-adv-x="3912" 
d="M2308 2048h64v-1504q-1 -208 -70.5 -333.5t-182 -182t-243.5 -56.5q-141 0 -253.5 54t-178 147t-64.5 211h64q-1 -100 56 -178.5t155.5 -124t220.5 -45.5q112 0 210.5 48t159.5 159t62 301v1504zM1956 -900q-319 0 -607.5 97t-529 273.5t-417 417t-273.5 529t-97 607.5
t97 607.5t273.5 529t417 417t529 273.5t607.5 97t607.5 -97t529 -273.5t417 -417t273.5 -529t97 -607.5t-97 -607.5t-273.5 -529t-417 -417t-529 -273.5t-607.5 -97zM1956 -836q308 0 587 94t511.5 264.5t403 403t264.5 511.5t94 587t-94 587t-264.5 511.5t-403 403
t-511.5 264.5t-587 94t-587 -94t-511.5 -264.5t-403 -403t-264.5 -511.5t-94 -587t94 -587t264.5 -511.5t403 -403t511.5 -264.5t587 -94z" />
    <glyph glyph-name="uni24C0" unicode="K&#x20dd;" horiz-adv-x="3912" 
d="M1336 0v2048h64v-1276h8l1160 1276h88l-904 -992l892 -1056h-84l-852 1008l-308 -340v-668h-64zM1956 -900q-319 0 -607.5 97t-529 273.5t-417 417t-273.5 529t-97 607.5t97 607.5t273.5 529t417 417t529 273.5t607.5 97t607.5 -97t529 -273.5t417 -417t273.5 -529
t97 -607.5t-97 -607.5t-273.5 -529t-417 -417t-529 -273.5t-607.5 -97zM1956 -836q308 0 587 94t511.5 264.5t403 403t264.5 511.5t94 587t-94 587t-264.5 511.5t-403 403t-511.5 264.5t-587 94t-587 -94t-511.5 -264.5t-403 -403t-264.5 -511.5t-94 -587t94 -587
t264.5 -511.5t403 -403t511.5 -264.5t587 -94z" />
    <glyph glyph-name="uni24C1" unicode="L&#x20dd;" horiz-adv-x="3912" 
d="M1452 0v2048h64v-1984h1024v-64h-1088zM1956 -900q-319 0 -607.5 97t-529 273.5t-417 417t-273.5 529t-97 607.5t97 607.5t273.5 529t417 417t529 273.5t607.5 97t607.5 -97t529 -273.5t417 -417t273.5 -529t97 -607.5t-97 -607.5t-273.5 -529t-417 -417t-529 -273.5
t-607.5 -97zM1956 -836q308 0 587 94t511.5 264.5t403 403t264.5 511.5t94 587t-94 587t-264.5 511.5t-403 403t-511.5 264.5t-587 94t-587 -94t-511.5 -264.5t-403 -403t-264.5 -511.5t-94 -587t94 -587t264.5 -511.5t403 -403t511.5 -264.5t587 -94z" />
    <glyph glyph-name="uni24C2" unicode="M&#x20dd;" horiz-adv-x="3912" 
d="M1060 2048h56l836 -1952h8l836 1952h56v-2048h-64v1848h-8l-792 -1848h-64l-792 1848h-8v-1848h-64v2048zM1956 -900q-319 0 -607.5 97t-529 273.5t-417 417t-273.5 529t-97 607.5t97 607.5t273.5 529t417 417t529 273.5t607.5 97t607.5 -97t529 -273.5t417 -417
t273.5 -529t97 -607.5t-97 -607.5t-273.5 -529t-417 -417t-529 -273.5t-607.5 -97zM1956 -836q308 0 587 94t511.5 264.5t403 403t264.5 511.5t94 587t-94 587t-264.5 511.5t-403 403t-511.5 264.5t-587 94t-587 -94t-511.5 -264.5t-403 -403t-264.5 -511.5t-94 -587
t94 -587t264.5 -511.5t403 -403t511.5 -264.5t587 -94z" />
    <glyph glyph-name="uni24C3" unicode="N&#x20dd;" horiz-adv-x="3912" 
d="M2724 2048v-2048h-64l-1400 1928h-8v-1928h-64v2048h64l1400 -1928h8v1928h64zM1956 -900q-319 0 -607.5 97t-529 273.5t-417 417t-273.5 529t-97 607.5t97 607.5t273.5 529t417 417t529 273.5t607.5 97t607.5 -97t529 -273.5t417 -417t273.5 -529t97 -607.5t-97 -607.5
t-273.5 -529t-417 -417t-529 -273.5t-607.5 -97zM1956 -836q308 0 587 94t511.5 264.5t403 403t264.5 511.5t94 587t-94 587t-264.5 511.5t-403 403t-511.5 264.5t-587 94t-587 -94t-511.5 -264.5t-403 -403t-264.5 -511.5t-94 -587t94 -587t264.5 -511.5t403 -403
t511.5 -264.5t587 -94z" />
    <glyph glyph-name="uni24C4" unicode="O&#x20dd;" horiz-adv-x="3912" 
d="M2804 1024q0 -313 -107 -550t-298 -369.5t-443 -132.5q-253 0 -444 133t-297.5 370t-106.5 549q0 313 107 549.5t298 369.5t443 133t443 -132.5t298 -369.5t107 -550zM2740 1024q0 294 -99 516.5t-275.5 347t-409.5 124.5q-232 0 -408.5 -123.5t-276 -346t-99.5 -518.5
q0 -292 98 -514.5t274.5 -348t411.5 -125.5q233 0 410 124.5t276 347t98 516.5zM1956 -900q-319 0 -607.5 97t-529 273.5t-417 417t-273.5 529t-97 607.5t97 607.5t273.5 529t417 417t529 273.5t607.5 97t607.5 -97t529 -273.5t417 -417t273.5 -529t97 -607.5t-97 -607.5
t-273.5 -529t-417 -417t-529 -273.5t-607.5 -97zM1956 -836q308 0 587 94t511.5 264.5t403 403t264.5 511.5t94 587t-94 587t-264.5 511.5t-403 403t-511.5 264.5t-587 94t-587 -94t-511.5 -264.5t-403 -403t-264.5 -511.5t-94 -587t94 -587t264.5 -511.5t403 -403
t511.5 -264.5t587 -94z" />
    <glyph glyph-name="uni24C5" unicode="P&#x20dd;" horiz-adv-x="3912" 
d="M1442 0v2048h600q172 0 304.5 -77t208 -212t75.5 -311q0 -174 -75.5 -308.5t-208 -211t-304.5 -76.5h-568v64h568q154 0 272 68t185 188t67 276q0 157 -67 278t-185 189.5t-272 68.5h-536v-1984h-64zM1956 -900q-319 0 -607.5 97t-529 273.5t-417 417t-273.5 529
t-97 607.5t97 607.5t273.5 529t417 417t529 273.5t607.5 97t607.5 -97t529 -273.5t417 -417t273.5 -529t97 -607.5t-97 -607.5t-273.5 -529t-417 -417t-529 -273.5t-607.5 -97zM1956 -836q308 0 587 94t511.5 264.5t403 403t264.5 511.5t94 587t-94 587t-264.5 511.5
t-403 403t-511.5 264.5t-587 94t-587 -94t-511.5 -264.5t-403 -403t-264.5 -511.5t-94 -587t94 -587t264.5 -511.5t403 -403t511.5 -264.5t587 -94z" />
    <glyph glyph-name="uni24C6" unicode="Q&#x20dd;" horiz-adv-x="3912" 
d="M2036 640h80l332 -440l12 -16l284 -376h-80l-260 344l-12 16zM2804 1024q0 -313 -107 -550t-298 -369.5t-443 -132.5q-253 0 -444 133t-297.5 370t-106.5 549q0 313 107 549.5t298 369.5t443 133t443 -132.5t298 -369.5t107 -550zM2740 1024q0 294 -99 516.5t-275.5 347
t-409.5 124.5q-232 0 -408.5 -123.5t-276 -346t-99.5 -518.5q0 -292 98 -514.5t274.5 -348t411.5 -125.5q233 0 410 124.5t276 347t98 516.5zM1956 -900q-319 0 -607.5 97t-529 273.5t-417 417t-273.5 529t-97 607.5t97 607.5t273.5 529t417 417t529 273.5t607.5 97
t607.5 -97t529 -273.5t417 -417t273.5 -529t97 -607.5t-97 -607.5t-273.5 -529t-417 -417t-529 -273.5t-607.5 -97zM1956 -836q308 0 587 94t511.5 264.5t403 403t264.5 511.5t94 587t-94 587t-264.5 511.5t-403 403t-511.5 264.5t-587 94t-587 -94t-511.5 -264.5t-403 -403
t-264.5 -511.5t-94 -587t94 -587t264.5 -511.5t403 -403t511.5 -264.5t587 -94z" />
    <glyph glyph-name="uni24C7" unicode="R&#x20dd;" horiz-adv-x="3912" 
d="M1414 0v2048h600q172 0 304.5 -73t208 -204t75.5 -307q0 -174 -75.5 -304.5t-208 -203t-304.5 -72.5h-568v64h568q154 0 272 64t185 180t67 272q0 157 -67 274t-185 181.5t-272 64.5h-536v-1984h-64zM2194 932l504 -932h-72l-504 932h72zM1956 -900q-319 0 -607.5 97
t-529 273.5t-417 417t-273.5 529t-97 607.5t97 607.5t273.5 529t417 417t529 273.5t607.5 97t607.5 -97t529 -273.5t417 -417t273.5 -529t97 -607.5t-97 -607.5t-273.5 -529t-417 -417t-529 -273.5t-607.5 -97zM1956 -836q308 0 587 94t511.5 264.5t403 403t264.5 511.5
t94 587t-94 587t-264.5 511.5t-403 403t-511.5 264.5t-587 94t-587 -94t-511.5 -264.5t-403 -403t-264.5 -511.5t-94 -587t94 -587t264.5 -511.5t403 -403t511.5 -264.5t587 -94z" />
    <glyph glyph-name="uni24C8" unicode="S&#x20dd;" horiz-adv-x="3912" 
d="M2510 1536q-15 210 -160.5 345t-383.5 135q-156 0 -279 -60t-194 -164.5t-71 -239.5q0 -78 26 -144t79.5 -120.5t135 -98t191.5 -77.5l232 -72q133 -41 230 -92t160.5 -114.5t94.5 -141t31 -172.5q0 -160 -82 -285t-229 -196t-341 -71q-187 0 -327 65.5t-221.5 181
t-91.5 265.5h64q10 -132 83 -233t198.5 -158t294.5 -57q176 0 308.5 61.5t206 171.5t73.5 255q0 110 -48 193.5t-151 147.5t-269 115l-232 72q-241 76 -360.5 201t-119.5 303q0 151 79 270.5t216.5 188.5t312.5 69q176 0 309 -70t211 -193t88 -281h-64zM1956 -900
q-319 0 -607.5 97t-529 273.5t-417 417t-273.5 529t-97 607.5t97 607.5t273.5 529t417 417t529 273.5t607.5 97t607.5 -97t529 -273.5t417 -417t273.5 -529t97 -607.5t-97 -607.5t-273.5 -529t-417 -417t-529 -273.5t-607.5 -97zM1956 -836q308 0 587 94t511.5 264.5
t403 403t264.5 511.5t94 587t-94 587t-264.5 511.5t-403 403t-511.5 264.5t-587 94t-587 -94t-511.5 -264.5t-403 -403t-264.5 -511.5t-94 -587t94 -587t264.5 -511.5t403 -403t511.5 -264.5t587 -94z" />
    <glyph glyph-name="uni24C9" unicode="T&#x20dd;" horiz-adv-x="3912" 
d="M1264 1984v64h1384v-64h-660v-1984h-64v1984h-660zM1956 -900q-319 0 -607.5 97t-529 273.5t-417 417t-273.5 529t-97 607.5t97 607.5t273.5 529t417 417t529 273.5t607.5 97t607.5 -97t529 -273.5t417 -417t273.5 -529t97 -607.5t-97 -607.5t-273.5 -529t-417 -417
t-529 -273.5t-607.5 -97zM1956 -836q308 0 587 94t511.5 264.5t403 403t264.5 511.5t94 587t-94 587t-264.5 511.5t-403 403t-511.5 264.5t-587 94t-587 -94t-511.5 -264.5t-403 -403t-264.5 -511.5t-94 -587t94 -587t264.5 -511.5t403 -403t511.5 -264.5t587 -94z" />
    <glyph glyph-name="uni24CA" unicode="U&#x20dd;" horiz-adv-x="3912" 
d="M2628 2048h64v-1356q0 -208 -96.5 -371.5t-262.5 -258t-377 -94.5q-209 0 -376 95t-264 258.5t-96 370.5v1356h64v-1356q0 -190 87.5 -339t239.5 -235t345 -86t345 86t239.5 235t87.5 339v1356zM1956 -900q-319 0 -607.5 97t-529 273.5t-417 417t-273.5 529t-97 607.5
t97 607.5t273.5 529t417 417t529 273.5t607.5 97t607.5 -97t529 -273.5t417 -417t273.5 -529t97 -607.5t-97 -607.5t-273.5 -529t-417 -417t-529 -273.5t-607.5 -97zM1956 -836q308 0 587 94t511.5 264.5t403 403t264.5 511.5t94 587t-94 587t-264.5 511.5t-403 403
t-511.5 264.5t-587 94t-587 -94t-511.5 -264.5t-403 -403t-264.5 -511.5t-94 -587t94 -587t264.5 -511.5t403 -403t511.5 -264.5t587 -94z" />
    <glyph glyph-name="uni24CB" unicode="V&#x20dd;" horiz-adv-x="3912" 
d="M1248 2048l704 -1968h8l704 1968h68l-732 -2048h-88l-732 2048h68zM1956 -900q-319 0 -607.5 97t-529 273.5t-417 417t-273.5 529t-97 607.5t97 607.5t273.5 529t417 417t529 273.5t607.5 97t607.5 -97t529 -273.5t417 -417t273.5 -529t97 -607.5t-97 -607.5t-273.5 -529
t-417 -417t-529 -273.5t-607.5 -97zM1956 -836q308 0 587 94t511.5 264.5t403 403t264.5 511.5t94 587t-94 587t-264.5 511.5t-403 403t-511.5 264.5t-587 94t-587 -94t-511.5 -264.5t-403 -403t-264.5 -511.5t-94 -587t94 -587t264.5 -511.5t403 -403t511.5 -264.5t587 -94
z" />
    <glyph glyph-name="uni24CC" unicode="W&#x20dd;" horiz-adv-x="3912" 
d="M1344 0l-564 2048h68l536 -1948h8l520 1948h88l520 -1948h8l536 1948h68l-564 -2048h-88l-520 1948h-8l-520 -1948h-88zM1956 -900q-319 0 -607.5 97t-529 273.5t-417 417t-273.5 529t-97 607.5t97 607.5t273.5 529t417 417t529 273.5t607.5 97t607.5 -97t529 -273.5
t417 -417t273.5 -529t97 -607.5t-97 -607.5t-273.5 -529t-417 -417t-529 -273.5t-607.5 -97zM1956 -836q308 0 587 94t511.5 264.5t403 403t264.5 511.5t94 587t-94 587t-264.5 511.5t-403 403t-511.5 264.5t-587 94t-587 -94t-511.5 -264.5t-403 -403t-264.5 -511.5
t-94 -587t94 -587t264.5 -511.5t403 -403t511.5 -264.5t587 -94z" />
    <glyph glyph-name="uni24CD" unicode="X&#x20dd;" horiz-adv-x="3912" 
d="M1308 2048l644 -964h8l644 964h80l-688 -1024l688 -1024h-80l-644 964h-8l-644 -964h-80l688 1024l-688 1024h80zM1956 -900q-319 0 -607.5 97t-529 273.5t-417 417t-273.5 529t-97 607.5t97 607.5t273.5 529t417 417t529 273.5t607.5 97t607.5 -97t529 -273.5t417 -417
t273.5 -529t97 -607.5t-97 -607.5t-273.5 -529t-417 -417t-529 -273.5t-607.5 -97zM1956 -836q308 0 587 94t511.5 264.5t403 403t264.5 511.5t94 587t-94 587t-264.5 511.5t-403 403t-511.5 264.5t-587 94t-587 -94t-511.5 -264.5t-403 -403t-264.5 -511.5t-94 -587
t94 -587t264.5 -511.5t403 -403t511.5 -264.5t587 -94z" />
    <glyph glyph-name="uni24CE" unicode="Y&#x20dd;" horiz-adv-x="3912" 
d="M1188 2048h80l684 -1004h8l684 1004h80l-736 -1076v-972h-64v972zM1956 -900q-319 0 -607.5 97t-529 273.5t-417 417t-273.5 529t-97 607.5t97 607.5t273.5 529t417 417t529 273.5t607.5 97t607.5 -97t529 -273.5t417 -417t273.5 -529t97 -607.5t-97 -607.5t-273.5 -529
t-417 -417t-529 -273.5t-607.5 -97zM1956 -836q308 0 587 94t511.5 264.5t403 403t264.5 511.5t94 587t-94 587t-264.5 511.5t-403 403t-511.5 264.5t-587 94t-587 -94t-511.5 -264.5t-403 -403t-264.5 -511.5t-94 -587t94 -587t264.5 -511.5t403 -403t511.5 -264.5t587 -94
z" />
    <glyph glyph-name="uni24CF" unicode="Z&#x20dd;" horiz-adv-x="3912" 
d="M1312 0v64l1204 1920h-1196v64h1272v-64l-1204 -1920h1212v-64h-1288zM1956 -900q-319 0 -607.5 97t-529 273.5t-417 417t-273.5 529t-97 607.5t97 607.5t273.5 529t417 417t529 273.5t607.5 97t607.5 -97t529 -273.5t417 -417t273.5 -529t97 -607.5t-97 -607.5
t-273.5 -529t-417 -417t-529 -273.5t-607.5 -97zM1956 -836q308 0 587 94t511.5 264.5t403 403t264.5 511.5t94 587t-94 587t-264.5 511.5t-403 403t-511.5 264.5t-587 94t-587 -94t-511.5 -264.5t-403 -403t-264.5 -511.5t-94 -587t94 -587t264.5 -511.5t403 -403
t511.5 -264.5t587 -94z" />
    <glyph glyph-name="uni24EA" unicode="&#x30;&#x20dd;" horiz-adv-x="3912" 
d="M1956 -28q-195 0 -335.5 127t-216.5 363t-76 562t76 562t216.5 363t335.5 127t335.5 -127t216.5 -363t76 -562t-76 -562t-216.5 -363t-335.5 -127zM1956 36q262 0 413 263t151 725q0 308 -68.5 529.5t-194.5 340t-301 118.5q-262 0 -413 -263t-151 -725
q0 -308 68.5 -529.5t195 -340t300.5 -118.5zM1956 -900q-319 0 -607.5 97t-529 273.5t-417 417t-273.5 529t-97 607.5t97 607.5t273.5 529t417 417t529 273.5t607.5 97t607.5 -97t529 -273.5t417 -417t273.5 -529t97 -607.5t-97 -607.5t-273.5 -529t-417 -417t-529 -273.5
t-607.5 -97zM1956 -836q308 0 587 94t511.5 264.5t403 403t264.5 511.5t94 587t-94 587t-264.5 511.5t-403 403t-511.5 264.5t-587 94t-587 -94t-511.5 -264.5t-403 -403t-264.5 -511.5t-94 -587t94 -587t264.5 -511.5t403 -403t511.5 -264.5t587 -94z" />
    <glyph glyph-name="uni2460" unicode="&#x31;&#x20dd;" horiz-adv-x="3912" 
d="M2034 2048v-2048h-64v1980h-12l-440 -292v76l428 284h88zM1956 -900q-319 0 -607.5 97t-529 273.5t-417 417t-273.5 529t-97 607.5t97 607.5t273.5 529t417 417t529 273.5t607.5 97t607.5 -97t529 -273.5t417 -417t273.5 -529t97 -607.5t-97 -607.5t-273.5 -529
t-417 -417t-529 -273.5t-607.5 -97zM1956 -836q308 0 587 94t511.5 264.5t403 403t264.5 511.5t94 587t-94 587t-264.5 511.5t-403 403t-511.5 264.5t-587 94t-587 -94t-511.5 -264.5t-403 -403t-264.5 -511.5t-94 -587t94 -587t264.5 -511.5t403 -403t511.5 -264.5t587 -94
z" />
    <glyph glyph-name="uni2461" unicode="&#x32;&#x20dd;" horiz-adv-x="3912" 
d="M1338 0v52l656 776q154 182 240 304.5t121 218t35 197.5q0 134 -61.5 239t-168 165t-242.5 60q-142 0 -250 -64.5t-169 -172.5t-61 -239h-64q0 149 69.5 271.5t192 195.5t282.5 73q154 0 275 -68.5t191 -188t70 -271.5q0 -113 -37.5 -216t-127 -230t-247.5 -314
l-604 -716v-8h1136v-64h-1236zM1956 -900q-319 0 -607.5 97t-529 273.5t-417 417t-273.5 529t-97 607.5t97 607.5t273.5 529t417 417t529 273.5t607.5 97t607.5 -97t529 -273.5t417 -417t273.5 -529t97 -607.5t-97 -607.5t-273.5 -529t-417 -417t-529 -273.5t-607.5 -97z
M1956 -836q308 0 587 94t511.5 264.5t403 403t264.5 511.5t94 587t-94 587t-264.5 511.5t-403 403t-511.5 264.5t-587 94t-587 -94t-511.5 -264.5t-403 -403t-264.5 -511.5t-94 -587t94 -587t264.5 -511.5t403 -403t511.5 -264.5t587 -94z" />
    <glyph glyph-name="uni2462" unicode="&#x33;&#x20dd;" horiz-adv-x="3912" 
d="M1976 -28q-173 0 -310.5 70t-217.5 192t-80 278h64q0 -138 72 -245.5t195.5 -169t276.5 -61.5q163 0 285 67t190.5 180t68.5 249q0 147 -78 258t-214.5 172.5t-311.5 61.5h-32v64h32q154 0 277 57t195 161t72 246q0 132 -62 236t-171.5 164t-254.5 60q-143 0 -254 -60.5
t-174.5 -168t-63.5 -247.5h-64q0 158 72 280t197.5 191t286.5 69t285.5 -68.5t195.5 -187t71 -268.5q0 -180 -103 -309t-277 -179v-8q201 -51 320.5 -190t119.5 -334q0 -157 -77.5 -284t-214.5 -201.5t-316 -74.5zM1956 -900q-319 0 -607.5 97t-529 273.5t-417 417
t-273.5 529t-97 607.5t97 607.5t273.5 529t417 417t529 273.5t607.5 97t607.5 -97t529 -273.5t417 -417t273.5 -529t97 -607.5t-97 -607.5t-273.5 -529t-417 -417t-529 -273.5t-607.5 -97zM1956 -836q308 0 587 94t511.5 264.5t403 403t264.5 511.5t94 587t-94 587
t-264.5 511.5t-403 403t-511.5 264.5t-587 94t-587 -94t-511.5 -264.5t-403 -403t-264.5 -511.5t-94 -587t94 -587t264.5 -511.5t403 -403t511.5 -264.5t587 -94z" />
    <glyph glyph-name="uni2463" unicode="&#x34;&#x20dd;" horiz-adv-x="3912" 
d="M1186 480v48l940 1520h40v-132h-48l-840 -1364v-8h1168v-64h-1260zM2126 0v500v20v1528h64v-2048h-64zM1956 -900q-319 0 -607.5 97t-529 273.5t-417 417t-273.5 529t-97 607.5t97 607.5t273.5 529t417 417t529 273.5t607.5 97t607.5 -97t529 -273.5t417 -417t273.5 -529
t97 -607.5t-97 -607.5t-273.5 -529t-417 -417t-529 -273.5t-607.5 -97zM1956 -836q308 0 587 94t511.5 264.5t403 403t264.5 511.5t94 587t-94 587t-264.5 511.5t-403 403t-511.5 264.5t-587 94t-587 -94t-511.5 -264.5t-403 -403t-264.5 -511.5t-94 -587t94 -587
t264.5 -511.5t403 -403t511.5 -264.5t587 -94z" />
    <glyph glyph-name="uni2464" unicode="&#x35;&#x20dd;" horiz-adv-x="3912" 
d="M1922 -28q-159 0 -281 69t-191 191t-68 280h64q-1 -210 130.5 -343t345.5 -133q161 0 284 79t192 215t68 306q-1 182 -76.5 315t-200 205t-271.5 72q-121 0 -219 -46t-169 -118l-96 16l120 968h908v-64h-852l-104 -848h8q77 71 179 113.5t225 42.5q165 0 304.5 -81.5
t224 -229t83.5 -345.5q-1 -190 -79 -340t-215 -237t-314 -87zM1956 -900q-319 0 -607.5 97t-529 273.5t-417 417t-273.5 529t-97 607.5t97 607.5t273.5 529t417 417t529 273.5t607.5 97t607.5 -97t529 -273.5t417 -417t273.5 -529t97 -607.5t-97 -607.5t-273.5 -529
t-417 -417t-529 -273.5t-607.5 -97zM1956 -836q308 0 587 94t511.5 264.5t403 403t264.5 511.5t94 587t-94 587t-264.5 511.5t-403 403t-511.5 264.5t-587 94t-587 -94t-511.5 -264.5t-403 -403t-264.5 -511.5t-94 -587t94 -587t264.5 -511.5t403 -403t511.5 -264.5t587 -94
z" />
    <glyph glyph-name="uni2465" unicode="&#x36;&#x20dd;" horiz-adv-x="3912" 
d="M1972 -28q-130 0 -241 59t-193.5 177.5t-128 298.5t-45.5 421q0 207 29.5 410.5t99.5 370.5t192 267t307 100q152 0 265 -68.5t179 -190t76 -281.5h-64q-15 211 -134.5 343.5t-321.5 132.5q-280 0 -422 -286.5t-142 -825.5h8q33 102 111.5 181.5t186.5 125t226 45.5
q161 0 294.5 -84t213.5 -229t80 -327q0 -170 -72.5 -316t-202 -235t-301.5 -89zM1972 36q148 0 263.5 78t182 209t66.5 289q0 162 -70.5 292.5t-190 207t-267.5 76.5q-117 0 -217 -48.5t-170.5 -133t-100.5 -193.5t-8 -229q34 -180 106.5 -302t176 -184t229.5 -62z
M1956 -900q-319 0 -607.5 97t-529 273.5t-417 417t-273.5 529t-97 607.5t97 607.5t273.5 529t417 417t529 273.5t607.5 97t607.5 -97t529 -273.5t417 -417t273.5 -529t97 -607.5t-97 -607.5t-273.5 -529t-417 -417t-529 -273.5t-607.5 -97zM1956 -836q308 0 587 94
t511.5 264.5t403 403t264.5 511.5t94 587t-94 587t-264.5 511.5t-403 403t-511.5 264.5t-587 94t-587 -94t-511.5 -264.5t-403 -403t-264.5 -511.5t-94 -587t94 -587t264.5 -511.5t403 -403t511.5 -264.5t587 -94z" />
    <glyph glyph-name="uni2466" unicode="&#x37;&#x20dd;" horiz-adv-x="3912" 
d="M1566 0l968 1976v8h-1112v64h1188v-64l-972 -1984h-72zM1956 -900q-319 0 -607.5 97t-529 273.5t-417 417t-273.5 529t-97 607.5t97 607.5t273.5 529t417 417t529 273.5t607.5 97t607.5 -97t529 -273.5t417 -417t273.5 -529t97 -607.5t-97 -607.5t-273.5 -529t-417 -417
t-529 -273.5t-607.5 -97zM1956 -836q308 0 587 94t511.5 264.5t403 403t264.5 511.5t94 587t-94 587t-264.5 511.5t-403 403t-511.5 264.5t-587 94t-587 -94t-511.5 -264.5t-403 -403t-264.5 -511.5t-94 -587t94 -587t264.5 -511.5t403 -403t511.5 -264.5t587 -94z" />
    <glyph glyph-name="uni2467" unicode="&#x38;&#x20dd;" horiz-adv-x="3912" 
d="M1956 -28q-176 0 -320.5 75t-230 201t-85.5 280q0 122 55.5 232t153 188.5t223.5 107.5v8q-159 55 -261.5 189t-102.5 303q0 146 76.5 263.5t205.5 187t286 69.5q155 0 284 -69t206.5 -186.5t77.5 -264.5q0 -167 -101 -302.5t-263 -189.5v-8q126 -27 223.5 -106
t153 -189.5t55.5 -232.5q0 -154 -85.5 -280t-230 -201t-320.5 -75zM1956 36q160 0 289.5 67.5t206 180t76.5 248.5t-76.5 248.5t-206 180t-289.5 67.5t-289.5 -67.5t-206 -180t-76.5 -248.5t76.5 -248.5t206.5 -180t289 -67.5zM1956 1084q139 0 253 65t182.5 172.5
t68.5 234.5q0 128 -68.5 231.5t-182.5 164t-253 60.5q-138 0 -252.5 -60.5t-183 -164t-68.5 -231.5q0 -127 68.5 -234.5t183 -172.5t252.5 -65zM1956 -900q-319 0 -607.5 97t-529 273.5t-417 417t-273.5 529t-97 607.5t97 607.5t273.5 529t417 417t529 273.5t607.5 97
t607.5 -97t529 -273.5t417 -417t273.5 -529t97 -607.5t-97 -607.5t-273.5 -529t-417 -417t-529 -273.5t-607.5 -97zM1956 -836q308 0 587 94t511.5 264.5t403 403t264.5 511.5t94 587t-94 587t-264.5 511.5t-403 403t-511.5 264.5t-587 94t-587 -94t-511.5 -264.5t-403 -403
t-264.5 -511.5t-94 -587t94 -587t264.5 -511.5t403 -403t511.5 -264.5t587 -94z" />
    <glyph glyph-name="uni2468" unicode="&#x39;&#x20dd;" horiz-adv-x="3912" 
d="M1940 2080q131 0 241.5 -59t193 -177.5t128 -298t45.5 -421.5q0 -207 -29 -411t-99 -372t-192 -268.5t-308 -100.5q-152 0 -265 69.5t-179 192t-76 282.5h64q15 -210 135 -345t321 -135q279 0 421.5 288t142.5 828h-8q-32 -102 -111 -181.5t-187 -125t-226 -45.5
q-162 0 -295.5 84t-213 229t-79.5 327q0 170 72.5 316t202 235t301.5 89zM1940 2016q-148 0 -263.5 -78t-182 -209t-66.5 -289q0 -162 70.5 -292.5t190 -207t267.5 -76.5q117 0 217 48.5t170.5 133.5t101 193.5t7.5 228.5q-34 180 -106.5 302t-176 184t-229.5 62zM1956 -900
q-319 0 -607.5 97t-529 273.5t-417 417t-273.5 529t-97 607.5t97 607.5t273.5 529t417 417t529 273.5t607.5 97t607.5 -97t529 -273.5t417 -417t273.5 -529t97 -607.5t-97 -607.5t-273.5 -529t-417 -417t-529 -273.5t-607.5 -97zM1956 -836q308 0 587 94t511.5 264.5
t403 403t264.5 511.5t94 587t-94 587t-264.5 511.5t-403 403t-511.5 264.5t-587 94t-587 -94t-511.5 -264.5t-403 -403t-264.5 -511.5t-94 -587t94 -587t264.5 -511.5t403 -403t511.5 -264.5t587 -94z" />
    <glyph glyph-name="uniE12B" unicode="&#xe06b;&#x20dd;" horiz-adv-x="3912" 
d="M2308 1884l44 -52l-800 -1604l-40 64zM1956 -32q-195 0 -335.5 127t-216.5 363t-76 562t76 562t216.5 363t335.5 127t335.5 -127t216.5 -363t76 -562t-76 -562t-216.5 -363t-335.5 -127zM1956 32q262 0 413 263t151 725q0 308 -68.5 529.5t-194.5 340t-301 118.5
q-262 0 -413 -263t-151 -725q0 -308 68.5 -529.5t195 -340t300.5 -118.5zM1956 -900q-319 0 -607.5 97t-529 273.5t-417 417t-273.5 529t-97 607.5t97 607.5t273.5 529t417 417t529 273.5t607.5 97t607.5 -97t529 -273.5t417 -417t273.5 -529t97 -607.5t-97 -607.5
t-273.5 -529t-417 -417t-529 -273.5t-607.5 -97zM1956 -836q308 0 587 94t511.5 264.5t403 403t264.5 511.5t94 587t-94 587t-264.5 511.5t-403 403t-511.5 264.5t-587 94t-587 -94t-511.5 -264.5t-403 -403t-264.5 -511.5t-94 -587t94 -587t264.5 -511.5t403 -403
t511.5 -264.5t587 -94z" />
    <glyph glyph-name="uniE12C" unicode="&#xe06c;&#x20dd;" horiz-adv-x="3912" 
d="M2068 2048v-2048h-64v1904h-16q-15 -21 -71 -77.5t-145.5 -107t-207.5 -55.5v64q102 5 183 51t138.5 106t90 108t36.5 55h56zM1956 -900q-319 0 -607.5 97t-529 273.5t-417 417t-273.5 529t-97 607.5t97 607.5t273.5 529t417 417t529 273.5t607.5 97t607.5 -97
t529 -273.5t417 -417t273.5 -529t97 -607.5t-97 -607.5t-273.5 -529t-417 -417t-529 -273.5t-607.5 -97zM1956 -836q308 0 587 94t511.5 264.5t403 403t264.5 511.5t94 587t-94 587t-264.5 511.5t-403 403t-511.5 264.5t-587 94t-587 -94t-511.5 -264.5t-403 -403
t-264.5 -511.5t-94 -587t94 -587t264.5 -511.5t403 -403t511.5 -264.5t587 -94z" />
    <glyph glyph-name="uniE12D" unicode="&#xe06d;&#x20dd;" horiz-adv-x="3912" 
d="M1348 512h64q0 -138 72 -245.5t195 -169t277 -61.5q173 0 294.5 74t185.5 195.5t64 262.5q0 158 -82 278.5t-243.5 189t-398.5 68.5h-4v64l644 808v8h-984v64h1080v-52l-656 -824v-8q159 -7 289 -50t223.5 -119.5t144.5 -184t51 -242.5q0 -162 -73.5 -297.5t-209.5 -217
t-325 -81.5q-172 0 -310 70t-218 192t-80 278zM1956 -900q-319 0 -607.5 97t-529 273.5t-417 417t-273.5 529t-97 607.5t97 607.5t273.5 529t417 417t529 273.5t607.5 97t607.5 -97t529 -273.5t417 -417t273.5 -529t97 -607.5t-97 -607.5t-273.5 -529t-417 -417t-529 -273.5
t-607.5 -97zM1956 -836q308 0 587 94t511.5 264.5t403 403t264.5 511.5t94 587t-94 587t-264.5 511.5t-403 403t-511.5 264.5t-587 94t-587 -94t-511.5 -264.5t-403 -403t-264.5 -511.5t-94 -587t94 -587t264.5 -511.5t403 -403t511.5 -264.5t587 -94z" />
    <glyph glyph-name="uniE12E" unicode="&#xe06e;&#x20dd;" horiz-adv-x="3912" 
d="M1226 480v48l936 1520h76l-920 -1496v-8h1168v-64h-1260zM2166 0v500v20v760h64v-1280h-64zM1956 -900q-319 0 -607.5 97t-529 273.5t-417 417t-273.5 529t-97 607.5t97 607.5t273.5 529t417 417t529 273.5t607.5 97t607.5 -97t529 -273.5t417 -417t273.5 -529t97 -607.5
t-97 -607.5t-273.5 -529t-417 -417t-529 -273.5t-607.5 -97zM1956 -836q308 0 587 94t511.5 264.5t403 403t264.5 511.5t94 587t-94 587t-264.5 511.5t-403 403t-511.5 264.5t-587 94t-587 -94t-511.5 -264.5t-403 -403t-264.5 -511.5t-94 -587t94 -587t264.5 -511.5
t403 -403t511.5 -264.5t587 -94z" />
    <glyph glyph-name="uniE12F" unicode="&#xe06f;&#x20dd;" horiz-adv-x="3912" 
d="M1364 612q0 78 17.5 149.5t48.5 136.5t70 122l708 1028h76l-596 -864q60 32 127.5 50t140.5 18q164 0 298 -86.5t214 -231.5t80 -322q0 -176 -80 -321.5t-214 -232t-298 -86.5q-163 0 -297.5 86.5t-214.5 232t-80 321.5zM1428 612q0 -159 71.5 -289.5t191.5 -208.5
t265 -78q146 0 265.5 78t191 208.5t71.5 289.5t-71.5 290t-191 208.5t-265.5 77.5q-145 0 -265 -77.5t-191.5 -208.5t-71.5 -290zM1956 -900q-319 0 -607.5 97t-529 273.5t-417 417t-273.5 529t-97 607.5t97 607.5t273.5 529t417 417t529 273.5t607.5 97t607.5 -97
t529 -273.5t417 -417t273.5 -529t97 -607.5t-97 -607.5t-273.5 -529t-417 -417t-529 -273.5t-607.5 -97zM1956 -836q308 0 587 94t511.5 264.5t403 403t264.5 511.5t94 587t-94 587t-264.5 511.5t-403 403t-511.5 264.5t-587 94t-587 -94t-511.5 -264.5t-403 -403
t-264.5 -511.5t-94 -587t94 -587t264.5 -511.5t403 -403t511.5 -264.5t587 -94z" />
    <glyph glyph-name="uniE130" unicode="&#xe070;&#x20dd;" horiz-adv-x="3912" 
d="M1364 1436q0 176 79.5 321.5t214 232t298.5 86.5t298.5 -86.5t214 -232t79.5 -321.5q0 -78 -17.5 -149.5t-48 -136t-70.5 -122.5l-708 -1028h-76l596 864q-60 -33 -128 -50.5t-140 -17.5q-164 0 -298.5 86.5t-214 232t-79.5 321.5zM1428 1436q0 -160 71 -290.5t191 -208
t266 -77.5t266 77.5t191 208t71 290.5q0 158 -71 289t-191 209t-266 78t-266 -78t-191 -209t-71 -289zM1956 -900q-319 0 -607.5 97t-529 273.5t-417 417t-273.5 529t-97 607.5t97 607.5t273.5 529t417 417t529 273.5t607.5 97t607.5 -97t529 -273.5t417 -417t273.5 -529
t97 -607.5t-97 -607.5t-273.5 -529t-417 -417t-529 -273.5t-607.5 -97zM1956 -836q308 0 587 94t511.5 264.5t403 403t264.5 511.5t94 587t-94 587t-264.5 511.5t-403 403t-511.5 264.5t-587 94t-587 -94t-511.5 -264.5t-403 -403t-264.5 -511.5t-94 -587t94 -587
t264.5 -511.5t403 -403t511.5 -264.5t587 -94z" />
    <glyph glyph-name="uniE131" unicode="&#x21;&#x20dd;" horiz-adv-x="3912" 
d="M1988 2048v-1440h-64v1440h64zM1956 -12q-30 0 -51 21t-21 51t21 51t51 21t51 -21t21 -51q0 -20 -9.5 -36.5t-26 -26t-36.5 -9.5zM1956 -900q-319 0 -607.5 97t-529 273.5t-417 417t-273.5 529t-97 607.5t97 607.5t273.5 529t417 417t529 273.5t607.5 97t607.5 -97
t529 -273.5t417 -417t273.5 -529t97 -607.5t-97 -607.5t-273.5 -529t-417 -417t-529 -273.5t-607.5 -97zM1956 -836q308 0 587 94t511.5 264.5t403 403t264.5 511.5t94 587t-94 587t-264.5 511.5t-403 403t-511.5 264.5t-587 94t-587 -94t-511.5 -264.5t-403 -403
t-264.5 -511.5t-94 -587t94 -587t264.5 -511.5t403 -403t511.5 -264.5t587 -94z" />
    <glyph glyph-name="uniE132" unicode="&#x3f;&#x20dd;" horiz-adv-x="3912" 
d="M1910 608v140q0 92 25 163t84.5 136t162.5 137q102 72 160.5 133.5t83 124t24.5 134.5q0 127 -60 225.5t-163.5 154.5t-232.5 56q-136 0 -242.5 -62.5t-168 -170t-61.5 -243.5h-64q0 154 70 276t191.5 193t274.5 71q147 0 264.5 -65t186.5 -177.5t69 -257.5
q0 -84 -28.5 -155.5t-93.5 -140.5t-174 -148q-95 -69 -148.5 -125.5t-74.5 -117t-21 -141.5v-140h-64zM1942 -12q-30 0 -51 21t-21 51t21 51t51 21t51 -21t21 -51q0 -20 -9.5 -36.5t-26 -26t-36.5 -9.5zM1956 -900q-319 0 -607.5 97t-529 273.5t-417 417t-273.5 529
t-97 607.5t97 607.5t273.5 529t417 417t529 273.5t607.5 97t607.5 -97t529 -273.5t417 -417t273.5 -529t97 -607.5t-97 -607.5t-273.5 -529t-417 -417t-529 -273.5t-607.5 -97zM1956 -836q308 0 587 94t511.5 264.5t403 403t264.5 511.5t94 587t-94 587t-264.5 511.5
t-403 403t-511.5 264.5t-587 94t-587 -94t-511.5 -264.5t-403 -403t-264.5 -511.5t-94 -587t94 -587t264.5 -511.5t403 -403t511.5 -264.5t587 -94z" />
    <glyph glyph-name="uniE133" unicode="&#x23;&#x20dd;" horiz-adv-x="3912" 
d="M2116 0l336 2048h64l-336 -2048h-64zM1128 636l12 64h1528l-12 -64h-1528zM1396 0l336 2048h64l-336 -2048h-64zM1244 1348l12 64h1528l-12 -64h-1528zM1956 -900q-319 0 -607.5 97t-529 273.5t-417 417t-273.5 529t-97 607.5t97 607.5t273.5 529t417 417t529 273.5
t607.5 97t607.5 -97t529 -273.5t417 -417t273.5 -529t97 -607.5t-97 -607.5t-273.5 -529t-417 -417t-529 -273.5t-607.5 -97zM1956 -836q308 0 587 94t511.5 264.5t403 403t264.5 511.5t94 587t-94 587t-264.5 511.5t-403 403t-511.5 264.5t-587 94t-587 -94t-511.5 -264.5
t-403 -403t-264.5 -511.5t-94 -587t94 -587t264.5 -511.5t403 -403t511.5 -264.5t587 -94z" />
    <glyph glyph-name="uniE134" unicode="&#x2d;&#x20dd;" horiz-adv-x="3912" 
d="M2338 1056v-64h-764v64h764zM1956 -900q-319 0 -607.5 97t-529 273.5t-417 417t-273.5 529t-97 607.5t97 607.5t273.5 529t417 417t529 273.5t607.5 97t607.5 -97t529 -273.5t417 -417t273.5 -529t97 -607.5t-97 -607.5t-273.5 -529t-417 -417t-529 -273.5t-607.5 -97z
M1956 -836q308 0 587 94t511.5 264.5t403 403t264.5 511.5t94 587t-94 587t-264.5 511.5t-403 403t-511.5 264.5t-587 94t-587 -94t-511.5 -264.5t-403 -403t-264.5 -511.5t-94 -587t94 -587t264.5 -511.5t403 -403t511.5 -264.5t587 -94z" />
    <glyph glyph-name="uniE135" unicode="&#x3c;&#x20dd;" horiz-adv-x="3912" 
d="M1368 992v64l1096 712v-76l-1036 -672l12 20v-32l-12 20l1036 -672v-76zM1956 -900q-319 0 -607.5 97t-529 273.5t-417 417t-273.5 529t-97 607.5t97 607.5t273.5 529t417 417t529 273.5t607.5 97t607.5 -97t529 -273.5t417 -417t273.5 -529t97 -607.5t-97 -607.5
t-273.5 -529t-417 -417t-529 -273.5t-607.5 -97zM1956 -836q308 0 587 94t511.5 264.5t403 403t264.5 511.5t94 587t-94 587t-264.5 511.5t-403 403t-511.5 264.5t-587 94t-587 -94t-511.5 -264.5t-403 -403t-264.5 -511.5t-94 -587t94 -587t264.5 -511.5t403 -403
t511.5 -264.5t587 -94z" />
    <glyph glyph-name="uniE136" unicode="&#x3e;&#x20dd;" horiz-adv-x="3912" 
d="M2544 992l-1096 -712v76l1036 672l-12 -20v32l12 -20l-1036 672v76l1096 -712v-64zM1956 -900q-319 0 -607.5 97t-529 273.5t-417 417t-273.5 529t-97 607.5t97 607.5t273.5 529t417 417t529 273.5t607.5 97t607.5 -97t529 -273.5t417 -417t273.5 -529t97 -607.5
t-97 -607.5t-273.5 -529t-417 -417t-529 -273.5t-607.5 -97zM1956 -836q308 0 587 94t511.5 264.5t403 403t264.5 511.5t94 587t-94 587t-264.5 511.5t-403 403t-511.5 264.5t-587 94t-587 -94t-511.5 -264.5t-403 -403t-264.5 -511.5t-94 -587t94 -587t264.5 -511.5
t403 -403t511.5 -264.5t587 -94z" />
    <glyph glyph-name="uniE137" unicode="&#x3d;&#x20dd;" horiz-adv-x="3912" 
d="M1480 1260v64h952v-64h-952zM1480 724v64h952v-64h-952zM1956 -900q-319 0 -607.5 97t-529 273.5t-417 417t-273.5 529t-97 607.5t97 607.5t273.5 529t417 417t529 273.5t607.5 97t607.5 -97t529 -273.5t417 -417t273.5 -529t97 -607.5t-97 -607.5t-273.5 -529t-417 -417
t-529 -273.5t-607.5 -97zM1956 -836q308 0 587 94t511.5 264.5t403 403t264.5 511.5t94 587t-94 587t-264.5 511.5t-403 403t-511.5 264.5t-587 94t-587 -94t-511.5 -264.5t-403 -403t-264.5 -511.5t-94 -587t94 -587t264.5 -511.5t403 -403t511.5 -264.5t587 -94z" />
    <glyph glyph-name="uni2295" unicode="&#x2b;&#x20dd;" horiz-adv-x="3912" 
d="M1924 444v1160h64v-1160h-64zM1376 992v64h1160v-64h-1160zM1956 -900q-319 0 -607.5 97t-529 273.5t-417 417t-273.5 529t-97 607.5t97 607.5t273.5 529t417 417t529 273.5t607.5 97t607.5 -97t529 -273.5t417 -417t273.5 -529t97 -607.5t-97 -607.5t-273.5 -529
t-417 -417t-529 -273.5t-607.5 -97zM1956 -836q308 0 587 94t511.5 264.5t403 403t264.5 511.5t94 587t-94 587t-264.5 511.5t-403 403t-511.5 264.5t-587 94t-587 -94t-511.5 -264.5t-403 -403t-264.5 -511.5t-94 -587t94 -587t264.5 -511.5t403 -403t511.5 -264.5t587 -94
z" />
    <glyph glyph-name="uni2296" unicode="&#x2212;&#x20dd;" horiz-adv-x="3912" 
d="M2536 1056v-64h-1160v64h1160zM1956 -900q-319 0 -607.5 97t-529 273.5t-417 417t-273.5 529t-97 607.5t97 607.5t273.5 529t417 417t529 273.5t607.5 97t607.5 -97t529 -273.5t417 -417t273.5 -529t97 -607.5t-97 -607.5t-273.5 -529t-417 -417t-529 -273.5t-607.5 -97z
M1956 -836q308 0 587 94t511.5 264.5t403 403t264.5 511.5t94 587t-94 587t-264.5 511.5t-403 403t-511.5 264.5t-587 94t-587 -94t-511.5 -264.5t-403 -403t-264.5 -511.5t-94 -587t94 -587t264.5 -511.5t403 -403t511.5 -264.5t587 -94z" />
    <glyph glyph-name="uni2297" unicode="&#xd7;&#x20dd;" horiz-adv-x="3912" 
d="M2497 421l-1128 1128l46 46l1128 -1128zM1415 421l-46 46l1128 1128l46 -46zM1956 -900q-319 0 -607.5 97t-529 273.5t-417 417t-273.5 529t-97 607.5t97 607.5t273.5 529t417 417t529 273.5t607.5 97t607.5 -97t529 -273.5t417 -417t273.5 -529t97 -607.5t-97 -607.5
t-273.5 -529t-417 -417t-529 -273.5t-607.5 -97zM1956 -836q308 0 587 94t511.5 264.5t403 403t264.5 511.5t94 587t-94 587t-264.5 511.5t-403 403t-511.5 264.5t-587 94t-587 -94t-511.5 -264.5t-403 -403t-264.5 -511.5t-94 -587t94 -587t264.5 -511.5t403 -403
t511.5 -264.5t587 -94z" />
    <glyph glyph-name="uni2A38" unicode="&#xf7;&#x20dd;" horiz-adv-x="3912" 
d="M2536 1056v-64h-1160v64h1160zM1956 496q-30 0 -51 21t-21 51t21 51t51 21t51 -21t21 -51t-21 -51t-51 -21zM1956 1408q-20 0 -36.5 9.5t-26 26t-9.5 36.5q0 30 21 51t51 21t51 -21t21 -51t-21 -51t-51 -21zM1956 -900q-319 0 -607.5 97t-529 273.5t-417 417t-273.5 529
t-97 607.5t97 607.5t273.5 529t417 417t529 273.5t607.5 97t607.5 -97t529 -273.5t417 -417t273.5 -529t97 -607.5t-97 -607.5t-273.5 -529t-417 -417t-529 -273.5t-607.5 -97zM1956 -836q308 0 587 94t511.5 264.5t403 403t264.5 511.5t94 587t-94 587t-264.5 511.5
t-403 403t-511.5 264.5t-587 94t-587 -94t-511.5 -264.5t-403 -403t-264.5 -511.5t-94 -587t94 -587t264.5 -511.5t403 -403t511.5 -264.5t587 -94z" />
    <glyph glyph-name="uniE138" unicode="&#x2191;&#x20dd;" horiz-adv-x="3912" 
d="M1926 0v1938l-820 -820l-46 46l898 896l896 -896l-44 -46l-820 820v-1938h-64zM1956 -900q-319 0 -607.5 97t-529 273.5t-417 417t-273.5 529t-97 607.5t97 607.5t273.5 529t417 417t529 273.5t607.5 97t607.5 -97t529 -273.5t417 -417t273.5 -529t97 -607.5t-97 -607.5
t-273.5 -529t-417 -417t-529 -273.5t-607.5 -97zM1956 -836q308 0 587 94t511.5 264.5t403 403t264.5 511.5t94 587t-94 587t-264.5 511.5t-403 403t-511.5 264.5t-587 94t-587 -94t-511.5 -264.5t-403 -403t-264.5 -511.5t-94 -587t94 -587t264.5 -511.5t403 -403
t511.5 -264.5t587 -94z" />
    <glyph glyph-name="uniE139" unicode="&#x2193;&#x20dd;" horiz-adv-x="3912" 
d="M1988 2048v-1938l820 820l46 -46l-898 -896l-896 896l44 46l820 -820v1938h64zM1956 -900q-319 0 -607.5 97t-529 273.5t-417 417t-273.5 529t-97 607.5t97 607.5t273.5 529t417 417t529 273.5t607.5 97t607.5 -97t529 -273.5t417 -417t273.5 -529t97 -607.5t-97 -607.5
t-273.5 -529t-417 -417t-529 -273.5t-607.5 -97zM1956 -836q308 0 587 94t511.5 264.5t403 403t264.5 511.5t94 587t-94 587t-264.5 511.5t-403 403t-511.5 264.5t-587 94t-587 -94t-511.5 -264.5t-403 -403t-264.5 -511.5t-94 -587t94 -587t264.5 -511.5t403 -403
t511.5 -264.5t587 -94z" />
    <glyph glyph-name="uniE13A" unicode="&#x2190;&#x20dd;" horiz-adv-x="3912" 
d="M1824 128l-896 896l896 896l46 -44l-820 -820h1936v-64h-1936l820 -818zM1956 -900q-319 0 -607.5 97t-529 273.5t-417 417t-273.5 529t-97 607.5t97 607.5t273.5 529t417 417t529 273.5t607.5 97t607.5 -97t529 -273.5t417 -417t273.5 -529t97 -607.5t-97 -607.5
t-273.5 -529t-417 -417t-529 -273.5t-607.5 -97zM1956 -836q308 0 587 94t511.5 264.5t403 403t264.5 511.5t94 587t-94 587t-264.5 511.5t-403 403t-511.5 264.5t-587 94t-587 -94t-511.5 -264.5t-403 -403t-264.5 -511.5t-94 -587t94 -587t264.5 -511.5t403 -403
t511.5 -264.5t587 -94z" />
    <glyph glyph-name="uniE13B" unicode="&#x2192;&#x20dd;" horiz-adv-x="3912" 
d="M2090 128l-46 46l820 818h-1936v64h1936l-820 820l46 44l896 -896zM1956 -900q-319 0 -607.5 97t-529 273.5t-417 417t-273.5 529t-97 607.5t97 607.5t273.5 529t417 417t529 273.5t607.5 97t607.5 -97t529 -273.5t417 -417t273.5 -529t97 -607.5t-97 -607.5t-273.5 -529
t-417 -417t-529 -273.5t-607.5 -97zM1956 -836q308 0 587 94t511.5 264.5t403 403t264.5 511.5t94 587t-94 587t-264.5 511.5t-403 403t-511.5 264.5t-587 94t-587 -94t-511.5 -264.5t-403 -403t-264.5 -511.5t-94 -587t94 -587t264.5 -511.5t403 -403t511.5 -264.5t587 -94
z" />
    <glyph glyph-name="uniE13C" unicode="&#x2713;&#x20dd;" horiz-adv-x="3912" 
d="M1088 1026l44 48l580 -576l1144 1140l48 -44l-1192 -1184zM1956 -900q-319 0 -607.5 97t-529 273.5t-417 417t-273.5 529t-97 607.5t97 607.5t273.5 529t417 417t529 273.5t607.5 97t607.5 -97t529 -273.5t417 -417t273.5 -529t97 -607.5t-97 -607.5t-273.5 -529
t-417 -417t-529 -273.5t-607.5 -97zM1956 -836q308 0 587 94t511.5 264.5t403 403t264.5 511.5t94 587t-94 587t-264.5 511.5t-403 403t-511.5 264.5t-587 94t-587 -94t-511.5 -264.5t-403 -403t-264.5 -511.5t-94 -587t94 -587t264.5 -511.5t403 -403t511.5 -264.5t587 -94
z" />
    <glyph glyph-name="uniE13D" unicode="&#x2717;&#x20dd;" horiz-adv-x="3912" 
d="M1390 418l-44 44l1172 1168l48 -44zM2522 418l-1176 1168l48 44l1172 -1168zM1956 -900q-319 0 -607.5 97t-529 273.5t-417 417t-273.5 529t-97 607.5t97 607.5t273.5 529t417 417t529 273.5t607.5 97t607.5 -97t529 -273.5t417 -417t273.5 -529t97 -607.5t-97 -607.5
t-273.5 -529t-417 -417t-529 -273.5t-607.5 -97zM1956 -836q308 0 587 94t511.5 264.5t403 403t264.5 511.5t94 587t-94 587t-264.5 511.5t-403 403t-511.5 264.5t-587 94t-587 -94t-511.5 -264.5t-403 -403t-264.5 -511.5t-94 -587t94 -587t264.5 -511.5t403 -403
t511.5 -264.5t587 -94z" />
    <glyph glyph-name="u1F130" unicode="A&#x20de;" horiz-adv-x="3912" 
d="M1248 0h-68l732 2048h88l732 -2048h-68l-704 1968h-8zM1480 756h952v-64h-952v64zM452 -826q-168 0 -256 88t-88 256v3024q0 168 88 256t256 88h3024q168 0 256 -88t88 -256v-3024q0 -168 -88 -256t-256 -88h-3024zM452 -762h3024q141 0 210.5 69.5t69.5 210.5v3024
q0 141 -69.5 210.5t-210.5 69.5h-3024q-141 0 -210.5 -69.5t-69.5 -210.5v-3024q0 -141 69.5 -210.5t210.5 -69.5z" />
    <glyph glyph-name="u1F131" unicode="B&#x20de;" horiz-adv-x="3912" 
d="M1412 0v2048h640q172 0 294.5 -62.5t188 -179t65.5 -278.5q0 -120 -36.5 -221t-106.5 -169.5t-169 -93.5v-8q111 -9 200 -77t140.5 -180t51.5 -255q0 -158 -66.5 -276t-192 -183t-301.5 -65h-708zM1476 64h644q225 0 360.5 126.5t135.5 333.5q0 142 -64 251t-175.5 171
t-256.5 62h-644v-944zM1476 1072h644q140 0 232 63t138 167t46 226q0 218 -130 337t-354 119h-576v-912zM444 -832q-168 0 -256 88t-88 256v3024q0 168 88 256t256 88h3024q168 0 256 -88t88 -256v-3024q0 -168 -88 -256t-256 -88h-3024zM444 -768h3024q141 0 210.5 69.5
t69.5 210.5v3024q0 141 -69.5 210.5t-210.5 69.5h-3024q-141 0 -210.5 -69.5t-69.5 -210.5v-3024q0 -141 69.5 -210.5t210.5 -69.5z" />
    <glyph glyph-name="u1F132" unicode="C&#x20de;" horiz-adv-x="3912" 
d="M2772 1408h-68q-19 102 -74 208t-146 196t-215 145t-281 55q-210 0 -388.5 -114.5t-287 -335t-108.5 -538.5q0 -322 108.5 -542t287 -333t388.5 -113q157 0 281 54.5t215 144t146 196t74 209.5h68q-19 -108 -76 -224.5t-154 -217.5t-235 -163.5t-319 -62.5
q-252 0 -443 132t-298 369t-107 551t107 551t298 369t443 132q181 0 319 -62t235 -162.5t154 -217t76 -226.5zM444 -832q-168 0 -256 88t-88 256v3024q0 168 88 256t256 88h3024q168 0 256 -88t88 -256v-3024q0 -168 -88 -256t-256 -88h-3024zM444 -768h3024
q141 0 210.5 69.5t69.5 210.5v3024q0 141 -69.5 210.5t-210.5 69.5h-3024q-141 0 -210.5 -69.5t-69.5 -210.5v-3024q0 -141 69.5 -210.5t210.5 -69.5z" />
    <glyph glyph-name="u1F133" unicode="D&#x20de;" horiz-adv-x="3912" 
d="M1828 0h-536v2048h588q283 0 484.5 -121.5t309 -348.5t106.5 -546q-1 -327 -113.5 -557.5t-325 -352.5t-513.5 -122zM1356 64h472q284 0 483 115.5t302.5 332.5t102.5 520q-1 299 -99.5 512t-284.5 326.5t-452 113.5h-524v-1920zM444 -832q-168 0 -256 88t-88 256v3024
q0 168 88 256t256 88h3024q168 0 256 -88t88 -256v-3024q0 -168 -88 -256t-256 -88h-3024zM444 -768h3024q141 0 210.5 69.5t69.5 210.5v3024q0 141 -69.5 210.5t-210.5 69.5h-3024q-141 0 -210.5 -69.5t-69.5 -210.5v-3024q0 -141 69.5 -210.5t210.5 -69.5z" />
    <glyph glyph-name="u1F134" unicode="E&#x20de;" horiz-adv-x="3912" 
d="M1396 0v2048h1092v-64h-1028v-928h968v-64h-968v-928h1056v-64h-1120zM444 -832q-168 0 -256 88t-88 256v3024q0 168 88 256t256 88h3024q168 0 256 -88t88 -256v-3024q0 -168 -88 -256t-256 -88h-3024zM444 -768h3024q141 0 210.5 69.5t69.5 210.5v3024
q0 141 -69.5 210.5t-210.5 69.5h-3024q-141 0 -210.5 -69.5t-69.5 -210.5v-3024q0 -141 69.5 -210.5t210.5 -69.5z" />
    <glyph glyph-name="u1F135" unicode="F&#x20de;" horiz-adv-x="3912" 
d="M1446 0v2048h1100v-64h-1036v-928h940v-64h-940v-992h-64zM444 -832q-168 0 -256 88t-88 256v3024q0 168 88 256t256 88h3024q168 0 256 -88t88 -256v-3024q0 -168 -88 -256t-256 -88h-3024zM444 -768h3024q141 0 210.5 69.5t69.5 210.5v3024q0 141 -69.5 210.5
t-210.5 69.5h-3024q-141 0 -210.5 -69.5t-69.5 -210.5v-3024q0 -141 69.5 -210.5t210.5 -69.5z" />
    <glyph glyph-name="u1F136" unicode="G&#x20de;" horiz-adv-x="3912" 
d="M2700 1408q-18 105 -73.5 211.5t-147 195.5t-216.5 143t-283 54q-235 0 -411.5 -123.5t-274.5 -346t-98 -518.5q0 -292 97 -515t275 -348t420 -125q214 0 380 101.5t259 292t89 458.5l28 -24h-736v64h772v-64q0 -280 -102 -479.5t-281 -306t-409 -106.5
q-260 0 -452.5 132.5t-298 369.5t-105.5 550q0 236 60.5 429.5t173 333t268.5 214.5t346 75q180 0 318 -62t235.5 -162.5t155 -217t75.5 -226.5h-64zM444 -832q-168 0 -256 88t-88 256v3024q0 168 88 256t256 88h3024q168 0 256 -88t88 -256v-3024q0 -168 -88 -256t-256 -88
h-3024zM444 -768h3024q141 0 210.5 69.5t69.5 210.5v3024q0 141 -69.5 210.5t-210.5 69.5h-3024q-141 0 -210.5 -69.5t-69.5 -210.5v-3024q0 -141 69.5 -210.5t210.5 -69.5z" />
    <glyph glyph-name="u1F137" unicode="H&#x20de;" horiz-adv-x="3912" 
d="M1240 0v2048h64v-992h1304v992h64v-2048h-64v992h-1304v-992h-64zM444 -832q-168 0 -256 88t-88 256v3024q0 168 88 256t256 88h3024q168 0 256 -88t88 -256v-3024q0 -168 -88 -256t-256 -88h-3024zM444 -768h3024q141 0 210.5 69.5t69.5 210.5v3024q0 141 -69.5 210.5
t-210.5 69.5h-3024q-141 0 -210.5 -69.5t-69.5 -210.5v-3024q0 -141 69.5 -210.5t210.5 -69.5z" />
    <glyph glyph-name="u1F138" unicode="I&#x20de;" horiz-adv-x="3912" 
d="M1988 2048v-2048h-64v2048h64zM444 -832q-168 0 -256 88t-88 256v3024q0 168 88 256t256 88h3024q168 0 256 -88t88 -256v-3024q0 -168 -88 -256t-256 -88h-3024zM444 -768h3024q141 0 210.5 69.5t69.5 210.5v3024q0 141 -69.5 210.5t-210.5 69.5h-3024
q-141 0 -210.5 -69.5t-69.5 -210.5v-3024q0 -141 69.5 -210.5t210.5 -69.5z" />
    <glyph glyph-name="u1F139" unicode="J&#x20de;" horiz-adv-x="3912" 
d="M2328 2048h64v-1504q-1 -208 -70.5 -333.5t-182 -182t-243.5 -56.5q-141 0 -253.5 54t-178 147t-64.5 211h64q-1 -100 56 -178.5t155.5 -124t220.5 -45.5q112 0 210.5 48t159.5 159t62 301v1504zM444 -832q-168 0 -256 88t-88 256v3024q0 168 88 256t256 88h3024
q168 0 256 -88t88 -256v-3024q0 -168 -88 -256t-256 -88h-3024zM444 -768h3024q141 0 210.5 69.5t69.5 210.5v3024q0 141 -69.5 210.5t-210.5 69.5h-3024q-141 0 -210.5 -69.5t-69.5 -210.5v-3024q0 -141 69.5 -210.5t210.5 -69.5z" />
    <glyph glyph-name="u1F13A" unicode="K&#x20de;" horiz-adv-x="3912" 
d="M1336 0v2048h64v-1276h8l1160 1276h88l-904 -992l892 -1056h-84l-852 1008l-308 -340v-668h-64zM444 -832q-168 0 -256 88t-88 256v3024q0 168 88 256t256 88h3024q168 0 256 -88t88 -256v-3024q0 -168 -88 -256t-256 -88h-3024zM444 -768h3024q141 0 210.5 69.5
t69.5 210.5v3024q0 141 -69.5 210.5t-210.5 69.5h-3024q-141 0 -210.5 -69.5t-69.5 -210.5v-3024q0 -141 69.5 -210.5t210.5 -69.5z" />
    <glyph glyph-name="u1F13B" unicode="L&#x20de;" horiz-adv-x="3912" 
d="M1452 0v2048h64v-1984h1024v-64h-1088zM444 -832q-168 0 -256 88t-88 256v3024q0 168 88 256t256 88h3024q168 0 256 -88t88 -256v-3024q0 -168 -88 -256t-256 -88h-3024zM444 -768h3024q141 0 210.5 69.5t69.5 210.5v3024q0 141 -69.5 210.5t-210.5 69.5h-3024
q-141 0 -210.5 -69.5t-69.5 -210.5v-3024q0 -141 69.5 -210.5t210.5 -69.5z" />
    <glyph glyph-name="u1F13C" unicode="M&#x20de;" horiz-adv-x="3912" 
d="M1060 2048h56l836 -1952h8l836 1952h56v-2048h-64v1848h-8l-792 -1848h-64l-792 1848h-8v-1848h-64v2048zM444 -832q-168 0 -256 88t-88 256v3024q0 168 88 256t256 88h3024q168 0 256 -88t88 -256v-3024q0 -168 -88 -256t-256 -88h-3024zM444 -768h3024
q141 0 210.5 69.5t69.5 210.5v3024q0 141 -69.5 210.5t-210.5 69.5h-3024q-141 0 -210.5 -69.5t-69.5 -210.5v-3024q0 -141 69.5 -210.5t210.5 -69.5z" />
    <glyph glyph-name="u1F13D" unicode="N&#x20de;" horiz-adv-x="3912" 
d="M2724 2048v-2048h-64l-1400 1928h-8v-1928h-64v2048h64l1400 -1928h8v1928h64zM444 -832q-168 0 -256 88t-88 256v3024q0 168 88 256t256 88h3024q168 0 256 -88t88 -256v-3024q0 -168 -88 -256t-256 -88h-3024zM444 -768h3024q141 0 210.5 69.5t69.5 210.5v3024
q0 141 -69.5 210.5t-210.5 69.5h-3024q-141 0 -210.5 -69.5t-69.5 -210.5v-3024q0 -141 69.5 -210.5t210.5 -69.5z" />
    <glyph glyph-name="u1F13E" unicode="O&#x20de;" horiz-adv-x="3912" 
d="M2804 1024q0 -313 -107 -550t-298 -369.5t-443 -132.5q-253 0 -444 133t-297.5 370t-106.5 549q0 313 107 549.5t298 369.5t443 133t443 -132.5t298 -369.5t107 -550zM2740 1024q0 294 -99 516.5t-275.5 347t-409.5 124.5q-232 0 -408.5 -123.5t-276 -346t-99.5 -518.5
q0 -292 98 -514.5t274.5 -348t411.5 -125.5q233 0 410 124.5t276 347t98 516.5zM444 -832q-168 0 -256 88t-88 256v3024q0 168 88 256t256 88h3024q168 0 256 -88t88 -256v-3024q0 -168 -88 -256t-256 -88h-3024zM444 -768h3024q141 0 210.5 69.5t69.5 210.5v3024
q0 141 -69.5 210.5t-210.5 69.5h-3024q-141 0 -210.5 -69.5t-69.5 -210.5v-3024q0 -141 69.5 -210.5t210.5 -69.5z" />
    <glyph glyph-name="u1F13F" unicode="P&#x20de;" horiz-adv-x="3912" 
d="M1452 0v2048h600q172 0 304.5 -77t208 -212t75.5 -311q0 -174 -75.5 -308.5t-208 -211t-304.5 -76.5h-568v64h568q154 0 272 68t185 188t67 276q0 157 -67 278t-185 189.5t-272 68.5h-536v-1984h-64zM444 -832q-168 0 -256 88t-88 256v3024q0 168 88 256t256 88h3024
q168 0 256 -88t88 -256v-3024q0 -168 -88 -256t-256 -88h-3024zM444 -768h3024q141 0 210.5 69.5t69.5 210.5v3024q0 141 -69.5 210.5t-210.5 69.5h-3024q-141 0 -210.5 -69.5t-69.5 -210.5v-3024q0 -141 69.5 -210.5t210.5 -69.5z" />
    <glyph glyph-name="u1F140" unicode="Q&#x20de;" horiz-adv-x="3912" 
d="M2036 640h80l332 -440l12 -16l284 -376h-80l-260 344l-12 16zM2804 1024q0 -313 -107 -550t-298 -369.5t-443 -132.5q-253 0 -444 133t-297.5 370t-106.5 549q0 313 107 549.5t298 369.5t443 133t443 -132.5t298 -369.5t107 -550zM2740 1024q0 294 -99 516.5t-275.5 347
t-409.5 124.5q-232 0 -408.5 -123.5t-276 -346t-99.5 -518.5q0 -292 98 -514.5t274.5 -348t411.5 -125.5q233 0 410 124.5t276 347t98 516.5zM444 -832q-168 0 -256 88t-88 256v3024q0 168 88 256t256 88h3024q168 0 256 -88t88 -256v-3024q0 -168 -88 -256t-256 -88h-3024z
M444 -768h3024q141 0 210.5 69.5t69.5 210.5v3024q0 141 -69.5 210.5t-210.5 69.5h-3024q-141 0 -210.5 -69.5t-69.5 -210.5v-3024q0 -141 69.5 -210.5t210.5 -69.5z" />
    <glyph glyph-name="u1F141" unicode="R&#x20de;" horiz-adv-x="3912" 
d="M1414 0v2048h600q172 0 304.5 -73t208 -204t75.5 -307q0 -174 -75.5 -304.5t-208 -203t-304.5 -72.5h-568v64h568q154 0 272 64t185 180t67 272q0 157 -67 274t-185 181.5t-272 64.5h-536v-1984h-64zM2194 932l504 -932h-72l-504 932h72zM444 -832q-168 0 -256 88
t-88 256v3024q0 168 88 256t256 88h3024q168 0 256 -88t88 -256v-3024q0 -168 -88 -256t-256 -88h-3024zM444 -768h3024q141 0 210.5 69.5t69.5 210.5v3024q0 141 -69.5 210.5t-210.5 69.5h-3024q-141 0 -210.5 -69.5t-69.5 -210.5v-3024q0 -141 69.5 -210.5t210.5 -69.5z
" />
    <glyph glyph-name="u1F142" unicode="S&#x20de;" horiz-adv-x="3912" 
d="M2510 1536q-15 210 -160.5 345t-383.5 135q-156 0 -279 -60t-194 -164.5t-71 -239.5q0 -78 26 -144t79.5 -120.5t135 -98t191.5 -77.5l232 -72q133 -41 230 -92t160.5 -114.5t94.5 -141t31 -172.5q0 -160 -82 -285t-229 -196t-341 -71q-187 0 -327 65.5t-221.5 181
t-91.5 265.5h64q10 -132 83 -233t198.5 -158t294.5 -57q176 0 308.5 61.5t206 171.5t73.5 255q0 110 -48 193.5t-151 147.5t-269 115l-232 72q-241 76 -360.5 201t-119.5 303q0 151 79 270.5t216.5 188.5t312.5 69q176 0 309 -70t211 -193t88 -281h-64zM444 -832
q-168 0 -256 88t-88 256v3024q0 168 88 256t256 88h3024q168 0 256 -88t88 -256v-3024q0 -168 -88 -256t-256 -88h-3024zM444 -768h3024q141 0 210.5 69.5t69.5 210.5v3024q0 141 -69.5 210.5t-210.5 69.5h-3024q-141 0 -210.5 -69.5t-69.5 -210.5v-3024q0 -141 69.5 -210.5
t210.5 -69.5z" />
    <glyph glyph-name="u1F143" unicode="T&#x20de;" horiz-adv-x="3912" 
d="M1264 1984v64h1384v-64h-660v-1984h-64v1984h-660zM444 -832q-168 0 -256 88t-88 256v3024q0 168 88 256t256 88h3024q168 0 256 -88t88 -256v-3024q0 -168 -88 -256t-256 -88h-3024zM444 -768h3024q141 0 210.5 69.5t69.5 210.5v3024q0 141 -69.5 210.5t-210.5 69.5
h-3024q-141 0 -210.5 -69.5t-69.5 -210.5v-3024q0 -141 69.5 -210.5t210.5 -69.5z" />
    <glyph glyph-name="u1F144" unicode="U&#x20de;" horiz-adv-x="3912" 
d="M2628 2048h64v-1356q0 -208 -96.5 -371.5t-262.5 -258t-377 -94.5q-209 0 -376 95t-264 258.5t-96 370.5v1356h64v-1356q0 -190 87.5 -339t239.5 -235t345 -86t345 86t239.5 235t87.5 339v1356zM444 -832q-168 0 -256 88t-88 256v3024q0 168 88 256t256 88h3024
q168 0 256 -88t88 -256v-3024q0 -168 -88 -256t-256 -88h-3024zM444 -768h3024q141 0 210.5 69.5t69.5 210.5v3024q0 141 -69.5 210.5t-210.5 69.5h-3024q-141 0 -210.5 -69.5t-69.5 -210.5v-3024q0 -141 69.5 -210.5t210.5 -69.5z" />
    <glyph glyph-name="u1F145" unicode="V&#x20de;" horiz-adv-x="3912" 
d="M1248 2048l704 -1968h8l704 1968h68l-732 -2048h-88l-732 2048h68zM444 -832q-168 0 -256 88t-88 256v3024q0 168 88 256t256 88h3024q168 0 256 -88t88 -256v-3024q0 -168 -88 -256t-256 -88h-3024zM444 -768h3024q141 0 210.5 69.5t69.5 210.5v3024q0 141 -69.5 210.5
t-210.5 69.5h-3024q-141 0 -210.5 -69.5t-69.5 -210.5v-3024q0 -141 69.5 -210.5t210.5 -69.5z" />
    <glyph glyph-name="u1F146" unicode="W&#x20de;" horiz-adv-x="3912" 
d="M1344 0l-564 2048h68l536 -1948h8l520 1948h88l520 -1948h8l536 1948h68l-564 -2048h-88l-520 1948h-8l-520 -1948h-88zM444 -832q-168 0 -256 88t-88 256v3024q0 168 88 256t256 88h3024q168 0 256 -88t88 -256v-3024q0 -168 -88 -256t-256 -88h-3024zM444 -768h3024
q141 0 210.5 69.5t69.5 210.5v3024q0 141 -69.5 210.5t-210.5 69.5h-3024q-141 0 -210.5 -69.5t-69.5 -210.5v-3024q0 -141 69.5 -210.5t210.5 -69.5z" />
    <glyph glyph-name="u1F147" unicode="X&#x20de;" horiz-adv-x="3912" 
d="M1308 2048l644 -964h8l644 964h80l-688 -1024l688 -1024h-80l-644 964h-8l-644 -964h-80l688 1024l-688 1024h80zM444 -832q-168 0 -256 88t-88 256v3024q0 168 88 256t256 88h3024q168 0 256 -88t88 -256v-3024q0 -168 -88 -256t-256 -88h-3024zM444 -768h3024
q141 0 210.5 69.5t69.5 210.5v3024q0 141 -69.5 210.5t-210.5 69.5h-3024q-141 0 -210.5 -69.5t-69.5 -210.5v-3024q0 -141 69.5 -210.5t210.5 -69.5z" />
    <glyph glyph-name="u1F148" unicode="Y&#x20de;" horiz-adv-x="3912" 
d="M1188 2048h80l684 -1004h8l684 1004h80l-736 -1076v-972h-64v972zM444 -832q-168 0 -256 88t-88 256v3024q0 168 88 256t256 88h3024q168 0 256 -88t88 -256v-3024q0 -168 -88 -256t-256 -88h-3024zM444 -768h3024q141 0 210.5 69.5t69.5 210.5v3024q0 141 -69.5 210.5
t-210.5 69.5h-3024q-141 0 -210.5 -69.5t-69.5 -210.5v-3024q0 -141 69.5 -210.5t210.5 -69.5z" />
    <glyph glyph-name="u1F149" unicode="Z&#x20de;" horiz-adv-x="3912" 
d="M1312 0v64l1204 1920h-1196v64h1272v-64l-1204 -1920h1212v-64h-1288zM444 -832q-168 0 -256 88t-88 256v3024q0 168 88 256t256 88h3024q168 0 256 -88t88 -256v-3024q0 -168 -88 -256t-256 -88h-3024zM444 -768h3024q141 0 210.5 69.5t69.5 210.5v3024
q0 141 -69.5 210.5t-210.5 69.5h-3024q-141 0 -210.5 -69.5t-69.5 -210.5v-3024q0 -141 69.5 -210.5t210.5 -69.5z" />
    <glyph glyph-name="uniE13E" unicode="&#x30;&#x20de;" horiz-adv-x="3912" 
d="M1956 -28q-195 0 -335.5 127t-216.5 363t-76 562t76 562t216.5 363t335.5 127t335.5 -127t216.5 -363t76 -562t-76 -562t-216.5 -363t-335.5 -127zM1956 36q262 0 413 263t151 725q0 308 -68.5 529.5t-194.5 340t-301 118.5q-262 0 -413 -263t-151 -725
q0 -308 68.5 -529.5t195 -340t300.5 -118.5zM444 -832q-168 0 -256 88t-88 256v3024q0 168 88 256t256 88h3024q168 0 256 -88t88 -256v-3024q0 -168 -88 -256t-256 -88h-3024zM444 -768h3024q141 0 210.5 69.5t69.5 210.5v3024q0 141 -69.5 210.5t-210.5 69.5h-3024
q-141 0 -210.5 -69.5t-69.5 -210.5v-3024q0 -141 69.5 -210.5t210.5 -69.5z" />
    <glyph glyph-name="uniE13F" unicode="&#x31;&#x20de;" horiz-adv-x="3912" 
d="M2034 2048v-2048h-64v1980h-12l-440 -292v76l428 284h88zM444 -832q-168 0 -256 88t-88 256v3024q0 168 88 256t256 88h3024q168 0 256 -88t88 -256v-3024q0 -168 -88 -256t-256 -88h-3024zM444 -768h3024q141 0 210.5 69.5t69.5 210.5v3024q0 141 -69.5 210.5
t-210.5 69.5h-3024q-141 0 -210.5 -69.5t-69.5 -210.5v-3024q0 -141 69.5 -210.5t210.5 -69.5z" />
    <glyph glyph-name="uniE140" unicode="&#x32;&#x20de;" horiz-adv-x="3912" 
d="M1338 0v52l656 776q154 182 240 304.5t121 218t35 197.5q0 134 -61.5 239t-168 165t-242.5 60q-142 0 -250 -64.5t-169 -172.5t-61 -239h-64q0 149 69.5 271.5t192 195.5t282.5 73q154 0 275 -68.5t191 -188t70 -271.5q0 -113 -37.5 -216t-127 -230t-247.5 -314
l-604 -716v-8h1136v-64h-1236zM444 -832q-168 0 -256 88t-88 256v3024q0 168 88 256t256 88h3024q168 0 256 -88t88 -256v-3024q0 -168 -88 -256t-256 -88h-3024zM444 -768h3024q141 0 210.5 69.5t69.5 210.5v3024q0 141 -69.5 210.5t-210.5 69.5h-3024q-141 0 -210.5 -69.5
t-69.5 -210.5v-3024q0 -141 69.5 -210.5t210.5 -69.5z" />
    <glyph glyph-name="uniE141" unicode="&#x33;&#x20de;" horiz-adv-x="3912" 
d="M1956 -28q-173 0 -310.5 70t-217.5 192t-80 278h64q0 -138 72 -245.5t195.5 -169t276.5 -61.5q163 0 285 67t190.5 180t68.5 249q0 147 -78 258t-214.5 172.5t-311.5 61.5h-32v64h32q154 0 277 57t195 161t72 246q0 132 -62 236t-171.5 164t-254.5 60q-143 0 -254 -60.5
t-174.5 -168t-63.5 -247.5h-64q0 158 72 280t197.5 191t286.5 69t285.5 -68.5t195.5 -187t71 -268.5q0 -180 -103 -309t-277 -179v-8q201 -51 320.5 -190t119.5 -334q0 -157 -77.5 -284t-214.5 -201.5t-316 -74.5zM444 -832q-168 0 -256 88t-88 256v3024q0 168 88 256
t256 88h3024q168 0 256 -88t88 -256v-3024q0 -168 -88 -256t-256 -88h-3024zM444 -768h3024q141 0 210.5 69.5t69.5 210.5v3024q0 141 -69.5 210.5t-210.5 69.5h-3024q-141 0 -210.5 -69.5t-69.5 -210.5v-3024q0 -141 69.5 -210.5t210.5 -69.5z" />
    <glyph glyph-name="uniE142" unicode="&#x34;&#x20de;" horiz-adv-x="3912" 
d="M1226 480v48l940 1520h40v-132h-48l-840 -1364v-8h1168v-64h-1260zM2166 0v500v20v1528h64v-2048h-64zM444 -832q-168 0 -256 88t-88 256v3024q0 168 88 256t256 88h3024q168 0 256 -88t88 -256v-3024q0 -168 -88 -256t-256 -88h-3024zM444 -768h3024q141 0 210.5 69.5
t69.5 210.5v3024q0 141 -69.5 210.5t-210.5 69.5h-3024q-141 0 -210.5 -69.5t-69.5 -210.5v-3024q0 -141 69.5 -210.5t210.5 -69.5z" />
    <glyph glyph-name="uniE143" unicode="&#x35;&#x20de;" horiz-adv-x="3912" 
d="M1922 -28q-159 0 -281 69t-191 191t-68 280h64q-1 -210 130.5 -343t345.5 -133q161 0 284 79t192 215t68 306q-1 182 -76.5 315t-200 205t-271.5 72q-121 0 -219 -46t-169 -118l-96 16l120 968h908v-64h-852l-104 -848h8q77 71 179 113.5t225 42.5q165 0 304.5 -81.5
t224 -229t83.5 -345.5q-1 -190 -79 -340t-215 -237t-314 -87zM444 -832q-168 0 -256 88t-88 256v3024q0 168 88 256t256 88h3024q168 0 256 -88t88 -256v-3024q0 -168 -88 -256t-256 -88h-3024zM444 -768h3024q141 0 210.5 69.5t69.5 210.5v3024q0 141 -69.5 210.5
t-210.5 69.5h-3024q-141 0 -210.5 -69.5t-69.5 -210.5v-3024q0 -141 69.5 -210.5t210.5 -69.5z" />
    <glyph glyph-name="uniE144" unicode="&#x36;&#x20de;" horiz-adv-x="3912" 
d="M1972 -28q-130 0 -241 59t-193.5 177.5t-128 298.5t-45.5 421q0 207 29.5 410.5t99.5 370.5t192 267t307 100q152 0 265 -68.5t179 -190t76 -281.5h-64q-15 211 -134.5 343.5t-321.5 132.5q-280 0 -422 -286.5t-142 -825.5h8q33 102 111.5 181.5t186.5 125t226 45.5
q161 0 294.5 -84t213.5 -229t80 -327q0 -170 -72.5 -316t-202 -235t-301.5 -89zM1972 36q148 0 263.5 78t182 209t66.5 289q0 162 -70.5 292.5t-190 207t-267.5 76.5q-117 0 -217 -48.5t-170.5 -133t-100.5 -193.5t-8 -229q34 -180 106.5 -302t176 -184t229.5 -62zM444 -832
q-168 0 -256 88t-88 256v3024q0 168 88 256t256 88h3024q168 0 256 -88t88 -256v-3024q0 -168 -88 -256t-256 -88h-3024zM444 -768h3024q141 0 210.5 69.5t69.5 210.5v3024q0 141 -69.5 210.5t-210.5 69.5h-3024q-141 0 -210.5 -69.5t-69.5 -210.5v-3024q0 -141 69.5 -210.5
t210.5 -69.5z" />
    <glyph glyph-name="uniE145" unicode="&#x37;&#x20de;" horiz-adv-x="3912" 
d="M1566 0l968 1976v8h-1112v64h1188v-64l-972 -1984h-72zM444 -832q-168 0 -256 88t-88 256v3024q0 168 88 256t256 88h3024q168 0 256 -88t88 -256v-3024q0 -168 -88 -256t-256 -88h-3024zM444 -768h3024q141 0 210.5 69.5t69.5 210.5v3024q0 141 -69.5 210.5t-210.5 69.5
h-3024q-141 0 -210.5 -69.5t-69.5 -210.5v-3024q0 -141 69.5 -210.5t210.5 -69.5z" />
    <glyph glyph-name="uniE146" unicode="&#x38;&#x20de;" horiz-adv-x="3912" 
d="M1956 -28q-176 0 -320.5 75t-230 201t-85.5 280q0 122 55.5 232t153 188.5t223.5 107.5v8q-159 55 -261.5 189t-102.5 303q0 146 76.5 263.5t205.5 187t286 69.5q155 0 284 -69t206.5 -186.5t77.5 -264.5q0 -167 -101 -302.5t-263 -189.5v-8q126 -27 223.5 -106
t153 -189.5t55.5 -232.5q0 -154 -85.5 -280t-230 -201t-320.5 -75zM1956 36q160 0 289.5 67.5t206 180t76.5 248.5t-76.5 248.5t-206 180t-289.5 67.5t-289.5 -67.5t-206 -180t-76.5 -248.5t76.5 -248.5t206.5 -180t289 -67.5zM1956 1084q139 0 253 65t182.5 172.5
t68.5 234.5q0 128 -68.5 231.5t-182.5 164t-253 60.5q-138 0 -252.5 -60.5t-183 -164t-68.5 -231.5q0 -127 68.5 -234.5t183 -172.5t252.5 -65zM444 -832q-168 0 -256 88t-88 256v3024q0 168 88 256t256 88h3024q168 0 256 -88t88 -256v-3024q0 -168 -88 -256t-256 -88
h-3024zM444 -768h3024q141 0 210.5 69.5t69.5 210.5v3024q0 141 -69.5 210.5t-210.5 69.5h-3024q-141 0 -210.5 -69.5t-69.5 -210.5v-3024q0 -141 69.5 -210.5t210.5 -69.5z" />
    <glyph glyph-name="uniE147" unicode="&#x39;&#x20de;" horiz-adv-x="3912" 
d="M1940 2080q131 0 241.5 -59t193 -177.5t128 -298t45.5 -421.5q0 -207 -29 -411t-99 -372t-192 -268.5t-308 -100.5q-152 0 -265 69.5t-179 192t-76 282.5h64q15 -210 135 -345t321 -135q279 0 421.5 288t142.5 828h-8q-32 -102 -111 -181.5t-187 -125t-226 -45.5
q-162 0 -295.5 84t-213 229t-79.5 327q0 170 72.5 316t202 235t301.5 89zM1940 2016q-148 0 -263.5 -78t-182 -209t-66.5 -289q0 -162 70.5 -292.5t190 -207t267.5 -76.5q117 0 217 48.5t170.5 133.5t101 193.5t7.5 228.5q-34 180 -106.5 302t-176 184t-229.5 62zM444 -832
q-168 0 -256 88t-88 256v3024q0 168 88 256t256 88h3024q168 0 256 -88t88 -256v-3024q0 -168 -88 -256t-256 -88h-3024zM444 -768h3024q141 0 210.5 69.5t69.5 210.5v3024q0 141 -69.5 210.5t-210.5 69.5h-3024q-141 0 -210.5 -69.5t-69.5 -210.5v-3024q0 -141 69.5 -210.5
t210.5 -69.5z" />
    <glyph glyph-name="uniE148" unicode="&#xe06b;&#x20de;" horiz-adv-x="3912" 
d="M2308 1884l44 -52l-800 -1604l-40 64zM1956 -32q-195 0 -335.5 127t-216.5 363t-76 562t76 562t216.5 363t335.5 127t335.5 -127t216.5 -363t76 -562t-76 -562t-216.5 -363t-335.5 -127zM1956 32q262 0 413 263t151 725q0 308 -68.5 529.5t-194.5 340t-301 118.5
q-262 0 -413 -263t-151 -725q0 -308 68.5 -529.5t195 -340t300.5 -118.5zM444 -832q-168 0 -256 88t-88 256v3024q0 168 88 256t256 88h3024q168 0 256 -88t88 -256v-3024q0 -168 -88 -256t-256 -88h-3024zM444 -768h3024q141 0 210.5 69.5t69.5 210.5v3024
q0 141 -69.5 210.5t-210.5 69.5h-3024q-141 0 -210.5 -69.5t-69.5 -210.5v-3024q0 -141 69.5 -210.5t210.5 -69.5z" />
    <glyph glyph-name="uniE149" unicode="&#xe06c;&#x20de;" horiz-adv-x="3912" 
d="M2068 2048v-2048h-64v1904h-16q-15 -21 -71 -77.5t-145.5 -107t-207.5 -55.5v64q102 5 183 51t138.5 106t90 108t36.5 55h56zM444 -832q-168 0 -256 88t-88 256v3024q0 168 88 256t256 88h3024q168 0 256 -88t88 -256v-3024q0 -168 -88 -256t-256 -88h-3024zM444 -768
h3024q141 0 210.5 69.5t69.5 210.5v3024q0 141 -69.5 210.5t-210.5 69.5h-3024q-141 0 -210.5 -69.5t-69.5 -210.5v-3024q0 -141 69.5 -210.5t210.5 -69.5z" />
    <glyph glyph-name="uniE14A" unicode="&#xe06d;&#x20de;" horiz-adv-x="3912" 
d="M1348 512h64q0 -138 72 -245.5t195 -169t277 -61.5q173 0 294.5 74t185.5 195.5t64 262.5q0 158 -82 278.5t-243.5 189t-398.5 68.5h-4v64l644 808v8h-984v64h1080v-52l-656 -824v-8q159 -7 289 -50t223.5 -119.5t144.5 -184t51 -242.5q0 -162 -73.5 -297.5t-209.5 -217
t-325 -81.5q-172 0 -310 70t-218 192t-80 278zM444 -832q-168 0 -256 88t-88 256v3024q0 168 88 256t256 88h3024q168 0 256 -88t88 -256v-3024q0 -168 -88 -256t-256 -88h-3024zM444 -768h3024q141 0 210.5 69.5t69.5 210.5v3024q0 141 -69.5 210.5t-210.5 69.5h-3024
q-141 0 -210.5 -69.5t-69.5 -210.5v-3024q0 -141 69.5 -210.5t210.5 -69.5z" />
    <glyph glyph-name="uniE14B" unicode="&#xe06e;&#x20de;" horiz-adv-x="3912" 
d="M1226 480v48l936 1520h76l-920 -1496v-8h1168v-64h-1260zM2166 0v500v20v760h64v-1280h-64zM444 -832q-168 0 -256 88t-88 256v3024q0 168 88 256t256 88h3024q168 0 256 -88t88 -256v-3024q0 -168 -88 -256t-256 -88h-3024zM444 -768h3024q141 0 210.5 69.5t69.5 210.5
v3024q0 141 -69.5 210.5t-210.5 69.5h-3024q-141 0 -210.5 -69.5t-69.5 -210.5v-3024q0 -141 69.5 -210.5t210.5 -69.5z" />
    <glyph glyph-name="uniE14C" unicode="&#xe06f;&#x20de;" horiz-adv-x="3912" 
d="M1364 612q0 78 17.5 149.5t48.5 136.5t70 122l708 1028h76l-596 -864q60 32 127.5 50t140.5 18q164 0 298 -86.5t214 -231.5t80 -322q0 -176 -80 -321.5t-214 -232t-298 -86.5q-163 0 -297.5 86.5t-214.5 232t-80 321.5zM1428 612q0 -159 71.5 -289.5t191.5 -208.5
t265 -78q146 0 265.5 78t191 208.5t71.5 289.5t-71.5 290t-191 208.5t-265.5 77.5q-145 0 -265 -77.5t-191.5 -208.5t-71.5 -290zM444 -832q-168 0 -256 88t-88 256v3024q0 168 88 256t256 88h3024q168 0 256 -88t88 -256v-3024q0 -168 -88 -256t-256 -88h-3024zM444 -768
h3024q141 0 210.5 69.5t69.5 210.5v3024q0 141 -69.5 210.5t-210.5 69.5h-3024q-141 0 -210.5 -69.5t-69.5 -210.5v-3024q0 -141 69.5 -210.5t210.5 -69.5z" />
    <glyph glyph-name="uniE14D" unicode="&#xe070;&#x20de;" horiz-adv-x="3912" 
d="M1364 1436q0 176 79.5 321.5t214 232t298.5 86.5t298.5 -86.5t214 -232t79.5 -321.5q0 -78 -17.5 -149.5t-48 -136t-70.5 -122.5l-708 -1028h-76l596 864q-60 -33 -128 -50.5t-140 -17.5q-164 0 -298.5 86.5t-214 232t-79.5 321.5zM1428 1436q0 -160 71 -290.5t191 -208
t266 -77.5t266 77.5t191 208t71 290.5q0 158 -71 289t-191 209t-266 78t-266 -78t-191 -209t-71 -289zM444 -832q-168 0 -256 88t-88 256v3024q0 168 88 256t256 88h3024q168 0 256 -88t88 -256v-3024q0 -168 -88 -256t-256 -88h-3024zM444 -768h3024q141 0 210.5 69.5
t69.5 210.5v3024q0 141 -69.5 210.5t-210.5 69.5h-3024q-141 0 -210.5 -69.5t-69.5 -210.5v-3024q0 -141 69.5 -210.5t210.5 -69.5z" />
    <glyph glyph-name="uniE14E" unicode="&#x21;&#x20de;" horiz-adv-x="3912" 
d="M1988 2048v-1440h-64v1440h64zM1956 -12q-30 0 -51 21t-21 51t21 51t51 21t51 -21t21 -51q0 -20 -9.5 -36.5t-26 -26t-36.5 -9.5zM444 -832q-168 0 -256 88t-88 256v3024q0 168 88 256t256 88h3024q168 0 256 -88t88 -256v-3024q0 -168 -88 -256t-256 -88h-3024z
M444 -768h3024q141 0 210.5 69.5t69.5 210.5v3024q0 141 -69.5 210.5t-210.5 69.5h-3024q-141 0 -210.5 -69.5t-69.5 -210.5v-3024q0 -141 69.5 -210.5t210.5 -69.5z" />
    <glyph glyph-name="uniE14F" unicode="&#x3f;&#x20de;" horiz-adv-x="3912" 
d="M1910 608v140q0 92 25 163t84.5 136t162.5 137q102 72 160.5 133.5t83 124t24.5 134.5q0 127 -60 225.5t-163.5 154.5t-232.5 56q-136 0 -242.5 -62.5t-168 -170t-61.5 -243.5h-64q0 154 70 276t191.5 193t274.5 71q147 0 264.5 -65t186.5 -177.5t69 -257.5
q0 -84 -28.5 -155.5t-93.5 -140.5t-174 -148q-95 -69 -148.5 -125.5t-74.5 -117t-21 -141.5v-140h-64zM1942 -12q-30 0 -51 21t-21 51t21 51t51 21t51 -21t21 -51q0 -20 -9.5 -36.5t-26 -26t-36.5 -9.5zM444 -832q-168 0 -256 88t-88 256v3024q0 168 88 256t256 88h3024
q168 0 256 -88t88 -256v-3024q0 -168 -88 -256t-256 -88h-3024zM444 -768h3024q141 0 210.5 69.5t69.5 210.5v3024q0 141 -69.5 210.5t-210.5 69.5h-3024q-141 0 -210.5 -69.5t-69.5 -210.5v-3024q0 -141 69.5 -210.5t210.5 -69.5z" />
    <glyph glyph-name="uniE150" unicode="&#x23;&#x20de;" horiz-adv-x="3912" 
d="M2116 0l336 2048h64l-336 -2048h-64zM1128 636l12 64h1528l-12 -64h-1528zM1396 0l336 2048h64l-336 -2048h-64zM1244 1348l12 64h1528l-12 -64h-1528zM444 -832q-168 0 -256 88t-88 256v3024q0 168 88 256t256 88h3024q168 0 256 -88t88 -256v-3024q0 -168 -88 -256
t-256 -88h-3024zM444 -768h3024q141 0 210.5 69.5t69.5 210.5v3024q0 141 -69.5 210.5t-210.5 69.5h-3024q-141 0 -210.5 -69.5t-69.5 -210.5v-3024q0 -141 69.5 -210.5t210.5 -69.5z" />
    <glyph glyph-name="uniE151" unicode="&#x2d;&#x20de;" horiz-adv-x="3912" 
d="M2338 1056v-64h-764v64h764zM444 -832q-168 0 -256 88t-88 256v3024q0 168 88 256t256 88h3024q168 0 256 -88t88 -256v-3024q0 -168 -88 -256t-256 -88h-3024zM444 -768h3024q141 0 210.5 69.5t69.5 210.5v3024q0 141 -69.5 210.5t-210.5 69.5h-3024
q-141 0 -210.5 -69.5t-69.5 -210.5v-3024q0 -141 69.5 -210.5t210.5 -69.5z" />
    <glyph glyph-name="uniE152" unicode="&#x3c;&#x20de;" horiz-adv-x="3912" 
d="M1368 992v64l1096 712v-76l-1036 -672l12 20v-32l-12 20l1036 -672v-76zM444 -832q-168 0 -256 88t-88 256v3024q0 168 88 256t256 88h3024q168 0 256 -88t88 -256v-3024q0 -168 -88 -256t-256 -88h-3024zM444 -768h3024q141 0 210.5 69.5t69.5 210.5v3024
q0 141 -69.5 210.5t-210.5 69.5h-3024q-141 0 -210.5 -69.5t-69.5 -210.5v-3024q0 -141 69.5 -210.5t210.5 -69.5z" />
    <glyph glyph-name="uniE153" unicode="&#x3e;&#x20de;" horiz-adv-x="3912" 
d="M2544 992l-1096 -712v76l1036 672l-12 -20v32l12 -20l-1036 672v76l1096 -712v-64zM444 -832q-168 0 -256 88t-88 256v3024q0 168 88 256t256 88h3024q168 0 256 -88t88 -256v-3024q0 -168 -88 -256t-256 -88h-3024zM444 -768h3024q141 0 210.5 69.5t69.5 210.5v3024
q0 141 -69.5 210.5t-210.5 69.5h-3024q-141 0 -210.5 -69.5t-69.5 -210.5v-3024q0 -141 69.5 -210.5t210.5 -69.5z" />
    <glyph glyph-name="uniE154" unicode="&#x3d;&#x20de;" horiz-adv-x="3912" 
d="M1480 1260v64h952v-64h-952zM1480 724v64h952v-64h-952zM444 -832q-168 0 -256 88t-88 256v3024q0 168 88 256t256 88h3024q168 0 256 -88t88 -256v-3024q0 -168 -88 -256t-256 -88h-3024zM444 -768h3024q141 0 210.5 69.5t69.5 210.5v3024q0 141 -69.5 210.5
t-210.5 69.5h-3024q-141 0 -210.5 -69.5t-69.5 -210.5v-3024q0 -141 69.5 -210.5t210.5 -69.5z" />
    <glyph glyph-name="uniE155" unicode="&#x2b;&#x20de;" horiz-adv-x="3912" 
d="M1924 444v1160h64v-1160h-64zM1376 992v64h1160v-64h-1160zM444 -832q-168 0 -256 88t-88 256v3024q0 168 88 256t256 88h3024q168 0 256 -88t88 -256v-3024q0 -168 -88 -256t-256 -88h-3024zM444 -768h3024q141 0 210.5 69.5t69.5 210.5v3024q0 141 -69.5 210.5
t-210.5 69.5h-3024q-141 0 -210.5 -69.5t-69.5 -210.5v-3024q0 -141 69.5 -210.5t210.5 -69.5z" />
    <glyph glyph-name="uniE156" unicode="&#x2212;&#x20de;" horiz-adv-x="3912" 
d="M2536 1056v-64h-1160v64h1160zM444 -832q-168 0 -256 88t-88 256v3024q0 168 88 256t256 88h3024q168 0 256 -88t88 -256v-3024q0 -168 -88 -256t-256 -88h-3024zM444 -768h3024q141 0 210.5 69.5t69.5 210.5v3024q0 141 -69.5 210.5t-210.5 69.5h-3024
q-141 0 -210.5 -69.5t-69.5 -210.5v-3024q0 -141 69.5 -210.5t210.5 -69.5z" />
    <glyph glyph-name="uniE157" unicode="&#xd7;&#x20de;" horiz-adv-x="3912" 
d="M2497 421l-1128 1128l46 46l1128 -1128zM1415 421l-46 46l1128 1128l46 -46zM444 -832q-168 0 -256 88t-88 256v3024q0 168 88 256t256 88h3024q168 0 256 -88t88 -256v-3024q0 -168 -88 -256t-256 -88h-3024zM444 -768h3024q141 0 210.5 69.5t69.5 210.5v3024
q0 141 -69.5 210.5t-210.5 69.5h-3024q-141 0 -210.5 -69.5t-69.5 -210.5v-3024q0 -141 69.5 -210.5t210.5 -69.5z" />
    <glyph glyph-name="uniE158" unicode="&#xf7;&#x20de;" horiz-adv-x="3912" 
d="M2536 1056v-64h-1160v64h1160zM1956 496q-30 0 -51 21t-21 51t21 51t51 21t51 -21t21 -51t-21 -51t-51 -21zM1956 1408q-20 0 -36.5 9.5t-26 26t-9.5 36.5q0 30 21 51t51 21t51 -21t21 -51t-21 -51t-51 -21zM444 -832q-168 0 -256 88t-88 256v3024q0 168 88 256t256 88
h3024q168 0 256 -88t88 -256v-3024q0 -168 -88 -256t-256 -88h-3024zM444 -768h3024q141 0 210.5 69.5t69.5 210.5v3024q0 141 -69.5 210.5t-210.5 69.5h-3024q-141 0 -210.5 -69.5t-69.5 -210.5v-3024q0 -141 69.5 -210.5t210.5 -69.5z" />
    <glyph glyph-name="uniE159" unicode="&#x2191;&#x20de;" horiz-adv-x="3912" 
d="M1926 0v1938l-820 -820l-46 46l898 896l896 -896l-44 -46l-820 820v-1938h-64zM444 -832q-168 0 -256 88t-88 256v3024q0 168 88 256t256 88h3024q168 0 256 -88t88 -256v-3024q0 -168 -88 -256t-256 -88h-3024zM444 -768h3024q141 0 210.5 69.5t69.5 210.5v3024
q0 141 -69.5 210.5t-210.5 69.5h-3024q-141 0 -210.5 -69.5t-69.5 -210.5v-3024q0 -141 69.5 -210.5t210.5 -69.5z" />
    <glyph glyph-name="uniE15A" unicode="&#x2193;&#x20de;" horiz-adv-x="3912" 
d="M1988 2048v-1938l820 820l46 -46l-898 -896l-896 896l44 46l820 -820v1938h64zM444 -832q-168 0 -256 88t-88 256v3024q0 168 88 256t256 88h3024q168 0 256 -88t88 -256v-3024q0 -168 -88 -256t-256 -88h-3024zM444 -768h3024q141 0 210.5 69.5t69.5 210.5v3024
q0 141 -69.5 210.5t-210.5 69.5h-3024q-141 0 -210.5 -69.5t-69.5 -210.5v-3024q0 -141 69.5 -210.5t210.5 -69.5z" />
    <glyph glyph-name="uniE15B" unicode="&#x2190;&#x20de;" horiz-adv-x="3912" 
d="M1824 128l-896 896l896 896l46 -44l-820 -820h1936v-64h-1936l820 -818zM444 -832q-168 0 -256 88t-88 256v3024q0 168 88 256t256 88h3024q168 0 256 -88t88 -256v-3024q0 -168 -88 -256t-256 -88h-3024zM444 -768h3024q141 0 210.5 69.5t69.5 210.5v3024
q0 141 -69.5 210.5t-210.5 69.5h-3024q-141 0 -210.5 -69.5t-69.5 -210.5v-3024q0 -141 69.5 -210.5t210.5 -69.5z" />
    <glyph glyph-name="uniE15C" unicode="&#x2192;&#x20de;" horiz-adv-x="3912" 
d="M2090 128l-46 46l820 818h-1936v64h1936l-820 820l46 44l896 -896zM444 -832q-168 0 -256 88t-88 256v3024q0 168 88 256t256 88h3024q168 0 256 -88t88 -256v-3024q0 -168 -88 -256t-256 -88h-3024zM444 -768h3024q141 0 210.5 69.5t69.5 210.5v3024q0 141 -69.5 210.5
t-210.5 69.5h-3024q-141 0 -210.5 -69.5t-69.5 -210.5v-3024q0 -141 69.5 -210.5t210.5 -69.5z" />
    <glyph glyph-name="uniE15D" unicode="&#x2713;&#x20de;" horiz-adv-x="3912" 
d="M1088 1036l44 48l580 -576l1144 1140l48 -44l-1192 -1184zM444 -832q-168 0 -256 88t-88 256v3024q0 168 88 256t256 88h3024q168 0 256 -88t88 -256v-3024q0 -168 -88 -256t-256 -88h-3024zM444 -768h3024q141 0 210.5 69.5t69.5 210.5v3024q0 141 -69.5 210.5
t-210.5 69.5h-3024q-141 0 -210.5 -69.5t-69.5 -210.5v-3024q0 -141 69.5 -210.5t210.5 -69.5z" />
    <glyph glyph-name="uniE15E" unicode="&#x2717;&#x20de;" horiz-adv-x="3912" 
d="M1390 418l-44 44l1172 1168l48 -44zM2522 418l-1176 1168l48 44l1172 -1168zM444 -832q-168 0 -256 88t-88 256v3024q0 168 88 256t256 88h3024q168 0 256 -88t88 -256v-3024q0 -168 -88 -256t-256 -88h-3024zM444 -768h3024q141 0 210.5 69.5t69.5 210.5v3024
q0 141 -69.5 210.5t-210.5 69.5h-3024q-141 0 -210.5 -69.5t-69.5 -210.5v-3024q0 -141 69.5 -210.5t210.5 -69.5z" />
    <glyph glyph-name=".notdef" horiz-adv-x="2644" 
d="M204 -640v512h2236v-512h-2236zM204 1472v512h2236v-512h-2236zM204 2176v512h2236v-512h-2236zM204 64v512h2236v-512h-2236zM204 768v512h2236v-512h-2236z" />
    <glyph glyph-name=".null" 
 />
    <glyph glyph-name="uni0041" unicode="A" horiz-adv-x="1736" 
d="M160 0h-68l732 2048h88l732 -2048h-68l-704 1968h-8zM392 756h952v-64h-952v64z" />
    <glyph glyph-name="uni00C4" unicode="&#xc4;" horiz-adv-x="1736" 
d="M160 0h-68l732 2048h88l732 -2048h-68l-704 1968h-8zM392 756h952v-64h-952v64zM676 2328q-26 0 -45 19t-19 45t19 45t45 19t45 -19t19 -45t-19 -45t-45 -19zM1060 2328q-26 0 -45 19t-19 45t19 45t45 19t45 -19t19 -45t-19 -45t-45 -19z" />
    <glyph glyph-name="uni00C3" unicode="&#xc3;" horiz-adv-x="1736" 
d="M160 0h-68l732 2048h88l732 -2048h-68l-704 1968h-8zM392 756h952v-64h-952v64zM474 2344l-64 8q14 94 88 153t176 59q69 0 119 -25t91.5 -57t84 -57t97.5 -25q68 0 126 43t74 113l64 -16q-22 -91 -97.5 -147.5t-166.5 -56.5q-64 0 -110 25t-86.5 57t-86 57t-109.5 25
q-78 0 -134 -44t-66 -112z" />
    <glyph glyph-name="uni00C0" unicode="&#xc0;" horiz-adv-x="1736" 
d="M160 0h-68l732 2048h88l732 -2048h-68l-704 1968h-8zM392 756h952v-64h-952v64zM838 2272l-296 432h80l280 -432h-64z" />
    <glyph glyph-name="uni00C1" unicode="&#xc1;" horiz-adv-x="1736" 
d="M160 0h-68l732 2048h88l732 -2048h-68l-704 1968h-8zM392 756h952v-64h-952v64zM834 2272l280 432h80l-296 -432h-64z" />
    <glyph glyph-name="uni00C2" unicode="&#xc2;" horiz-adv-x="1736" 
d="M160 0h-68l732 2048h88l732 -2048h-68l-704 1968h-8zM392 756h952v-64h-952v64zM568 2208h-76v8l368 376h16l368 -376v-8h-76l-300 308z" />
    <glyph glyph-name="uni00C5" unicode="&#xc5;" horiz-adv-x="1736" 
d="M160 0h-68l732 2048h88l732 -2048h-68l-704 1968h-8zM392 756h952v-64h-952v64zM868 2148q-63 0 -115 30.5t-82.5 82.5t-30.5 115q0 64 30.5 115.5t82.5 82t115 30.5q64 0 115.5 -30.5t82 -82t30.5 -114.5q0 -64 -30.5 -116t-82 -82.5t-115.5 -30.5zM868 2212
q69 0 116.5 48t47.5 116q0 69 -48 116.5t-116 47.5q-69 0 -116.5 -48t-47.5 -116q0 -69 48 -116.5t116 -47.5z" />
    <glyph glyph-name="uni0100" unicode="&#x100;" horiz-adv-x="1736" 
d="M160 0h-68l732 2048h88l732 -2048h-68l-704 1968h-8zM392 756h952v-64h-952v64zM1188 2424v-64h-640v64h640z" />
    <glyph glyph-name="uni0102" unicode="&#x102;" horiz-adv-x="1736" 
d="M160 0h-68l732 2048h88l732 -2048h-68l-704 1968h-8zM392 756h952v-64h-952v64zM1028 2560h64q0 -106 -59.5 -167t-164.5 -61t-164.5 61t-59.5 167h64q0 -79 41 -121.5t119 -42.5t119 42.5t41 121.5z" />
    <glyph glyph-name="uni0104" unicode="&#x104;" horiz-adv-x="1736" 
d="M160 0h-68l732 2048h88l732 -2048h-68l-704 1968h-8zM392 756h952v-64h-952v64zM1596 -608q-103 0 -169.5 59.5t-66.5 174.5q0 73 27.5 135t77 120t115.5 119h64q-103 -103 -161.5 -191.5t-58.5 -182.5q0 -88 48 -129t124 -41q44 0 77 13t69 39l38 -52
q-43 -31 -86.5 -47.5t-97.5 -16.5z" />
    <glyph glyph-name="uni01CD" unicode="&#x1cd;" horiz-adv-x="1736" 
d="M160 0h-68l732 2048h88l732 -2048h-68l-704 1968h-8zM392 756h952v-64h-952v64zM568 2644l300 -308l300 308h76v-8l-368 -376h-16l-368 376v8h76z" />
    <glyph glyph-name="uni01DE" unicode="&#x1de;" horiz-adv-x="1736" 
d="M160 0h-68l732 2048h88l732 -2048h-68l-704 1968h-8zM392 756h952v-64h-952v64zM678 2328q-26 0 -45 19t-19 45t19 45t45 19t45 -19t19 -45t-19 -45t-45 -19zM1062 2328q-26 0 -45 19t-19 45t19 45t45 19t45 -19t19 -45t-19 -45t-45 -19zM1192 2814v-64h-640v64h640z" />
    <glyph glyph-name="uni01E0" unicode="&#x1e0;" horiz-adv-x="1736" 
d="M160 0h-68l732 2048h88l732 -2048h-68l-704 1968h-8zM392 756h952v-64h-952v64zM868 2256q-26 0 -45 19t-19 45t19 45t45 19t45 -19t19 -45t-19 -45t-45 -19zM1188 2600v-64h-640v64h640z" />
    <glyph glyph-name="uni01FA" unicode="&#x1fa;" horiz-adv-x="1736" 
d="M160 0h-68l732 2048h88l732 -2048h-68l-704 1968h-8zM392 756h952v-64h-952v64zM868 2168q-95 0 -161.5 66.5t-66.5 161.5t66.5 161.5t161.5 66.5t161.5 -66.5t66.5 -161.5t-66.5 -161.5t-161.5 -66.5zM868 2232q69 0 116.5 48t47.5 116q0 69 -48 116.5t-116 47.5
q-69 0 -116.5 -48t-47.5 -116q0 -69 48 -116.5t116 -47.5zM830 2660l160 192h80l-176 -192h-64z" />
    <glyph glyph-name="uni0200" unicode="&#x200;" horiz-adv-x="1736" 
d="M160 0h-68l732 2048h88l732 -2048h-68l-704 1968h-8zM392 756h952v-64h-952v64zM744 2272l-316 432h82l298 -432h-64zM964 2272l-254 432h78l240 -432h-64z" />
    <glyph glyph-name="uni0202" unicode="&#x202;" horiz-adv-x="1736" 
d="M160 0h-68l732 2048h88l732 -2048h-68l-704 1968h-8zM392 756h952v-64h-952v64zM650 2408q0 106 59.5 167t164.5 61t164.5 -61t59.5 -167h-64q0 80 -41 122t-119 42t-119 -42t-41 -122h-64z" />
    <glyph glyph-name="uni0226" unicode="&#x226;" horiz-adv-x="1736" 
d="M160 0h-68l732 2048h88l732 -2048h-68l-704 1968h-8zM392 756h952v-64h-952v64zM868 2328q-26 0 -45 19t-19 45t19 45t45 19t45 -19t19 -45t-19 -45t-45 -19z" />
    <glyph glyph-name="uni1E00" unicode="&#x1e00;" horiz-adv-x="1736" 
d="M160 0h-68l732 2048h88l732 -2048h-68l-704 1968h-8zM392 756h952v-64h-952v64zM636 -358q0 95 66.5 161.5t161.5 66.5t161.5 -66.5t66.5 -161.5t-66.5 -161.5t-161.5 -66.5t-161.5 66.5t-66.5 161.5zM700 -358q0 -69 48 -116.5t116 -47.5q69 0 116.5 48t47.5 116
q0 69 -48 116.5t-116 47.5q-69 0 -116.5 -48t-47.5 -116z" />
    <glyph glyph-name="uni1EA0" unicode="&#x1ea0;" horiz-adv-x="1736" 
d="M160 0h-68l732 2048h88l732 -2048h-68l-704 1968h-8zM392 756h952v-64h-952v64zM868 -456q-26 0 -45 19t-19 45t19 45t45 19t45 -19t19 -45t-19 -45t-45 -19z" />
    <glyph glyph-name="uni1EA2" unicode="&#x1ea2;" horiz-adv-x="1736" 
d="M160 0h-68l732 2048h88l732 -2048h-68l-704 1968h-8zM392 756h952v-64h-952v64zM898 2244h-64v194q115 7 161 41.5t45 112.5q-1 92 -59.5 133.5t-182.5 42.5l10 64q154 -1 226.5 -64.5t73.5 -167.5q1 -95 -57 -152.5t-153 -65.5v-138z" />
    <glyph glyph-name="uni1EA4" unicode="&#x1ea4;" horiz-adv-x="1736" 
d="M160 0h-68l732 2048h88l732 -2048h-68l-704 1968h-8zM392 756h952v-64h-952v64zM888 2660l376 -384h-84l-300 308l-300 -308h-84l376 384h16zM1240 2524l240 352h80l-256 -352h-64z" />
    <glyph glyph-name="uni1EA6" unicode="&#x1ea6;" horiz-adv-x="1736" 
d="M160 0h-68l732 2048h88l732 -2048h-68l-704 1968h-8zM392 756h952v-64h-952v64zM880 2712l376 -384h-84l-300 308l-300 -308h-84l376 384h16zM306 2928l220 -352h-64l-236 352h80z" />
    <glyph glyph-name="uni1EA8" unicode="&#x1ea8;" horiz-adv-x="1736" 
d="M160 0h-68l732 2048h88l732 -2048h-68l-704 1968h-8zM392 756h952v-64h-952v64zM882 2616l376 -384h-84l-300 308l-300 -308h-84l376 384h16zM1348 2428h-64v162q114 7 160 39t46 95q-1 77 -60 116t-182 40l10 64q153 -1 226 -62t74 -150q0 -80 -58 -135t-152 -63v-106z
" />
    <glyph glyph-name="uni1EAA" unicode="&#x1eaa;" horiz-adv-x="1736" 
d="M160 0h-68l732 2048h88l732 -2048h-68l-704 1968h-8zM392 756h952v-64h-952v64zM854 2564l376 -384h-84l-300 308l-300 -308h-84l376 384h16zM1164 2888l64 -8q-16 -100 -82 -156t-144 -56q-57 0 -97 24.5t-72 56.5t-65.5 57t-77.5 26q-53 1 -100.5 -39t-59.5 -117l-64 8
q17 101 82.5 156.5t139.5 55.5q54 0 94 -24.5t73 -56.5t68.5 -57t80.5 -26q54 -1 101.5 39.5t58.5 116.5z" />
    <glyph glyph-name="uni1EAC" unicode="&#x1eac;" horiz-adv-x="1736" 
d="M160 0h-68l732 2048h88l732 -2048h-68l-704 1968h-8zM392 756h952v-64h-952v64zM568 2208h-76v8l368 376h16l368 -376v-8h-76l-300 308zM868 -456q-26 0 -45 19t-19 45t19 45t45 19t45 -19t19 -45t-19 -45t-45 -19z" />
    <glyph glyph-name="uni1EAE" unicode="&#x1eae;" horiz-adv-x="1736" 
d="M160 0h-68l732 2048h88l732 -2048h-68l-704 1968h-8zM392 756h952v-64h-952v64zM1016 2500h64q0 -106 -59.5 -167t-164.5 -61t-164.5 61t-59.5 167h64q0 -79 41 -121.5t119 -42.5t119 42.5t41 121.5zM820 2564l154 292h80l-182 -292h-52z" />
    <glyph glyph-name="uni1EB0" unicode="&#x1eb0;" horiz-adv-x="1736" 
d="M160 0h-68l732 2048h88l732 -2048h-68l-704 1968h-8zM392 756h952v-64h-952v64zM1016 2500h64q0 -106 -59.5 -167t-164.5 -61t-164.5 61t-59.5 167h64q0 -79 41 -121.5t119 -42.5t119 42.5t41 121.5zM840 2564l-182 288h80l154 -288h-52z" />
    <glyph glyph-name="uni1EB2" unicode="&#x1eb2;" horiz-adv-x="1736" 
d="M160 0h-68l732 2048h88l732 -2048h-68l-704 1968h-8zM392 756h952v-64h-952v64zM1004 2572h64q0 -106 -59.5 -167t-164.5 -61t-164.5 61t-59.5 167h64q0 -79 41 -121.5t119 -42.5t119 42.5t41 121.5zM876 2592h-64v162q84 7 126 26.5t40 67.5q-2 62 -55.5 88.5
t-146.5 27.5l10 64q119 -1 189.5 -52t70.5 -126q0 -67 -49 -105.5t-121 -46.5v-106z" />
    <glyph glyph-name="uni1EB4" unicode="&#x1eb4;" horiz-adv-x="1736" 
d="M160 0h-68l732 2048h88l732 -2048h-68l-704 1968h-8zM392 756h952v-64h-952v64zM1012 2578h64q0 -106 -59.5 -167t-164.5 -61t-164.5 61t-59.5 167h64q0 -79 41 -121.5t119 -42.5t119 42.5t41 121.5zM1114 2894l58 -8q-10 -78 -57.5 -134.5t-118.5 -57.5q-65 0 -109.5 36
t-85 72t-93.5 36q-51 0 -82.5 -41.5t-41.5 -94.5l-58 8q10 79 59 135.5t125 56.5q52 0 88.5 -22t66 -50.5t60 -50.5t69.5 -21q48 1 79 42.5t41 93.5z" />
    <glyph glyph-name="uni1EB6" unicode="&#x1eb6;" horiz-adv-x="1736" 
d="M160 0h-68l732 2048h88l732 -2048h-68l-704 1968h-8zM392 756h952v-64h-952v64zM1028 2560h64q0 -106 -59.5 -167t-164.5 -61t-164.5 61t-59.5 167h64q0 -79 41 -121.5t119 -42.5t119 42.5t41 121.5zM868 -456q-26 0 -45 19t-19 45t19 45t45 19t45 -19t19 -45t-19 -45
t-45 -19z" />
    <glyph glyph-name="uni0391" unicode="&#x391;" horiz-adv-x="1736" 
d="M160 0h-68l732 2048h88l732 -2048h-68l-704 1968h-8zM392 756h952v-64h-952v64z" />
    <glyph glyph-name="uni0386" unicode="&#x386;" horiz-adv-x="1736" 
d="M160 0h-68l732 2048h88l732 -2048h-68l-704 1968h-8zM392 756h952v-64h-952v64zM502 1696l40 460h80l-72 -460h-48z" />
    <glyph glyph-name="uni1F08" unicode="&#x1f08;" horiz-adv-x="1736" 
d="M160 0h-68l732 2048h88l732 -2048h-68l-704 1968h-8zM392 756h952v-64h-952v64zM548 2048v-52q0 -90 -15.5 -161t-54.5 -136t-110 -137l-46 22q65 77 100 139.5t48.5 128.5t13.5 152v44h64z" />
    <glyph glyph-name="uni1F09" unicode="&#x1f09;" horiz-adv-x="1736" 
d="M160 0h-68l732 2048h88l732 -2048h-68l-704 1968h-8zM392 756h952v-64h-952v64zM358 2004v52h64v-44q0 -86 13.5 -151.5t48.5 -128.5t100 -140l-46 -22q-106 108 -143 203.5t-37 230.5z" />
    <glyph glyph-name="uni1F0A" unicode="&#x1f0a;" horiz-adv-x="1736" 
d="M160 0h-68l732 2048h88l732 -2048h-68l-704 1968h-8zM392 756h952v-64h-952v64zM578 1602v-18h-48l-284 446v18h68zM182 2048v-52q0 -90 -15.5 -161t-54.5 -136t-110 -137l-46 22q98 115 130 203t32 217v44h64z" />
    <glyph glyph-name="uni1F0B" unicode="&#x1f0b;" horiz-adv-x="1736" 
d="M160 0h-68l732 2048h88l732 -2048h-68l-704 1968h-8zM392 756h952v-64h-952v64zM556 1610v-18h-48l-284 446v18h68zM90 2004v52h64v-44q0 -129 32.5 -217t129.5 -203l-46 -22q-106 108 -143 203t-37 231z" />
    <glyph glyph-name="uni1F0C" unicode="&#x1f0c;" horiz-adv-x="1736" 
d="M160 0h-68l732 2048h88l732 -2048h-68l-704 1968h-8zM392 756h952v-64h-952v64zM108 1610l264 446h68v-18l-284 -446h-48v18zM84 2056v-52q0 -90 -15.5 -161t-54.5 -136t-110 -137l-46 22q98 115 130 203t32 217v44h64z" />
    <glyph glyph-name="uni1F0D" unicode="&#x1f0d;" horiz-adv-x="1736" 
d="M160 0h-68l732 2048h88l732 -2048h-68l-704 1968h-8zM392 756h952v-64h-952v64zM242 1610l264 446h68v-18l-284 -446h-48v18zM-24 2004v52h64v-44q0 -129 32.5 -217t129.5 -203l-46 -22q-106 108 -143 203t-37 231z" />
    <glyph glyph-name="uni1F0E" unicode="&#x1f0e;" horiz-adv-x="1736" 
d="M160 0h-68l732 2048h88l732 -2048h-68l-704 1968h-8zM392 756h952v-64h-952v64zM630 2298l58 -8q-10 -93 -59.5 -152t-132.5 -60q-51 0 -88.5 24.5t-69.5 57t-65 57.5t-75 25q-61 0 -94.5 -44t-43.5 -112l-58 8q10 94 61 153t139 59q54 0 91.5 -25t67.5 -57.5t61 -57
t72 -24.5q60 1 93 45t43 111zM364 2024v-52q0 -83 -21.5 -168t-98.5 -186l-46 22q68 107 85 185.5t17 154.5v44h64z" />
    <glyph glyph-name="uni1F0F" unicode="&#x1f0f;" horiz-adv-x="1736" 
d="M160 0h-68l732 2048h88l732 -2048h-68l-704 1968h-8zM392 756h952v-64h-952v64zM322 1972v52h64v-44q0 -91 26 -169.5t78 -170.5l-46 -22q-63 86 -92.5 171t-29.5 183zM642 2298l58 -8q-10 -93 -59.5 -152t-132.5 -60q-51 0 -88.5 24.5t-69.5 57t-65 57.5t-75 25
q-61 0 -94.5 -44t-43.5 -112l-58 8q10 94 61 153t139 59q54 0 91.5 -25t67.5 -57.5t61 -57t72 -24.5q60 1 93 45t43 111z" />
    <glyph glyph-name="uni1FB8" unicode="&#x1fb8;" horiz-adv-x="1736" 
d="M160 0h-68l732 2048h88l732 -2048h-68l-704 1968h-8zM392 756h952v-64h-952v64zM1028 2560h64q0 -106 -59.5 -167t-164.5 -61t-164.5 61t-59.5 167h64q0 -79 41 -121.5t119 -42.5t119 42.5t41 121.5z" />
    <glyph glyph-name="uni1FB9" unicode="&#x1fb9;" horiz-adv-x="1736" 
d="M160 0h-68l732 2048h88l732 -2048h-68l-704 1968h-8zM392 756h952v-64h-952v64zM1188 2424v-64h-640v64h640z" />
    <glyph glyph-name="uni1FBA" unicode="&#x1fba;" horiz-adv-x="1736" 
d="M160 0h-68l732 2048h88l732 -2048h-68l-704 1968h-8zM392 756h952v-64h-952v64zM444 1598v-18h-48l-284 446v18h68z" />
    <glyph glyph-name="uni023A" unicode="&#x23a;" horiz-adv-x="1736" 
d="M1360 2308l-912 -2568h-68l912 2568h68zM160 0h-68l732 2048h88l732 -2048h-68l-704 1968h-8zM392 756h952v-64h-952v64z" />
    <glyph glyph-name="uni1FBB" unicode="&#x1fbb;" horiz-adv-x="1736" 
d="M160 0h-68l732 2048h88l732 -2048h-68l-704 1968h-8zM392 756h952v-64h-952v64zM388 1728v4l252 464h76v-4l-274 -464h-54z" />
    <glyph glyph-name="uni0410" unicode="&#x410;" horiz-adv-x="1736" 
d="M160 0h-68l732 2048h88l732 -2048h-68l-704 1968h-8zM392 756h952v-64h-952v64z" />
    <glyph glyph-name="uni04D0" unicode="&#x4d0;" horiz-adv-x="1736" 
d="M160 0h-68l732 2048h88l732 -2048h-68l-704 1968h-8zM392 756h952v-64h-952v64zM1028 2560h64q0 -106 -59.5 -167t-164.5 -61t-164.5 61t-59.5 167h64q0 -79 41 -121.5t119 -42.5t119 42.5t41 121.5z" />
    <glyph glyph-name="uni04D2" unicode="&#x4d2;" horiz-adv-x="1736" 
d="M160 0h-68l732 2048h88l732 -2048h-68l-704 1968h-8zM392 756h952v-64h-952v64zM676 2328q-26 0 -45 19t-19 45t19 45t45 19t45 -19t19 -45t-19 -45t-45 -19zM1060 2328q-26 0 -45 19t-19 45t19 45t45 19t45 -19t19 -45t-19 -45t-45 -19z" />
    <glyph glyph-name="uni1F88" unicode="&#x1f88;" horiz-adv-x="1736" 
d="M160 0h-68l732 2048h88l732 -2048h-68l-704 1968h-8zM392 756h952v-64h-952v64zM968 -600q-55 0 -93.5 44t-38.5 112v324h64v-324q0 -41 20 -66.5t48 -25.5q10 0 24.5 2t21.5 4l18 -62q-10 -3 -30 -5.5t-34 -2.5zM548 2048v-52q0 -90 -15.5 -161t-54.5 -136t-110 -137
l-46 22q65 77 100 139.5t48.5 128.5t13.5 152v44h64z" />
    <glyph glyph-name="uni1F89" unicode="&#x1f89;" horiz-adv-x="1736" 
d="M160 0h-68l732 2048h88l732 -2048h-68l-704 1968h-8zM392 756h952v-64h-952v64zM968 -600q-55 0 -93.5 44t-38.5 112v324h64v-324q0 -41 20 -66.5t48 -25.5q10 0 24.5 2t21.5 4l18 -62q-10 -3 -30 -5.5t-34 -2.5zM358 2004v52h64v-44q0 -86 13.5 -151.5t48.5 -128.5
t100 -140l-46 -22q-106 108 -143 203.5t-37 230.5z" />
    <glyph glyph-name="uni1F8A" unicode="&#x1f8a;" horiz-adv-x="1736" 
d="M160 0h-68l732 2048h88l732 -2048h-68l-704 1968h-8zM392 756h952v-64h-952v64zM968 -600q-55 0 -93.5 44t-38.5 112v324h64v-324q0 -41 20 -66.5t48 -25.5q10 0 24.5 2t21.5 4l18 -62q-10 -3 -30 -5.5t-34 -2.5zM578 1602v-18h-48l-284 446v18h68zM182 2048v-52
q0 -90 -15.5 -161t-54.5 -136t-110 -137l-46 22q98 115 130 203t32 217v44h64z" />
    <glyph glyph-name="uni1F8B" unicode="&#x1f8b;" horiz-adv-x="1736" 
d="M160 0h-68l732 2048h88l732 -2048h-68l-704 1968h-8zM392 756h952v-64h-952v64zM968 -600q-55 0 -93.5 44t-38.5 112v324h64v-324q0 -41 20 -66.5t48 -25.5q10 0 24.5 2t21.5 4l18 -62q-10 -3 -30 -5.5t-34 -2.5zM556 1610v-18h-48l-284 446v18h68zM90 2004v52h64v-44
q0 -129 32.5 -217t129.5 -203l-46 -22q-106 108 -143 203t-37 231z" />
    <glyph glyph-name="uni1F8C" unicode="&#x1f8c;" horiz-adv-x="1736" 
d="M160 0h-68l732 2048h88l732 -2048h-68l-704 1968h-8zM392 756h952v-64h-952v64zM108 1610l264 446h68v-18l-284 -446h-48v18zM84 2056v-52q0 -90 -15.5 -161t-54.5 -136t-110 -137l-46 22q98 115 130 203t32 217v44h64zM968 -600q-55 0 -93.5 44t-38.5 112v324h64v-324
q0 -41 20 -66.5t48 -25.5q10 0 24.5 2t21.5 4l18 -62q-10 -3 -30 -5.5t-34 -2.5z" />
    <glyph glyph-name="uni1F8D" unicode="&#x1f8d;" horiz-adv-x="1736" 
d="M160 0h-68l732 2048h88l732 -2048h-68l-704 1968h-8zM392 756h952v-64h-952v64zM968 -600q-55 0 -93.5 44t-38.5 112v324h64v-324q0 -41 20 -66.5t48 -25.5q10 0 24.5 2t21.5 4l18 -62q-10 -3 -30 -5.5t-34 -2.5zM242 1610l264 446h68v-18l-284 -446h-48v18zM-24 2004v52
h64v-44q0 -129 32.5 -217t129.5 -203l-46 -22q-106 108 -143 203t-37 231z" />
    <glyph glyph-name="uni1F8E" unicode="&#x1f8e;" horiz-adv-x="1736" 
d="M160 0h-68l732 2048h88l732 -2048h-68l-704 1968h-8zM392 756h952v-64h-952v64zM630 2298l58 -8q-10 -93 -59.5 -152t-132.5 -60q-51 0 -88.5 24.5t-69.5 57t-65 57.5t-75 25q-61 0 -94.5 -44t-43.5 -112l-58 8q10 94 61 153t139 59q54 0 91.5 -25t67.5 -57.5t61 -57
t72 -24.5q60 1 93 45t43 111zM364 2024v-52q0 -83 -21.5 -168t-98.5 -186l-46 22q68 107 85 185.5t17 154.5v44h64zM968 -600q-55 0 -93.5 44t-38.5 112v324h64v-324q0 -41 20 -66.5t48 -25.5q10 0 24.5 2t21.5 4l18 -62q-10 -3 -30 -5.5t-34 -2.5z" />
    <glyph glyph-name="uni1F8F" unicode="&#x1f8f;" horiz-adv-x="1736" 
d="M160 0h-68l732 2048h88l732 -2048h-68l-704 1968h-8zM392 756h952v-64h-952v64zM968 -600q-55 0 -93.5 44t-38.5 112v324h64v-324q0 -41 20 -66.5t48 -25.5q10 0 24.5 2t21.5 4l18 -62q-10 -3 -30 -5.5t-34 -2.5zM322 1972v52h64v-44q0 -91 26 -169.5t78 -170.5l-46 -22
q-63 86 -92.5 171t-29.5 183zM642 2298l58 -8q-10 -93 -59.5 -152t-132.5 -60q-51 0 -88.5 24.5t-69.5 57t-65 57.5t-75 25q-61 0 -94.5 -44t-43.5 -112l-58 8q10 94 61 153t139 59q54 0 91.5 -25t67.5 -57.5t61 -57t72 -24.5q60 1 93 45t43 111z" />
    <glyph glyph-name="uni1FBC" unicode="&#x1fbc;" horiz-adv-x="1736" 
d="M160 0h-68l732 2048h88l732 -2048h-68l-704 1968h-8zM392 756h952v-64h-952v64zM968 -600q-55 0 -93.5 44t-38.5 112v324h64v-324q0 -41 20 -66.5t48 -25.5q10 0 24.5 2t21.5 4l18 -62q-10 -3 -30 -5.5t-34 -2.5z" />
    <glyph glyph-name="uni039B" unicode="&#x39b;" horiz-adv-x="1736" 
d="M160 0h-68l732 2048h88l732 -2048h-68l-704 1968h-8z" />
    <glyph glyph-name="uni00C6" unicode="&#xc6;" horiz-adv-x="2700" 
d="M92 0l1044 2048h1332v-64h-1028v-928h968v-64h-968v-928h1056v-64h-1120v1984h-200l-1012 -1984h-72zM492 692v64h920v-64h-920z" />
    <glyph glyph-name="uni01E2" unicode="&#x1e2;" horiz-adv-x="2700" 
d="M92 0l1044 2048h1332v-64h-1028v-928h968v-64h-968v-928h1056v-64h-1120v1984h-200l-1012 -1984h-72zM492 692v64h920v-64h-920zM2048 2424v-64h-640v64h640z" />
    <glyph glyph-name="uni01FC" unicode="&#x1fc;" horiz-adv-x="2700" 
d="M92 0l1044 2048h1332v-64h-1028v-928h968v-64h-968v-928h1056v-64h-1120v1984h-200l-1012 -1984h-72zM492 692v64h920v-64h-920zM1694 2272l280 432h80l-296 -432h-64z" />
    <glyph glyph-name="uni04D4" unicode="&#x4d4;" horiz-adv-x="2700" 
d="M92 0l1044 2048h1332v-64h-1028v-928h968v-64h-968v-928h1056v-64h-1120v1984h-200l-1012 -1984h-72zM492 692v64h920v-64h-920z" />
    <glyph glyph-name="uni0042" unicode="B" horiz-adv-x="1804" 
d="M320 0v2048h640q172 0 294.5 -62.5t188 -179t65.5 -278.5q0 -120 -36.5 -221t-106.5 -169.5t-169 -93.5v-8q111 -9 200 -77t140.5 -180t51.5 -255q0 -158 -66.5 -276t-192 -183t-301.5 -65h-708zM384 64h644q225 0 360.5 126.5t135.5 333.5q0 142 -64 251t-175.5 171
t-256.5 62h-644v-944zM384 1072h644q140 0 232 63t138 167t46 226q0 218 -130 337t-354 119h-576v-912z" />
    <glyph glyph-name="uni1E02" unicode="&#x1e02;" horiz-adv-x="1804" 
d="M320 0v2048h640q172 0 294.5 -62.5t188 -179t65.5 -278.5q0 -120 -36.5 -221t-106.5 -169.5t-169 -93.5v-8q111 -9 200 -77t140.5 -180t51.5 -255q0 -158 -66.5 -276t-192 -183t-301.5 -65h-708zM384 64h644q225 0 360.5 126.5t135.5 333.5q0 142 -64 251t-175.5 171
t-256.5 62h-644v-944zM384 1072h644q140 0 232 63t138 167t46 226q0 218 -130 337t-354 119h-576v-912zM852 2328q-26 0 -45 19t-19 45t19 45t45 19t45 -19t19 -45t-19 -45t-45 -19z" />
    <glyph glyph-name="uni1E04" unicode="&#x1e04;" horiz-adv-x="1804" 
d="M320 0v2048h640q172 0 294.5 -62.5t188 -179t65.5 -278.5q0 -120 -36.5 -221t-106.5 -169.5t-169 -93.5v-8q111 -9 200 -77t140.5 -180t51.5 -255q0 -158 -66.5 -276t-192 -183t-301.5 -65h-708zM384 64h644q225 0 360.5 126.5t135.5 333.5q0 142 -64 251t-175.5 171
t-256.5 62h-644v-944zM384 1072h644q140 0 232 63t138 167t46 226q0 218 -130 337t-354 119h-576v-912zM876 -456q-26 0 -45 19t-19 45t19 45t45 19t45 -19t19 -45t-19 -45t-45 -19z" />
    <glyph glyph-name="uni1E06" unicode="&#x1e06;" horiz-adv-x="1804" 
d="M320 0v2048h640q172 0 294.5 -62.5t188 -179t65.5 -278.5q0 -120 -36.5 -221t-106.5 -169.5t-169 -93.5v-8q111 -9 200 -77t140.5 -180t51.5 -255q0 -158 -66.5 -276t-192 -183t-301.5 -65h-708zM384 64h644q225 0 360.5 126.5t135.5 333.5q0 142 -64 251t-175.5 171
t-256.5 62h-644v-944zM384 1072h644q140 0 232 63t138 167t46 226q0 218 -130 337t-354 119h-576v-912zM1196 -288v-64h-640v64h640z" />
    <glyph glyph-name="uni0243" unicode="&#x243;" horiz-adv-x="1938" 
d="M456 0v2048h640q172 0 294.5 -62.5t188 -179t65.5 -278.5q0 -120 -36.5 -221t-106.5 -169.5t-169 -93.5v-8q111 -9 200 -77t140.5 -180t51.5 -255q0 -158 -66.5 -276t-192 -183t-301.5 -65h-708zM520 64h644q225 0 360.5 126.5t135.5 333.5q0 142 -64 251t-175.5 171
t-256.5 62h-644v-944zM520 1072h644q140 0 232 63t138 167t46 226q0 218 -130 337t-354 119h-576v-912zM116 568v64h760v-64h-760z" />
    <glyph glyph-name="uni0181" unicode="&#x181;" horiz-adv-x="2080" 
d="M624 1984h-176q-76 0 -123 -26t-68 -83t-21 -151v-36h-64v72q1 94 32 158t91.5 97t148.5 33h180v-64zM596 0v2048h640q172 0 294.5 -62.5t188 -179t65.5 -278.5q0 -120 -36.5 -221t-106.5 -169.5t-169 -93.5v-8q111 -9 200 -77t140.5 -180t51.5 -255q0 -158 -66.5 -276
t-192 -183t-301.5 -65h-708zM660 64h644q225 0 360.5 126.5t135.5 333.5q0 142 -64 251t-175.5 171t-256.5 62h-644v-944zM660 1072h644q140 0 232 63t138 167t46 226q0 218 -130 337t-354 119h-576v-912z" />
    <glyph glyph-name="uni0412" unicode="&#x412;" horiz-adv-x="1804" 
d="M320 0v2048h640q172 0 294.5 -62.5t188 -179t65.5 -278.5q0 -120 -36.5 -221t-106.5 -169.5t-169 -93.5v-8q111 -9 200 -77t140.5 -180t51.5 -255q0 -158 -66.5 -276t-192 -183t-301.5 -65h-708zM384 64h644q225 0 360.5 126.5t135.5 333.5q0 142 -64 251t-175.5 171
t-256.5 62h-644v-944zM384 1072h644q140 0 232 63t138 167t46 226q0 218 -130 337t-354 119h-576v-912z" />
    <glyph glyph-name="uni0392" unicode="&#x392;" horiz-adv-x="1804" 
d="M320 0v2048h640q172 0 294.5 -62.5t188 -179t65.5 -278.5q0 -120 -36.5 -221t-106.5 -169.5t-169 -93.5v-8q111 -9 200 -77t140.5 -180t51.5 -255q0 -158 -66.5 -276t-192 -183t-301.5 -65h-708zM384 64h644q225 0 360.5 126.5t135.5 333.5q0 142 -64 251t-175.5 171
t-256.5 62h-644v-944zM384 1072h644q140 0 232 63t138 167t46 226q0 218 -130 337t-354 119h-576v-912z" />
    <glyph glyph-name="uni0043" unicode="C" horiz-adv-x="2036" 
d="M1836 1408h-68q-19 102 -74 208t-146 196t-215 145t-281 55q-210 0 -388.5 -114.5t-287 -335t-108.5 -538.5q0 -322 108.5 -542t287 -333t388.5 -113q157 0 281 54.5t215 144t146 196t74 209.5h68q-19 -108 -76 -224.5t-154 -217.5t-235 -163.5t-319 -62.5
q-252 0 -443 132t-298 369t-107 551t107 551t298 369t443 132q181 0 319 -62t235 -162.5t154 -217t76 -226.5z" />
    <glyph glyph-name="uni0187" unicode="&#x187;" horiz-adv-x="1985" 
d="M1836 1408h-64v340q0 102 25.5 167.5t78.5 97t134 31.5q15 0 28 -1t22 -3v-64q-10 2 -23 3t-27 1q-63 0 -101 -23t-55.5 -74t-17.5 -135v-340zM1836 1408h-68q-19 102 -74 208t-146 196t-215 145t-281 55q-210 0 -388.5 -114.5t-287 -335t-108.5 -538.5
q0 -322 108.5 -542t287 -333t388.5 -113q157 0 281 54.5t215 144t146 196t74 209.5h68q-19 -108 -76 -224.5t-154 -217.5t-235 -163.5t-319 -62.5q-252 0 -443 132t-298 369t-107 551t107 551t298 369t443 132q181 0 319 -62t235 -162.5t154 -217t76 -226.5z" />
    <glyph glyph-name="uni00C7" unicode="&#xc7;" horiz-adv-x="2036" 
d="M1836 1408h-68q-19 102 -74 208t-146 196t-215 145t-281 55q-210 0 -388.5 -114.5t-287 -335t-108.5 -538.5q0 -322 108.5 -542t287 -333t388.5 -113q157 0 281 54.5t215 144t146 196t74 209.5h68q-19 -108 -76 -224.5t-154 -217.5t-235 -163.5t-319 -62.5
q-252 0 -443 132t-298 369t-107 551t107 551t298 369t443 132q181 0 319 -62t235 -162.5t154 -217t76 -226.5zM1020 8h64l-14 -80q102 -16 154.5 -77.5t53.5 -154.5q-1 -106 -69.5 -156.5t-200.5 -55.5l-2 64q112 4 159.5 39.5t48.5 108.5q-1 86 -56.5 130t-165.5 42z" />
    <glyph glyph-name="uni0106" unicode="&#x106;" horiz-adv-x="2036" 
d="M1836 1408h-68q-19 102 -74 208t-146 196t-215 145t-281 55q-210 0 -388.5 -114.5t-287 -335t-108.5 -538.5q0 -322 108.5 -542t287 -333t388.5 -113q157 0 281 54.5t215 144t146 196t74 209.5h68q-19 -108 -76 -224.5t-154 -217.5t-235 -163.5t-319 -62.5
q-252 0 -443 132t-298 369t-107 551t107 551t298 369t443 132q181 0 319 -62t235 -162.5t154 -217t76 -226.5zM1018 2272l280 432h80l-296 -432h-64z" />
    <glyph glyph-name="uni0108" unicode="&#x108;" horiz-adv-x="2036" 
d="M1836 1408h-68q-19 102 -74 208t-146 196t-215 145t-281 55q-210 0 -388.5 -114.5t-287 -335t-108.5 -538.5q0 -322 108.5 -542t287 -333t388.5 -113q157 0 281 54.5t215 144t146 196t74 209.5h68q-19 -108 -76 -224.5t-154 -217.5t-235 -163.5t-319 -62.5
q-252 0 -443 132t-298 369t-107 551t107 551t298 369t443 132q181 0 319 -62t235 -162.5t154 -217t76 -226.5zM752 2208h-76v8l368 376h16l368 -376v-8h-76l-300 308z" />
    <glyph glyph-name="uni010A" unicode="&#x10a;" horiz-adv-x="2036" 
d="M1836 1408h-68q-19 102 -74 208t-146 196t-215 145t-281 55q-210 0 -388.5 -114.5t-287 -335t-108.5 -538.5q0 -322 108.5 -542t287 -333t388.5 -113q157 0 281 54.5t215 144t146 196t74 209.5h68q-19 -108 -76 -224.5t-154 -217.5t-235 -163.5t-319 -62.5
q-252 0 -443 132t-298 369t-107 551t107 551t298 369t443 132q181 0 319 -62t235 -162.5t154 -217t76 -226.5zM1052 2328q-26 0 -45 19t-19 45t19 45t45 19t45 -19t19 -45t-19 -45t-45 -19z" />
    <glyph glyph-name="uni010C" unicode="&#x10c;" horiz-adv-x="2036" 
d="M1836 1408h-68q-19 102 -74 208t-146 196t-215 145t-281 55q-210 0 -388.5 -114.5t-287 -335t-108.5 -538.5q0 -322 108.5 -542t287 -333t388.5 -113q157 0 281 54.5t215 144t146 196t74 209.5h68q-19 -108 -76 -224.5t-154 -217.5t-235 -163.5t-319 -62.5
q-252 0 -443 132t-298 369t-107 551t107 551t298 369t443 132q181 0 319 -62t235 -162.5t154 -217t76 -226.5zM752 2644l300 -308l300 308h76v-8l-368 -376h-16l-368 376v8h76z" />
    <glyph glyph-name="uni1E08" unicode="&#x1e08;" horiz-adv-x="2036" 
d="M1836 1408h-68q-19 102 -74 208t-146 196t-215 145t-281 55q-210 0 -388.5 -114.5t-287 -335t-108.5 -538.5q0 -322 108.5 -542t287 -333t388.5 -113q157 0 281 54.5t215 144t146 196t74 209.5h68q-19 -108 -76 -224.5t-154 -217.5t-235 -163.5t-319 -62.5
q-252 0 -443 132t-298 369t-107 551t107 551t298 369t443 132q181 0 319 -62t235 -162.5t154 -217t76 -226.5zM1020 8h64l-14 -80q102 -16 154.5 -77.5t53.5 -154.5q-1 -106 -69.5 -156.5t-200.5 -55.5l-2 64q112 4 159.5 39.5t48.5 108.5q-1 86 -56.5 130t-165.5 42z
M1018 2272l280 432h80l-296 -432h-64z" />
    <glyph glyph-name="uni023B" unicode="&#x23b;" horiz-adv-x="2036" 
d="M504 -260l996 2568h68l-996 -2568h-68zM1836 1408h-68q-19 102 -74 208t-146 196t-215 145t-281 55q-210 0 -388.5 -114.5t-287 -335t-108.5 -538.5q0 -322 108.5 -542t287 -333t388.5 -113q157 0 281 54.5t215 144t146 196t74 209.5h68q-19 -108 -76 -224.5t-154 -217.5
t-235 -163.5t-319 -62.5q-252 0 -443 132t-298 369t-107 551t107 551t298 369t443 132q181 0 319 -62t235 -162.5t154 -217t76 -226.5z" />
    <glyph glyph-name="uni0186" unicode="&#x186;" horiz-adv-x="2036" 
d="M200 1408q19 110 76 226.5t154 217t235 162.5t319 62q252 0 443 -132t298 -369t107 -551t-107 -551t-298 -369t-443 -132q-181 0 -319 62.5t-235 163.5t-154 217.5t-76 224.5h68q19 -103 74 -209.5t146 -196t215 -144t281 -54.5q210 0 388.5 113t287 333t108.5 542
q0 318 -108.5 538.5t-287 335t-388.5 114.5q-157 0 -281 -55t-215 -145t-146 -196t-74 -208h-68z" />
    <glyph glyph-name="uni03F9" unicode="&#x3f9;" horiz-adv-x="2036" 
d="M1836 1408h-68q-19 102 -74 208t-146 196t-215 145t-281 55q-210 0 -388.5 -114.5t-287 -335t-108.5 -538.5q0 -322 108.5 -542t287 -333t388.5 -113q157 0 281 54.5t215 144t146 196t74 209.5h68q-19 -108 -76 -224.5t-154 -217.5t-235 -163.5t-319 -62.5
q-252 0 -443 132t-298 369t-107 551t107 551t298 369t443 132q181 0 319 -62t235 -162.5t154 -217t76 -226.5z" />
    <glyph glyph-name="uni0044" unicode="D" horiz-adv-x="2012" 
d="M856 0h-536v2048h588q283 0 484.5 -121.5t309 -348.5t106.5 -546q-1 -327 -113.5 -557.5t-325 -352.5t-513.5 -122zM384 64h472q284 0 483 115.5t302.5 332.5t102.5 520q-1 299 -99.5 512t-284.5 326.5t-452 113.5h-524v-1920z" />
    <glyph glyph-name="uni018A" unicode="&#x18a;" horiz-adv-x="2312" 
d="M172 1688v72q1 94 32 158t91.5 97t148.5 33h200v-64h-196q-76 0 -123 -26t-68 -83t-21 -151v-36h-64zM1156 0h-536v2048h588q283 0 484.5 -121.5t309 -348.5t106.5 -546q-1 -327 -113.5 -557.5t-325 -352.5t-513.5 -122zM684 64h472q284 0 483 115.5t302.5 332.5
t102.5 520q-1 299 -99.5 512t-284.5 326.5t-452 113.5h-524v-1920z" />
    <glyph glyph-name="uni010E" unicode="&#x10e;" horiz-adv-x="2012" 
d="M856 0h-536v2048h588q283 0 484.5 -121.5t309 -348.5t106.5 -546q-1 -327 -113.5 -557.5t-325 -352.5t-513.5 -122zM384 64h472q284 0 483 115.5t302.5 332.5t102.5 520q-1 299 -99.5 512t-284.5 326.5t-452 113.5h-524v-1920zM568 2644l300 -308l300 308h76v-8
l-368 -376h-16l-368 376v8h76z" />
    <glyph glyph-name="uni1E0A" unicode="&#x1e0a;" horiz-adv-x="2012" 
d="M856 0h-536v2048h588q283 0 484.5 -121.5t309 -348.5t106.5 -546q-1 -327 -113.5 -557.5t-325 -352.5t-513.5 -122zM384 64h472q284 0 483 115.5t302.5 332.5t102.5 520q-1 299 -99.5 512t-284.5 326.5t-452 113.5h-524v-1920zM868 2328q-26 0 -45 19t-19 45t19 45t45 19
t45 -19t19 -45t-19 -45t-45 -19z" />
    <glyph glyph-name="uni1E0C" unicode="&#x1e0c;" horiz-adv-x="2012" 
d="M856 0h-536v2048h588q283 0 484.5 -121.5t309 -348.5t106.5 -546q-1 -327 -113.5 -557.5t-325 -352.5t-513.5 -122zM384 64h472q284 0 483 115.5t302.5 332.5t102.5 520q-1 299 -99.5 512t-284.5 326.5t-452 113.5h-524v-1920zM812 -456q-26 0 -45 19t-19 45t19 45t45 19
t45 -19t19 -45t-19 -45t-45 -19z" />
    <glyph glyph-name="uni1E0E" unicode="&#x1e0e;" horiz-adv-x="2012" 
d="M856 0h-536v2048h588q283 0 484.5 -121.5t309 -348.5t106.5 -546q-1 -327 -113.5 -557.5t-325 -352.5t-513.5 -122zM384 64h472q284 0 483 115.5t302.5 332.5t102.5 520q-1 299 -99.5 512t-284.5 326.5t-452 113.5h-524v-1920zM1132 -288v-64h-640v64h640z" />
    <glyph glyph-name="uni1E10" unicode="&#x1e10;" horiz-adv-x="2012" 
d="M856 0h-536v2048h588q283 0 484.5 -121.5t309 -348.5t106.5 -546q-1 -327 -113.5 -557.5t-325 -352.5t-513.5 -122zM384 64h472q284 0 483 115.5t302.5 332.5t102.5 520q-1 299 -99.5 512t-284.5 326.5t-452 113.5h-524v-1920zM642 -680l132 518h70l-150 -518h-52z" />
    <glyph glyph-name="uni1E12" unicode="&#x1e12;" horiz-adv-x="2012" 
d="M856 0h-536v2048h588q283 0 484.5 -121.5t309 -348.5t106.5 -546q-1 -327 -113.5 -557.5t-325 -352.5t-513.5 -122zM384 64h472q284 0 483 115.5t302.5 332.5t102.5 520q-1 299 -99.5 512t-284.5 326.5t-452 113.5h-524v-1920zM512 -544h-76v8l368 376h16l368 -376v-8
h-76l-300 308z" />
    <glyph glyph-name="uni0189" unicode="&#x189;" horiz-adv-x="2012" 
d="M856 0h-536v2048h588q283 0 484.5 -121.5t309 -348.5t106.5 -546q-1 -327 -113.5 -557.5t-325 -352.5t-513.5 -122zM384 64h472q284 0 483 115.5t302.5 332.5t102.5 520q-1 299 -99.5 512t-284.5 326.5t-452 113.5h-524v-1920zM-28 1008v64h760v-64h-760z" />
    <glyph glyph-name="uni01F2" unicode="&#x1f2;" horiz-adv-x="3444" 
d="M856 0h-536v2048h588q283 0 484.5 -121.5t309 -348.5t106.5 -546q-1 -327 -113.5 -557.5t-325 -352.5t-513.5 -122zM384 64h472q284 0 483 115.5t302.5 332.5t102.5 520q-1 299 -99.5 512t-284.5 326.5t-452 113.5h-524v-1920zM2228 0v64l920 1400v8h-860v64h940v-64
l-920 -1400v-8h960v-64h-1040z" />
    <glyph glyph-name="uni01C5" unicode="&#x1c5;" horiz-adv-x="3444" 
d="M856 0h-536v2048h588q283 0 484.5 -121.5t309 -348.5t106.5 -546q-1 -327 -113.5 -557.5t-325 -352.5t-513.5 -122zM384 64h472q284 0 483 115.5t302.5 332.5t102.5 520q-1 299 -99.5 512t-284.5 326.5t-452 113.5h-524v-1920zM2228 0v64l920 1400v8h-860v64h940v-64
l-920 -1400v-8h960v-64h-1040zM2428 2132l300 -308l300 308h76v-8l-368 -376h-16l-368 376v8h76z" />
    <glyph glyph-name="uni0045" unicode="E" horiz-adv-x="1644" 
d="M320 0v2048h1092v-64h-1028v-928h968v-64h-968v-928h1056v-64h-1120z" />
    <glyph glyph-name="uni00C8" unicode="&#xc8;" horiz-adv-x="1644" 
d="M320 0v2048h1092v-64h-1028v-928h968v-64h-968v-928h1056v-64h-1120zM842 2272l-296 432h80l280 -432h-64z" />
    <glyph glyph-name="uni00C9" unicode="&#xc9;" horiz-adv-x="1644" 
d="M320 0v2048h1092v-64h-1028v-928h968v-64h-968v-928h1056v-64h-1120zM838 2272l280 432h80l-296 -432h-64z" />
    <glyph glyph-name="uni00CA" unicode="&#xca;" horiz-adv-x="1644" 
d="M320 0v2048h1092v-64h-1028v-928h968v-64h-968v-928h1056v-64h-1120zM572 2208h-76v8l368 376h16l368 -376v-8h-76l-300 308z" />
    <glyph glyph-name="uni00CB" unicode="&#xcb;" horiz-adv-x="1644" 
d="M320 0v2048h1092v-64h-1028v-928h968v-64h-968v-928h1056v-64h-1120zM680 2328q-26 0 -45 19t-19 45t19 45t45 19t45 -19t19 -45t-19 -45t-45 -19zM1064 2328q-26 0 -45 19t-19 45t19 45t45 19t45 -19t19 -45t-19 -45t-45 -19z" />
    <glyph glyph-name="uni0112" unicode="&#x112;" horiz-adv-x="1644" 
d="M320 0v2048h1092v-64h-1028v-928h968v-64h-968v-928h1056v-64h-1120zM1192 2424v-64h-640v64h640z" />
    <glyph glyph-name="uni0114" unicode="&#x114;" horiz-adv-x="1644" 
d="M320 0v2048h1092v-64h-1028v-928h968v-64h-968v-928h1056v-64h-1120zM1032 2560h64q0 -106 -59.5 -167t-164.5 -61t-164.5 61t-59.5 167h64q0 -79 41 -121.5t119 -42.5t119 42.5t41 121.5z" />
    <glyph glyph-name="uni0116" unicode="&#x116;" horiz-adv-x="1644" 
d="M320 0v2048h1092v-64h-1028v-928h968v-64h-968v-928h1056v-64h-1120zM872 2328q-26 0 -45 19t-19 45t19 45t45 19t45 -19t19 -45t-19 -45t-45 -19z" />
    <glyph glyph-name="uni0118" unicode="&#x118;" horiz-adv-x="1644" 
d="M320 0v2048h1092v-64h-1028v-928h968v-64h-968v-928h1056v-64h-1120zM1392 -608q-103 0 -169.5 59.5t-66.5 174.5q0 73 27.5 135t77 120t115.5 119h64q-103 -103 -161.5 -191.5t-58.5 -182.5q0 -88 48 -129t124 -41q44 0 77 13t69 39l38 -52q-43 -31 -86.5 -47.5
t-97.5 -16.5z" />
    <glyph glyph-name="uni011A" unicode="&#x11a;" horiz-adv-x="1644" 
d="M320 0v2048h1092v-64h-1028v-928h968v-64h-968v-928h1056v-64h-1120zM572 2644l300 -308l300 308h76v-8l-368 -376h-16l-368 376v8h76z" />
    <glyph glyph-name="uni0204" unicode="&#x204;" horiz-adv-x="1644" 
d="M320 0v2048h1092v-64h-1028v-928h968v-64h-968v-928h1056v-64h-1120zM748 2272l-316 432h82l298 -432h-64zM968 2272l-254 432h78l240 -432h-64z" />
    <glyph glyph-name="uni0206" unicode="&#x206;" horiz-adv-x="1644" 
d="M320 0v2048h1092v-64h-1028v-928h968v-64h-968v-928h1056v-64h-1120zM654 2408q0 106 59.5 167t164.5 61t164.5 -61t59.5 -167h-64q0 80 -41 122t-119 42t-119 -42t-41 -122h-64z" />
    <glyph glyph-name="uni0228" unicode="&#x228;" horiz-adv-x="1644" 
d="M320 0v2048h1092v-64h-1028v-928h968v-64h-968v-928h1056v-64h-1120zM796 8h64l-14 -80q102 -16 154.5 -77.5t53.5 -154.5q-1 -106 -69.5 -156.5t-200.5 -55.5l-2 64q112 4 159.5 39.5t48.5 108.5q-1 86 -56.5 130t-165.5 42z" />
    <glyph glyph-name="uni1E14" unicode="&#x1e14;" horiz-adv-x="1644" 
d="M320 0v2048h1092v-64h-1028v-928h968v-64h-968v-928h1056v-64h-1120zM838 2528l-252 256h92l236 -256h-76zM1192 2336v-64h-640v64h640z" />
    <glyph glyph-name="uni1E16" unicode="&#x1e16;" horiz-adv-x="1644" 
d="M320 0v2048h1092v-64h-1028v-928h968v-64h-968v-928h1056v-64h-1120zM830 2528l236 256h92l-252 -256h-76zM1192 2336v-64h-640v64h640z" />
    <glyph glyph-name="uni1E18" unicode="&#x1e18;" horiz-adv-x="1644" 
d="M320 0v2048h1092v-64h-1028v-928h968v-64h-968v-928h1056v-64h-1120zM524 -544h-76v8l368 376h16l368 -376v-8h-76l-300 308z" />
    <glyph glyph-name="uni1E1A" unicode="&#x1e1a;" horiz-adv-x="1644" 
d="M320 0v2048h1092v-64h-1028v-928h968v-64h-968v-928h1056v-64h-1120zM428 -382l-64 8q14 94 88 153t176 59q69 0 119 -25t91.5 -57t84 -57t97.5 -25q68 0 126 43t74 113l64 -16q-22 -91 -97.5 -147.5t-166.5 -56.5q-64 0 -110 25t-86.5 57t-86 57t-109.5 25
q-78 0 -134 -44t-66 -112z" />
    <glyph glyph-name="uni1E1C" unicode="&#x1e1c;" horiz-adv-x="1644" 
d="M320 0v2048h1092v-64h-1028v-928h968v-64h-968v-928h1056v-64h-1120zM796 8h64l-14 -80q102 -16 154.5 -77.5t53.5 -154.5q-1 -106 -69.5 -156.5t-200.5 -55.5l-2 64q112 4 159.5 39.5t48.5 108.5q-1 86 -56.5 130t-165.5 42zM1032 2560h64q0 -106 -59.5 -167t-164.5 -61
t-164.5 61t-59.5 167h64q0 -79 41 -121.5t119 -42.5t119 42.5t41 121.5z" />
    <glyph glyph-name="uni1EB8" unicode="&#x1eb8;" horiz-adv-x="1644" 
d="M320 0v2048h1092v-64h-1028v-928h968v-64h-968v-928h1056v-64h-1120zM824 -456q-26 0 -45 19t-19 45t19 45t45 19t45 -19t19 -45t-19 -45t-45 -19z" />
    <glyph glyph-name="uni1EBA" unicode="&#x1eba;" horiz-adv-x="1644" 
d="M320 0v2048h1092v-64h-1028v-928h968v-64h-968v-928h1056v-64h-1120zM902 2244h-64v194q115 7 161 41.5t45 112.5q-1 92 -59.5 133.5t-182.5 42.5l10 64q154 -1 226.5 -64.5t73.5 -167.5q1 -95 -57 -152.5t-153 -65.5v-138z" />
    <glyph glyph-name="uni1EBC" unicode="&#x1ebc;" horiz-adv-x="1644" 
d="M320 0v2048h1092v-64h-1028v-928h968v-64h-968v-928h1056v-64h-1120zM476 2316l-64 8q14 94 88 153t176 59q69 0 119 -25t91.5 -57t84 -57t97.5 -25q68 0 126 43t74 113l64 -16q-22 -91 -97.5 -147.5t-166.5 -56.5q-64 0 -110 25t-86.5 57t-86 57t-109.5 25
q-78 0 -134 -44t-66 -112z" />
    <glyph glyph-name="uni1EBE" unicode="&#x1ebe;" horiz-adv-x="1644" 
d="M320 0v2048h1092v-64h-1028v-928h968v-64h-968v-928h1056v-64h-1120zM892 2660l376 -384h-84l-300 308l-300 -308h-84l376 384h16zM1244 2524l240 352h80l-256 -352h-64z" />
    <glyph glyph-name="uni1EC0" unicode="&#x1ec0;" horiz-adv-x="1644" 
d="M320 0v2048h1092v-64h-1028v-928h968v-64h-968v-928h1056v-64h-1120zM884 2712l376 -384h-84l-300 308l-300 -308h-84l376 384h16zM310 2928l220 -352h-64l-236 352h80z" />
    <glyph glyph-name="uni1EC2" unicode="&#x1ec2;" horiz-adv-x="1644" 
d="M320 0v2048h1092v-64h-1028v-928h968v-64h-968v-928h1056v-64h-1120zM886 2616l376 -384h-84l-300 308l-300 -308h-84l376 384h16zM1352 2428h-64v162q114 7 160 39t46 95q-1 77 -60 116t-182 40l10 64q153 -1 226 -62t74 -150q0 -80 -58 -135t-152 -63v-106z" />
    <glyph glyph-name="uni1EC4" unicode="&#x1ec4;" horiz-adv-x="1644" 
d="M320 0v2048h1092v-64h-1028v-928h968v-64h-968v-928h1056v-64h-1120zM858 2564l376 -384h-84l-300 308l-300 -308h-84l376 384h16zM1168 2888l64 -8q-16 -100 -82 -156t-144 -56q-57 0 -97 24.5t-72 56.5t-65.5 57t-77.5 26q-53 1 -100.5 -39t-59.5 -117l-64 8
q17 101 82.5 156.5t139.5 55.5q54 0 94 -24.5t73 -56.5t68.5 -57t80.5 -26q54 -1 101.5 39.5t58.5 116.5z" />
    <glyph glyph-name="uni1EC6" unicode="&#x1ec6;" horiz-adv-x="1644" 
d="M320 0v2048h1092v-64h-1028v-928h968v-64h-968v-928h1056v-64h-1120zM572 2208h-76v8l368 376h16l368 -376v-8h-76l-300 308zM824 -456q-26 0 -45 19t-19 45t19 45t45 19t45 -19t19 -45t-19 -45t-45 -19z" />
    <glyph glyph-name="uni0246" unicode="&#x246;" horiz-adv-x="1644" 
d="M1304 2308l-742 -2568h-60l742 2568h60zM320 0v2048h1092v-64h-1028v-928h968v-64h-968v-928h1056v-64h-1120z" />
    <glyph glyph-name="uni018E" unicode="&#x18e;" horiz-adv-x="1610" 
d="M1344 2048v-2048h-1092v64h1028v928h-968v64h968v928h-1056v64h1120z" />
    <glyph glyph-name="uni0395" unicode="&#x395;" horiz-adv-x="1644" 
d="M320 0v2048h1092v-64h-1028v-928h968v-64h-968v-928h1056v-64h-1120z" />
    <glyph glyph-name="uni0388" unicode="&#x388;" horiz-adv-x="1680" 
d="M356 0v2048h1092v-64h-1028v-928h968v-64h-968v-928h1056v-64h-1120zM82 1696l40 460h80l-72 -460h-48z" />
    <glyph glyph-name="uni1F18" unicode="&#x1f18;" horiz-adv-x="1948" 
d="M624 0v2048h1092v-64h-1028v-928h968v-64h-968v-928h1056v-64h-1120zM376 2048v-52q0 -90 -15.5 -161t-54.5 -136t-110 -137l-46 22q65 77 100 139.5t48.5 128.5t13.5 152v44h64z" />
    <glyph glyph-name="uni1F19" unicode="&#x1f19;" horiz-adv-x="1904" 
d="M580 0v2048h1092v-64h-1028v-928h968v-64h-968v-928h1056v-64h-1120zM182 2004v52h64v-44q0 -86 13.5 -151.5t48.5 -128.5t100 -140l-46 -22q-106 108 -143 203.5t-37 230.5z" />
    <glyph glyph-name="uni1F1A" unicode="&#x1f1a;" horiz-adv-x="2508" 
d="M1184 0v2048h1092v-64h-1028v-928h968v-64h-968v-928h1056v-64h-1120zM966 1602v-18h-48l-284 446v18h68zM570 2048v-52q0 -90 -15.5 -161t-54.5 -136t-110 -137l-46 22q98 115 130 203t32 217v44h64z" />
    <glyph glyph-name="uni1F1B" unicode="&#x1f1b;" horiz-adv-x="2384" 
d="M1060 0v2048h1092v-64h-1028v-928h968v-64h-968v-928h1056v-64h-1120zM820 1610v-18h-48l-284 446v18h68zM354 2004v52h64v-44q0 -129 32.5 -217t129.5 -203l-46 -22q-106 108 -143 203t-37 231z" />
    <glyph glyph-name="uni1F1C" unicode="&#x1f1c;" horiz-adv-x="2316" 
d="M992 0v2048h1092v-64h-1028v-928h968v-64h-968v-928h1056v-64h-1120zM304 1610l264 446h68v-18l-284 -446h-48v18zM280 2056v-52q0 -90 -15.5 -161t-54.5 -136t-110 -137l-46 22q98 115 130 203t32 217v44h64z" />
    <glyph glyph-name="uni1F1D" unicode="&#x1f1d;" horiz-adv-x="2372" 
d="M1048 0v2048h1092v-64h-1028v-928h968v-64h-968v-928h1056v-64h-1120zM494 1610l264 446h68v-18l-284 -446h-48v18zM228 2004v52h64v-44q0 -129 32.5 -217t129.5 -203l-46 -22q-106 108 -143 203t-37 231z" />
    <glyph glyph-name="uni1FC8" unicode="&#x1fc8;" horiz-adv-x="2080" 
d="M756 0v2048h1092v-64h-1028v-928h968v-64h-968v-928h1056v-64h-1120zM404 1598v-18h-48l-284 446v18h68z" />
    <glyph glyph-name="uni1FC9" unicode="&#x1fc9;" horiz-adv-x="1952" 
d="M628 0v2048h1092v-64h-1028v-928h968v-64h-968v-928h1056v-64h-1120zM260 1728v4l252 464h76v-4l-274 -464h-54z" />
    <glyph glyph-name="uni0415" unicode="&#x415;" horiz-adv-x="1644" 
d="M320 0v2048h1092v-64h-1028v-928h968v-64h-968v-928h1056v-64h-1120z" />
    <glyph glyph-name="uni0400" unicode="&#x400;" horiz-adv-x="1644" 
d="M320 0v2048h1092v-64h-1028v-928h968v-64h-968v-928h1056v-64h-1120zM842 2272l-296 432h80l280 -432h-64z" />
    <glyph glyph-name="uni0401" unicode="&#x401;" horiz-adv-x="1644" 
d="M320 0v2048h1092v-64h-1028v-928h968v-64h-968v-928h1056v-64h-1120zM680 2328q-26 0 -45 19t-19 45t19 45t45 19t45 -19t19 -45t-19 -45t-45 -19zM1064 2328q-26 0 -45 19t-19 45t19 45t45 19t45 -19t19 -45t-19 -45t-45 -19z" />
    <glyph glyph-name="uni04D6" unicode="&#x4d6;" horiz-adv-x="1644" 
d="M320 0v2048h1092v-64h-1028v-928h968v-64h-968v-928h1056v-64h-1120zM1032 2560h64q0 -106 -59.5 -167t-164.5 -61t-164.5 61t-59.5 167h64q0 -79 41 -121.5t119 -42.5t119 42.5t41 121.5z" />
    <glyph glyph-name="uni0046" unicode="F" horiz-adv-x="1648" 
d="M320 0v2048h1100v-64h-1036v-928h940v-64h-940v-992h-64z" />
    <glyph glyph-name="uni0191" unicode="&#x191;" horiz-adv-x="1584" 
d="M256 0h64v-232q0 -82 -17.5 -145.5t-52.5 -107t-85.5 -65.5t-116.5 -22q-22 0 -43 2t-35 6v64q14 -4 32 -6t40 -2q108 0 161 68.5t53 207.5v232zM256 0v2048h1100v-64h-1036v-928h940v-64h-940v-992h-64z" />
    <glyph glyph-name="uni1E1E" unicode="&#x1e1e;" horiz-adv-x="1648" 
d="M320 0v2048h1100v-64h-1036v-928h940v-64h-940v-992h-64zM872 2328q-26 0 -45 19t-19 45t19 45t45 19t45 -19t19 -45t-19 -45t-45 -19z" />
    <glyph glyph-name="uni2132" unicode="&#x2132;" horiz-adv-x="1648" 
d="M1328 2048v-2048h-1100v64h1036v928h-940v64h940v992h64z" />
    <glyph glyph-name="uni0047" unicode="G" horiz-adv-x="2080" 
d="M1772 1408q-18 105 -73.5 211.5t-147 195.5t-216.5 143t-283 54q-235 0 -411.5 -123.5t-274.5 -346t-98 -518.5q0 -292 97 -515t275 -348t420 -125q214 0 380 101.5t259 292t89 458.5l28 -24h-736v64h772v-64q0 -280 -102 -479.5t-281 -306t-409 -106.5
q-260 0 -452.5 132.5t-298 369.5t-105.5 550q0 236 60.5 429.5t173 333t268.5 214.5t346 75q180 0 318 -62t235.5 -162.5t155 -217t75.5 -226.5h-64z" />
    <glyph glyph-name="uni01E4" unicode="&#x1e4;" horiz-adv-x="2080" 
d="M2000 560v-64h-920v64h920zM1772 1408q-18 105 -73.5 211.5t-147 195.5t-216.5 143t-283 54q-235 0 -411.5 -123.5t-274.5 -346t-98 -518.5q0 -292 97 -515t275 -348t420 -125q214 0 380 101.5t259 292t89 458.5l28 -24h-736v64h772v-64q0 -280 -102 -479.5t-281 -306
t-409 -106.5q-260 0 -452.5 132.5t-298 369.5t-105.5 550q0 236 60.5 429.5t173 333t268.5 214.5t346 75q180 0 318 -62t235.5 -162.5t155 -217t75.5 -226.5h-64z" />
    <glyph glyph-name="uni0193" unicode="&#x193;" horiz-adv-x="2003" 
d="M1836 1408h-64v232q0 78 15 134t46 92t79 53t114 17q20 0 46.5 -1.5t51.5 -4.5v-64q-26 3 -52 4.5t-46 1.5q-70 0 -112 -23t-60 -73.5t-18 -135.5v-232zM1772 1408q-18 105 -73.5 211.5t-147 195.5t-216.5 143t-283 54q-235 0 -411.5 -123.5t-274.5 -346t-98 -518.5
q0 -292 97 -515t275 -348t420 -125q214 0 380 101.5t259 292t89 458.5l28 -24h-736v64h772v-64q0 -280 -102 -479.5t-281 -306t-409 -106.5q-260 0 -452.5 132.5t-298 369.5t-105.5 550q0 236 60.5 429.5t173 333t268.5 214.5t346 75q180 0 318 -62t235.5 -162.5t155 -217
t75.5 -226.5h-64z" />
    <glyph glyph-name="uni011C" unicode="&#x11c;" horiz-adv-x="2080" 
d="M1772 1408q-18 105 -73.5 211.5t-147 195.5t-216.5 143t-283 54q-235 0 -411.5 -123.5t-274.5 -346t-98 -518.5q0 -292 97 -515t275 -348t420 -125q214 0 380 101.5t259 292t89 458.5l28 -24h-736v64h772v-64q0 -280 -102 -479.5t-281 -306t-409 -106.5
q-260 0 -452.5 132.5t-298 369.5t-105.5 550q0 236 60.5 429.5t173 333t268.5 214.5t346 75q180 0 318 -62t235.5 -162.5t155 -217t75.5 -226.5h-64zM740 2208h-76v8l368 376h16l368 -376v-8h-76l-300 308z" />
    <glyph glyph-name="uni011E" unicode="&#x11e;" horiz-adv-x="2080" 
d="M1772 1408q-18 105 -73.5 211.5t-147 195.5t-216.5 143t-283 54q-235 0 -411.5 -123.5t-274.5 -346t-98 -518.5q0 -292 97 -515t275 -348t420 -125q214 0 380 101.5t259 292t89 458.5l28 -24h-736v64h772v-64q0 -280 -102 -479.5t-281 -306t-409 -106.5
q-260 0 -452.5 132.5t-298 369.5t-105.5 550q0 236 60.5 429.5t173 333t268.5 214.5t346 75q180 0 318 -62t235.5 -162.5t155 -217t75.5 -226.5h-64zM1200 2560h64q0 -106 -59.5 -167t-164.5 -61t-164.5 61t-59.5 167h64q0 -79 41 -121.5t119 -42.5t119 42.5t41 121.5z" />
    <glyph glyph-name="uni0120" unicode="&#x120;" horiz-adv-x="2080" 
d="M1772 1408q-18 105 -73.5 211.5t-147 195.5t-216.5 143t-283 54q-235 0 -411.5 -123.5t-274.5 -346t-98 -518.5q0 -292 97 -515t275 -348t420 -125q214 0 380 101.5t259 292t89 458.5l28 -24h-736v64h772v-64q0 -280 -102 -479.5t-281 -306t-409 -106.5
q-260 0 -452.5 132.5t-298 369.5t-105.5 550q0 236 60.5 429.5t173 333t268.5 214.5t346 75q180 0 318 -62t235.5 -162.5t155 -217t75.5 -226.5h-64zM1040 2328q-26 0 -45 19t-19 45t19 45t45 19t45 -19t19 -45t-19 -45t-45 -19z" />
    <glyph glyph-name="uni0122" unicode="&#x122;" horiz-adv-x="2080" 
d="M1772 1408q-18 105 -73.5 211.5t-147 195.5t-216.5 143t-283 54q-235 0 -411.5 -123.5t-274.5 -346t-98 -518.5q0 -292 97 -515t275 -348t420 -125q214 0 380 101.5t259 292t89 458.5l28 -24h-736v64h772v-64q0 -280 -102 -479.5t-281 -306t-409 -106.5
q-260 0 -452.5 132.5t-298 369.5t-105.5 550q0 236 60.5 429.5t173 333t268.5 214.5t346 75q180 0 318 -62t235.5 -162.5t155 -217t75.5 -226.5h-64zM870 -680l132 518h70l-150 -518h-52z" />
    <glyph glyph-name="uni01E6" unicode="&#x1e6;" horiz-adv-x="2080" 
d="M1772 1408q-18 105 -73.5 211.5t-147 195.5t-216.5 143t-283 54q-235 0 -411.5 -123.5t-274.5 -346t-98 -518.5q0 -292 97 -515t275 -348t420 -125q214 0 380 101.5t259 292t89 458.5l28 -24h-736v64h772v-64q0 -280 -102 -479.5t-281 -306t-409 -106.5
q-260 0 -452.5 132.5t-298 369.5t-105.5 550q0 236 60.5 429.5t173 333t268.5 214.5t346 75q180 0 318 -62t235.5 -162.5t155 -217t75.5 -226.5h-64zM740 2644l300 -308l300 308h76v-8l-368 -376h-16l-368 376v8h76z" />
    <glyph glyph-name="uni01F4" unicode="&#x1f4;" horiz-adv-x="2080" 
d="M1772 1408q-18 105 -73.5 211.5t-147 195.5t-216.5 143t-283 54q-235 0 -411.5 -123.5t-274.5 -346t-98 -518.5q0 -292 97 -515t275 -348t420 -125q214 0 380 101.5t259 292t89 458.5l28 -24h-736v64h772v-64q0 -280 -102 -479.5t-281 -306t-409 -106.5
q-260 0 -452.5 132.5t-298 369.5t-105.5 550q0 236 60.5 429.5t173 333t268.5 214.5t346 75q180 0 318 -62t235.5 -162.5t155 -217t75.5 -226.5h-64zM1006 2272l280 432h80l-296 -432h-64z" />
    <glyph glyph-name="uni1E20" unicode="&#x1e20;" horiz-adv-x="2080" 
d="M1772 1408q-18 105 -73.5 211.5t-147 195.5t-216.5 143t-283 54q-235 0 -411.5 -123.5t-274.5 -346t-98 -518.5q0 -292 97 -515t275 -348t420 -125q214 0 380 101.5t259 292t89 458.5l28 -24h-736v64h772v-64q0 -280 -102 -479.5t-281 -306t-409 -106.5
q-260 0 -452.5 132.5t-298 369.5t-105.5 550q0 236 60.5 429.5t173 333t268.5 214.5t346 75q180 0 318 -62t235.5 -162.5t155 -217t75.5 -226.5h-64zM1360 2424v-64h-640v64h640z" />
    <glyph glyph-name="uniE002" unicode="&#xe002;" horiz-adv-x="2080" 
d="M1060 -28q-260 0 -452.5 132.5t-298 369.5t-105.5 550q0 236 60.5 429.5t173 333t268.5 214.5t346 75q180 0 318.5 -62t235.5 -162.5t154.5 -217t75.5 -226.5h-64q-18 105 -73.5 211.5t-146.5 195.5t-216.5 143t-283.5 54q-235 0 -411.5 -123.5t-274.5 -346t-98 -518.5
q0 -292 97 -514.5t275 -348t420 -125.5q214 0 380 101.5t259 292t89 458.5l28 -24h-736v64h772v-928h-64v474h-8q-91 -246 -280.5 -374t-439.5 -128z" />
    <glyph glyph-name="uniE003" unicode="&#xe003;" horiz-adv-x="2080" 
d="M2000 560v-64h-920v64h920zM1060 -28q-260 0 -452.5 132.5t-298 369.5t-105.5 550q0 236 60.5 429.5t173 333t268.5 214.5t346 75q180 0 318.5 -62t235.5 -162.5t154.5 -217t75.5 -226.5h-64q-18 105 -73.5 211.5t-146.5 195.5t-216.5 143t-283.5 54
q-235 0 -411.5 -123.5t-274.5 -346t-98 -518.5q0 -292 97 -514.5t275 -348t420 -125.5q214 0 380 101.5t259 292t89 458.5l28 -24h-736v64h772v-928h-64v474h-8q-91 -246 -280.5 -374t-439.5 -128z" />
    <glyph glyph-name="uniE004" unicode="&#xe004;" horiz-adv-x="2004" 
d="M1836 1408h-64v256q0 66 14.5 116.5t42.5 85.5t67.5 52.5t89.5 17.5q14 0 31 -1.5t35 -4.5v-64q-19 3 -36.5 4.5t-29.5 1.5q-45 0 -79 -20.5t-52.5 -66.5t-18.5 -125v-252zM1060 -28q-260 0 -452.5 132.5t-298 369.5t-105.5 550q0 236 60.5 429.5t173 333t268.5 214.5
t346 75q180 0 318.5 -62t235.5 -162.5t154.5 -217t75.5 -226.5h-64q-18 105 -73.5 211.5t-146.5 195.5t-216.5 143t-283.5 54q-235 0 -411.5 -123.5t-274.5 -346t-98 -518.5q0 -292 97 -514.5t275 -348t420 -125.5q214 0 380 101.5t259 292t89 458.5l28 -24h-736v64h772
v-928h-64v474h-8q-91 -246 -280.5 -374t-439.5 -128z" />
    <glyph glyph-name="uniE005" unicode="&#xe005;" horiz-adv-x="2080" 
d="M1060 -28q-260 0 -452.5 132.5t-298 369.5t-105.5 550q0 236 60.5 429.5t173 333t268.5 214.5t346 75q180 0 318.5 -62t235.5 -162.5t154.5 -217t75.5 -226.5h-64q-18 105 -73.5 211.5t-146.5 195.5t-216.5 143t-283.5 54q-235 0 -411.5 -123.5t-274.5 -346t-98 -518.5
q0 -292 97 -514.5t275 -348t420 -125.5q214 0 380 101.5t259 292t89 458.5l28 -24h-736v64h772v-928h-64v474h-8q-91 -246 -280.5 -374t-439.5 -128zM740 2208h-76v8l368 376h16l368 -376v-8h-76l-300 308z" />
    <glyph glyph-name="uniE006" unicode="&#xe006;" horiz-adv-x="2080" 
d="M1060 -28q-260 0 -452.5 132.5t-298 369.5t-105.5 550q0 236 60.5 429.5t173 333t268.5 214.5t346 75q180 0 318.5 -62t235.5 -162.5t154.5 -217t75.5 -226.5h-64q-18 105 -73.5 211.5t-146.5 195.5t-216.5 143t-283.5 54q-235 0 -411.5 -123.5t-274.5 -346t-98 -518.5
q0 -292 97 -514.5t275 -348t420 -125.5q214 0 380 101.5t259 292t89 458.5l28 -24h-736v64h772v-928h-64v474h-8q-91 -246 -280.5 -374t-439.5 -128zM1200 2560h64q0 -106 -59.5 -167t-164.5 -61t-164.5 61t-59.5 167h64q0 -79 41 -121.5t119 -42.5t119 42.5t41 121.5z" />
    <glyph glyph-name="uniE007" unicode="&#xe007;" horiz-adv-x="2080" 
d="M1060 -28q-260 0 -452.5 132.5t-298 369.5t-105.5 550q0 236 60.5 429.5t173 333t268.5 214.5t346 75q180 0 318.5 -62t235.5 -162.5t154.5 -217t75.5 -226.5h-64q-18 105 -73.5 211.5t-146.5 195.5t-216.5 143t-283.5 54q-235 0 -411.5 -123.5t-274.5 -346t-98 -518.5
q0 -292 97 -514.5t275 -348t420 -125.5q214 0 380 101.5t259 292t89 458.5l28 -24h-736v64h772v-928h-64v474h-8q-91 -246 -280.5 -374t-439.5 -128zM1040 2328q-26 0 -45 19t-19 45t19 45t45 19t45 -19t19 -45t-19 -45t-45 -19z" />
    <glyph glyph-name="uniE008" unicode="&#xe008;" horiz-adv-x="2080" 
d="M1060 -28q-260 0 -452.5 132.5t-298 369.5t-105.5 550q0 236 60.5 429.5t173 333t268.5 214.5t346 75q180 0 318.5 -62t235.5 -162.5t154.5 -217t75.5 -226.5h-64q-18 105 -73.5 211.5t-146.5 195.5t-216.5 143t-283.5 54q-235 0 -411.5 -123.5t-274.5 -346t-98 -518.5
q0 -292 97 -514.5t275 -348t420 -125.5q214 0 380 101.5t259 292t89 458.5l28 -24h-736v64h772v-928h-64v474h-8q-91 -246 -280.5 -374t-439.5 -128zM870 -680l132 518h70l-150 -518h-52z" />
    <glyph glyph-name="uniE009" unicode="&#xe009;" horiz-adv-x="2080" 
d="M1060 -28q-260 0 -452.5 132.5t-298 369.5t-105.5 550q0 236 60.5 429.5t173 333t268.5 214.5t346 75q180 0 318.5 -62t235.5 -162.5t154.5 -217t75.5 -226.5h-64q-18 105 -73.5 211.5t-146.5 195.5t-216.5 143t-283.5 54q-235 0 -411.5 -123.5t-274.5 -346t-98 -518.5
q0 -292 97 -514.5t275 -348t420 -125.5q214 0 380 101.5t259 292t89 458.5l28 -24h-736v64h772v-928h-64v474h-8q-91 -246 -280.5 -374t-439.5 -128zM740 2644l300 -308l300 308h76v-8l-368 -376h-16l-368 376v8h76z" />
    <glyph glyph-name="uniE00A" unicode="&#xe00a;" horiz-adv-x="2080" 
d="M1060 -28q-260 0 -452.5 132.5t-298 369.5t-105.5 550q0 236 60.5 429.5t173 333t268.5 214.5t346 75q180 0 318.5 -62t235.5 -162.5t154.5 -217t75.5 -226.5h-64q-18 105 -73.5 211.5t-146.5 195.5t-216.5 143t-283.5 54q-235 0 -411.5 -123.5t-274.5 -346t-98 -518.5
q0 -292 97 -514.5t275 -348t420 -125.5q214 0 380 101.5t259 292t89 458.5l28 -24h-736v64h772v-928h-64v474h-8q-91 -246 -280.5 -374t-439.5 -128zM1006 2272l280 432h80l-296 -432h-64z" />
    <glyph glyph-name="uniE00B" unicode="&#xe00b;" horiz-adv-x="2080" 
d="M1060 -28q-260 0 -452.5 132.5t-298 369.5t-105.5 550q0 236 60.5 429.5t173 333t268.5 214.5t346 75q180 0 318.5 -62t235.5 -162.5t154.5 -217t75.5 -226.5h-64q-18 105 -73.5 211.5t-146.5 195.5t-216.5 143t-283.5 54q-235 0 -411.5 -123.5t-274.5 -346t-98 -518.5
q0 -292 97 -514.5t275 -348t420 -125.5q214 0 380 101.5t259 292t89 458.5l28 -24h-736v64h772v-928h-64v474h-8q-91 -246 -280.5 -374t-439.5 -128zM1360 2424v-64h-640v64h640z" />
    <glyph glyph-name="uni0048" unicode="H" horiz-adv-x="2072" 
d="M320 0v2048h64v-992h1304v992h64v-2048h-64v992h-1304v-992h-64z" />
    <glyph glyph-name="uni1E28" unicode="&#x1e28;" horiz-adv-x="2072" 
d="M320 0v2048h64v-992h1304v992h64v-2048h-64v992h-1304v-992h-64zM320 0h64l-14 -80q102 -16 154.5 -77.5t53.5 -154.5q-1 -106 -69.5 -156.5t-200.5 -55.5l-2 64q112 4 159.5 39.5t48.5 108.5q-1 86 -56.5 130t-165.5 42z" />
    <glyph glyph-name="uni0124" unicode="&#x124;" horiz-adv-x="2072" 
d="M320 0v2048h64v-992h1304v992h64v-2048h-64v992h-1304v-992h-64zM736 2208h-76v8l368 376h16l368 -376v-8h-76l-300 308z" />
    <glyph glyph-name="uni021E" unicode="&#x21e;" horiz-adv-x="2072" 
d="M320 0v2048h64v-992h1304v992h64v-2048h-64v992h-1304v-992h-64zM736 2644l300 -308l300 308h76v-8l-368 -376h-16l-368 376v8h76z" />
    <glyph glyph-name="uni1E22" unicode="&#x1e22;" horiz-adv-x="2072" 
d="M320 0v2048h64v-992h1304v992h64v-2048h-64v992h-1304v-992h-64zM1036 2328q-26 0 -45 19t-19 45t19 45t45 19t45 -19t19 -45t-19 -45t-45 -19z" />
    <glyph glyph-name="uni1E24" unicode="&#x1e24;" horiz-adv-x="2072" 
d="M320 0v2048h64v-992h1304v992h64v-2048h-64v992h-1304v-992h-64zM1036 -456q-26 0 -45 19t-19 45t19 45t45 19t45 -19t19 -45t-19 -45t-45 -19z" />
    <glyph glyph-name="uni1E26" unicode="&#x1e26;" horiz-adv-x="2072" 
d="M320 0v2048h64v-992h1304v992h64v-2048h-64v992h-1304v-992h-64zM844 2328q-26 0 -45 19t-19 45t19 45t45 19t45 -19t19 -45t-19 -45t-45 -19zM1228 2328q-26 0 -45 19t-19 45t19 45t45 19t45 -19t19 -45t-19 -45t-45 -19z" />
    <glyph glyph-name="uni1E2A" unicode="&#x1e2a;" horiz-adv-x="2072" 
d="M320 0v2048h64v-992h1304v992h64v-2048h-64v992h-1304v-992h-64zM1186 -152h64q0 -70 -27 -121.5t-77 -79t-120 -27.5q-105 0 -164.5 61t-59.5 167h64q0 -79 41 -121.5t119 -42.5t119 42.5t41 121.5z" />
    <glyph glyph-name="uni0126" unicode="&#x126;" horiz-adv-x="2094" 
d="M1924 1484v-64h-1752v64h1752zM336 0v2048h64v-992h1304v992h64v-2048h-64v992h-1304v-992h-64z" />
    <glyph glyph-name="uni04C7" unicode="&#x4c7;" horiz-adv-x="2072" 
d="M1688 0h64v-232q0 -66 -11.5 -120t-33.5 -95t-55 -69t-76 -42t-96 -14q-22 0 -43 2t-35 6v64q14 -4 32 -6t40 -2q72 0 119.5 30.5t71 91.5t23.5 154v232zM320 0v2048h64v-992h1304v992h64v-2048h-64v992h-1304v-992h-64z" />
    <glyph glyph-name="uni04A2" unicode="&#x4a2;" horiz-adv-x="2092" 
d="M320 0v2048h64v-992h1304v992h64v-2048h-64v992h-1304v-992h-64zM1814 68v-568h-64v568h64z" />
    <glyph glyph-name="uni04C9" unicode="&#x4c9;" horiz-adv-x="2072" 
d="M320 0v2048h64v-992h1304v992h64v-2048h-64v992h-1304v-992h-64zM1816 56v-92q0 -61 -10 -120.5t-27 -118t-39 -117.5l-60 22q22 57 38 112t25 110t9 112v92h64z" />
    <glyph glyph-name="uni04A4" unicode="&#x4a4;" horiz-adv-x="2720" 
d="M2548 2048v-64h-796v-1984h-64v992h-1304v-992h-64v2048h64v-992h1304v992h860z" />
    <glyph glyph-name="uni01F6" unicode="&#x1f6;" horiz-adv-x="3120" 
d="M2276 -32q-172 0 -305 67t-208 208.5t-75 364.5v384h-1304v-992h-64v2048h64v-992h1304v992h64v-1440q0 -292 137 -433.5t387 -142.5q252 -1 380 141.5t128 434.5v968h64v-968q0 -232 -74 -373t-203 -204t-295 -63z" />
    <glyph glyph-name="uni0397" unicode="&#x397;" horiz-adv-x="2072" 
d="M320 0v2048h64v-992h1304v992h64v-2048h-64v992h-1304v-992h-64z" />
    <glyph glyph-name="uni0389" unicode="&#x389;" horiz-adv-x="2248" 
d="M496 0v2048h64v-992h1304v992h64v-2048h-64v992h-1304v-992h-64zM242 1696l40 460h80l-72 -460h-48z" />
    <glyph glyph-name="uni1F28" unicode="&#x1f28;" horiz-adv-x="2476" 
d="M724 0v2048h64v-992h1304v992h64v-2048h-64v992h-1304v-992h-64zM496 2048v-52q0 -90 -15.5 -161t-54.5 -136t-110 -137l-46 22q65 77 100 139.5t48.5 128.5t13.5 152v44h64z" />
    <glyph glyph-name="uni1F29" unicode="&#x1f29;" horiz-adv-x="2472" 
d="M720 0v2048h64v-992h1304v992h64v-2048h-64v992h-1304v-992h-64zM346 2004v52h64v-44q0 -86 13.5 -151.5t48.5 -128.5t100 -140l-46 -22q-106 108 -143 203.5t-37 230.5z" />
    <glyph glyph-name="uni1F2A" unicode="&#x1f2a;" horiz-adv-x="3076" 
d="M1324 0v2048h64v-992h1304v992h64v-2048h-64v992h-1304v-992h-64zM910 1602v-18h-48l-284 446v18h68zM514 2048v-52q0 -90 -15.5 -161t-54.5 -136t-110 -137l-46 22q98 115 130 203t32 217v44h64z" />
    <glyph glyph-name="uni1F2B" unicode="&#x1f2b;" horiz-adv-x="2952" 
d="M1200 0v2048h64v-992h1304v992h64v-2048h-64v992h-1304v-992h-64zM640 1610v-18h-48l-284 446v18h68zM174 2004v52h64v-44q0 -129 32.5 -217t129.5 -203l-46 -22q-106 108 -143 203t-37 231z" />
    <glyph glyph-name="uni1F2C" unicode="&#x1f2c;" horiz-adv-x="2884" 
d="M1132 0v2048h64v-992h1304v992h64v-2048h-64v992h-1304v-992h-64zM468 1610l264 446h68v-18l-284 -446h-48v18zM444 2056v-52q0 -90 -15.5 -161t-54.5 -136t-110 -137l-46 22q98 115 130 203t32 217v44h64z" />
    <glyph glyph-name="uni1F2D" unicode="&#x1f2d;" horiz-adv-x="2940" 
d="M1188 0v2048h64v-992h1304v992h64v-2048h-64v992h-1304v-992h-64zM494 1610l264 446h68v-18l-284 -446h-48v18zM228 2004v52h64v-44q0 -129 32.5 -217t129.5 -203l-46 -22q-106 108 -143 203t-37 231z" />
    <glyph glyph-name="uni1F2E" unicode="&#x1f2e;" horiz-adv-x="2756" 
d="M1004 0v2048h64v-992h1304v992h64v-2048h-64v992h-1304v-992h-64zM858 2298l58 -8q-10 -93 -59.5 -152t-132.5 -60q-51 0 -88.5 24.5t-69.5 57t-65 57.5t-75 25q-61 0 -94.5 -44t-43.5 -112l-58 8q10 94 61 153t139 59q54 0 91.5 -25t67.5 -57.5t61 -57t72 -24.5
q60 1 93 45t43 111zM592 2024v-52q0 -83 -21.5 -168t-98.5 -186l-46 22q68 107 85 185.5t17 154.5v44h64z" />
    <glyph glyph-name="uni1F2F" unicode="&#x1f2f;" horiz-adv-x="2744" 
d="M992 0v2048h64v-992h1304v992h64v-2048h-64v992h-1304v-992h-64zM538 1972v52h64v-44q0 -91 26 -169.5t78 -170.5l-46 -22q-63 86 -92.5 171t-29.5 183zM858 2298l58 -8q-10 -93 -59.5 -152t-132.5 -60q-51 0 -88.5 24.5t-69.5 57t-65 57.5t-75 25q-61 0 -94.5 -44
t-43.5 -112l-58 8q10 94 61 153t139 59q54 0 91.5 -25t67.5 -57.5t61 -57t72 -24.5q60 1 93 45t43 111z" />
    <glyph glyph-name="uni1FCA" unicode="&#x1fca;" horiz-adv-x="2648" 
d="M896 0v2048h64v-992h1304v992h64v-2048h-64v992h-1304v-992h-64zM568 1598v-18h-48l-284 446v18h68z" />
    <glyph glyph-name="uni1FCB" unicode="&#x1fcb;" horiz-adv-x="2520" 
d="M768 0v2048h64v-992h1304v992h64v-2048h-64v992h-1304v-992h-64zM424 1728v4l252 464h76v-4l-274 -464h-54z" />
    <glyph glyph-name="uni041D" unicode="&#x41d;" horiz-adv-x="2072" 
d="M320 0v2048h64v-992h1304v992h64v-2048h-64v992h-1304v-992h-64z" />
    <glyph glyph-name="uni1F98" unicode="&#x1f98;" horiz-adv-x="2340" 
d="M588 0v2048h64v-992h1304v992h64v-2048h-64v992h-1304v-992h-64zM1408 -600q-55 0 -93.5 44t-38.5 112v324h64v-324q0 -41 20 -66.5t48 -25.5q10 0 24.5 2t21.5 4l18 -62q-10 -3 -30 -5.5t-34 -2.5zM360 2048v-52q0 -90 -15.5 -161t-54.5 -136t-110 -137l-46 22
q65 77 100 139.5t48.5 128.5t13.5 152v44h64z" />
    <glyph glyph-name="uni1F99" unicode="&#x1f99;" horiz-adv-x="2472" 
d="M720 0v2048h64v-992h1304v992h64v-2048h-64v992h-1304v-992h-64zM1540 -600q-55 0 -93.5 44t-38.5 112v324h64v-324q0 -41 20 -66.5t48 -25.5q10 0 24.5 2t21.5 4l18 -62q-10 -3 -30 -5.5t-34 -2.5zM346 2004v52h64v-44q0 -86 13.5 -151.5t48.5 -128.5t100 -140l-46 -22
q-106 108 -143 203.5t-37 230.5z" />
    <glyph glyph-name="uni1F9A" unicode="&#x1f9a;" horiz-adv-x="3076" 
d="M1324 0v2048h64v-992h1304v992h64v-2048h-64v992h-1304v-992h-64zM2144 -600q-55 0 -93.5 44t-38.5 112v324h64v-324q0 -41 20 -66.5t48 -25.5q10 0 24.5 2t21.5 4l18 -62q-10 -3 -30 -5.5t-34 -2.5zM910 1602v-18h-48l-284 446v18h68zM514 2048v-52q0 -90 -15.5 -161
t-54.5 -136t-110 -137l-46 22q98 115 130 203t32 217v44h64z" />
    <glyph glyph-name="uni1F9B" unicode="&#x1f9b;" horiz-adv-x="2952" 
d="M1200 0v2048h64v-992h1304v992h64v-2048h-64v992h-1304v-992h-64zM2020 -600q-55 0 -93.5 44t-38.5 112v324h64v-324q0 -41 20 -66.5t48 -25.5q10 0 24.5 2t21.5 4l18 -62q-10 -3 -30 -5.5t-34 -2.5zM640 1610v-18h-48l-284 446v18h68zM174 2004v52h64v-44
q0 -129 32.5 -217t129.5 -203l-46 -22q-106 108 -143 203t-37 231z" />
    <glyph glyph-name="uni1F9C" unicode="&#x1f9c;" horiz-adv-x="2884" 
d="M1132 0v2048h64v-992h1304v992h64v-2048h-64v992h-1304v-992h-64zM1952 -600q-55 0 -93.5 44t-38.5 112v324h64v-324q0 -41 20 -66.5t48 -25.5q10 0 24.5 2t21.5 4l18 -62q-10 -3 -30 -5.5t-34 -2.5zM468 1610l264 446h68v-18l-284 -446h-48v18zM444 2056v-52
q0 -90 -15.5 -161t-54.5 -136t-110 -137l-46 22q98 115 130 203t32 217v44h64z" />
    <glyph glyph-name="uni1F9D" unicode="&#x1f9d;" horiz-adv-x="2940" 
d="M1188 0v2048h64v-992h1304v992h64v-2048h-64v992h-1304v-992h-64zM2008 -600q-55 0 -93.5 44t-38.5 112v324h64v-324q0 -41 20 -66.5t48 -25.5q10 0 24.5 2t21.5 4l18 -62q-10 -3 -30 -5.5t-34 -2.5zM494 1610l264 446h68v-18l-284 -446h-48v18zM228 2004v52h64v-44
q0 -129 32.5 -217t129.5 -203l-46 -22q-106 108 -143 203t-37 231z" />
    <glyph glyph-name="uni1F9E" unicode="&#x1f9e;" horiz-adv-x="2756" 
d="M1004 0v2048h64v-992h1304v992h64v-2048h-64v992h-1304v-992h-64zM1824 -600q-55 0 -93.5 44t-38.5 112v324h64v-324q0 -41 20 -66.5t48 -25.5q10 0 24.5 2t21.5 4l18 -62q-10 -3 -30 -5.5t-34 -2.5zM858 2298l58 -8q-10 -93 -59.5 -152t-132.5 -60q-51 0 -88.5 24.5
t-69.5 57t-65 57.5t-75 25q-61 0 -94.5 -44t-43.5 -112l-58 8q10 94 61 153t139 59q54 0 91.5 -25t67.5 -57.5t61 -57t72 -24.5q60 1 93 45t43 111zM592 2024v-52q0 -83 -21.5 -168t-98.5 -186l-46 22q68 107 85 185.5t17 154.5v44h64z" />
    <glyph glyph-name="uni1F9F" unicode="&#x1f9f;" horiz-adv-x="2744" 
d="M992 0v2048h64v-992h1304v992h64v-2048h-64v992h-1304v-992h-64zM1812 -600q-55 0 -93.5 44t-38.5 112v324h64v-324q0 -41 20 -66.5t48 -25.5q10 0 24.5 2t21.5 4l18 -62q-10 -3 -30 -5.5t-34 -2.5zM538 1972v52h64v-44q0 -91 26 -169.5t78 -170.5l-46 -22
q-63 86 -92.5 171t-29.5 183zM858 2298l58 -8q-10 -93 -59.5 -152t-132.5 -60q-51 0 -88.5 24.5t-69.5 57t-65 57.5t-75 25q-61 0 -94.5 -44t-43.5 -112l-58 8q10 94 61 153t139 59q54 0 91.5 -25t67.5 -57.5t61 -57t72 -24.5q60 1 93 45t43 111z" />
    <glyph glyph-name="uni1FCC" unicode="&#x1fcc;" horiz-adv-x="2072" 
d="M320 0v2048h64v-992h1304v992h64v-2048h-64v992h-1304v-992h-64zM1136 -600q-55 0 -93.5 44t-38.5 112v324h64v-324q0 -41 20 -66.5t48 -25.5q10 0 24.5 2t21.5 4l18 -62q-10 -3 -30 -5.5t-34 -2.5z" />
    <glyph glyph-name="uni0049" unicode="I" horiz-adv-x="704" 
d="M384 2048v-2048h-64v2048h64z" />
    <glyph glyph-name="uni00CF" unicode="&#xcf;" horiz-adv-x="704" 
d="M384 2048v-2048h-64v2048h64zM160 2328q-26 0 -45 19t-19 45t19 45t45 19t45 -19t19 -45t-19 -45t-45 -19zM544 2328q-26 0 -45 19t-19 45t19 45t45 19t45 -19t19 -45t-19 -45t-45 -19z" />
    <glyph glyph-name="uni1E2E" unicode="&#x1e2e;" horiz-adv-x="704" 
d="M384 2048v-2048h-64v2048h64zM310 2528l236 256h92l-252 -256h-76zM160 2240q-26 0 -45 19t-19 45t19 45t45 19t45 -19t19 -45t-19 -45t-45 -19zM544 2240q-26 0 -45 19t-19 45t19 45t45 19t45 -19t19 -45t-19 -45t-45 -19z" />
    <glyph glyph-name="uni0197" unicode="&#x197;" horiz-adv-x="704" 
d="M384 2048v-2048h-64v2048h64zM-28 1024v64h760v-64h-760z" />
    <glyph glyph-name="uni1E2C" unicode="&#x1e2c;" horiz-adv-x="704" 
d="M384 2048v-2048h-64v2048h64zM-44 -382l-64 8q14 94 88 153t176 59q69 0 119 -25t91.5 -57t84 -57t97.5 -25q68 0 126 43t74 113l64 -16q-22 -91 -97.5 -147.5t-166.5 -56.5q-64 0 -110 25t-86.5 57t-86 57t-109.5 25q-78 0 -134 -44t-66 -112z" />
    <glyph glyph-name="uni00CC" unicode="&#xcc;" horiz-adv-x="704" 
d="M384 2048v-2048h-64v2048h64zM322 2272l-296 432h80l280 -432h-64z" />
    <glyph glyph-name="uni00CD" unicode="&#xcd;" horiz-adv-x="704" 
d="M384 2048v-2048h-64v2048h64zM318 2272l280 432h80l-296 -432h-64z" />
    <glyph glyph-name="uni00CE" unicode="&#xce;" horiz-adv-x="704" 
d="M384 2048v-2048h-64v2048h64zM52 2208h-76v8l368 376h16l368 -376v-8h-76l-300 308z" />
    <glyph glyph-name="uni0128" unicode="&#x128;" horiz-adv-x="984" 
d="M524 2048v-2048h-64v2048h64zM96 2316l-64 8q14 94 88 153t176 59q69 0 119 -25t91.5 -57t84 -57t97.5 -25q68 0 126 43t74 113l64 -16q-22 -91 -97.5 -147.5t-166.5 -56.5q-64 0 -110 25t-86.5 57t-86 57t-109.5 25q-78 0 -134 -44t-66 -112z" />
    <glyph glyph-name="uni012A" unicode="&#x12a;" horiz-adv-x="704" 
d="M384 2048v-2048h-64v2048h64zM672 2424v-64h-640v64h640z" />
    <glyph glyph-name="uni012C" unicode="&#x12c;" horiz-adv-x="704" 
d="M384 2048v-2048h-64v2048h64zM512 2560h64q0 -106 -59.5 -167t-164.5 -61t-164.5 61t-59.5 167h64q0 -79 41 -121.5t119 -42.5t119 42.5t41 121.5z" />
    <glyph glyph-name="uni012E" unicode="&#x12e;" horiz-adv-x="704" 
d="M384 2048v-2048h-64v2048h64zM336 -608q-103 0 -169.5 59.5t-66.5 174.5q0 73 27.5 135t77 120t115.5 119h64q-103 -103 -161.5 -191.5t-58.5 -182.5q0 -88 48 -129t124 -41q44 0 77 13t69 39l38 -52q-43 -31 -86.5 -47.5t-97.5 -16.5z" />
    <glyph glyph-name="uni0130" unicode="&#x130;" horiz-adv-x="704" 
d="M384 2048v-2048h-64v2048h64zM352 2328q-26 0 -45 19t-19 45t19 45t45 19t45 -19t19 -45t-19 -45t-45 -19z" />
    <glyph glyph-name="uni01CF" unicode="&#x1cf;" horiz-adv-x="704" 
d="M384 2048v-2048h-64v2048h64zM52 2644l300 -308l300 308h76v-8l-368 -376h-16l-368 376v8h76z" />
    <glyph glyph-name="uni0208" unicode="&#x208;" horiz-adv-x="704" 
d="M384 2048v-2048h-64v2048h64zM228 2272l-316 432h82l298 -432h-64zM448 2272l-254 432h78l240 -432h-64z" />
    <glyph glyph-name="uni020A" unicode="&#x20a;" horiz-adv-x="704" 
d="M384 2048v-2048h-64v2048h64zM134 2408q0 106 59.5 167t164.5 61t164.5 -61t59.5 -167h-64q0 80 -41 122t-119 42t-119 -42t-41 -122h-64z" />
    <glyph glyph-name="uni1EC8" unicode="&#x1ec8;" horiz-adv-x="704" 
d="M384 2048v-2048h-64v2048h64zM382 2244h-64v194q115 7 161 41.5t45 112.5q-1 92 -59.5 133.5t-182.5 42.5l10 64q154 -1 226.5 -64.5t73.5 -167.5q1 -95 -57 -152.5t-153 -65.5v-138z" />
    <glyph glyph-name="uni1ECA" unicode="&#x1eca;" horiz-adv-x="704" 
d="M384 2048v-2048h-64v2048h64zM352 -456q-26 0 -45 19t-19 45t19 45t45 19t45 -19t19 -45t-19 -45t-45 -19z" />
    <glyph glyph-name="uni0399" unicode="&#x399;" horiz-adv-x="704" 
d="M384 2048v-2048h-64v2048h64z" />
    <glyph glyph-name="uni038A" unicode="&#x38a;" horiz-adv-x="630" 
d="M308 2048v-2048h-64v2048h64zM22 1696l40 460h80l-72 -460h-48z" />
    <glyph glyph-name="uni03AA" unicode="&#x3aa;" horiz-adv-x="704" 
d="M384 2048v-2048h-64v2048h64zM160 2328q-26 0 -45 19t-19 45t19 45t45 19t45 -19t19 -45t-19 -45t-45 -19zM544 2328q-26 0 -45 19t-19 45t19 45t45 19t45 -19t19 -45t-19 -45t-45 -19z" />
    <glyph glyph-name="uni1F38" unicode="&#x1f38;" horiz-adv-x="1059" 
d="M740 2048v-2048h-64v2048h64zM496 2048v-52q0 -90 -15.5 -161t-54.5 -136t-110 -137l-46 22q65 77 100 139.5t48.5 128.5t13.5 152v44h64z" />
    <glyph glyph-name="uni1F39" unicode="&#x1f39;" horiz-adv-x="1056" 
d="M736 2048v-2048h-64v2048h64zM346 2004v52h64v-44q0 -86 13.5 -151.5t48.5 -128.5t100 -140l-46 -22q-106 108 -143 203.5t-37 230.5z" />
    <glyph glyph-name="uni1F3A" unicode="&#x1f3a;" horiz-adv-x="1662" 
d="M1340 2048v-2048h-64v2048h64zM910 1602v-18h-48l-284 446v18h68zM514 2048v-52q0 -90 -15.5 -161t-54.5 -136t-110 -137l-46 22q98 115 130 203t32 217v44h64z" />
    <glyph glyph-name="uni1F3B" unicode="&#x1f3b;" horiz-adv-x="1536" 
d="M1216 2048v-2048h-64v2048h64zM640 1610v-18h-48l-284 446v18h68zM174 2004v52h64v-44q0 -129 32.5 -217t129.5 -203l-46 -22q-106 108 -143 203t-37 231z" />
    <glyph glyph-name="uni1F3C" unicode="&#x1f3c;" horiz-adv-x="1468" 
d="M1148 2048v-2048h-64v2048h64zM468 1610l264 446h68v-18l-284 -446h-48v18zM444 2056v-52q0 -90 -15.5 -161t-54.5 -136t-110 -137l-46 22q98 115 130 203t32 217v44h64z" />
    <glyph glyph-name="uni1F3D" unicode="&#x1f3d;" horiz-adv-x="1526" 
d="M1204 2048v-2048h-64v2048h64zM494 1610l264 446h68v-18l-284 -446h-48v18zM228 2004v52h64v-44q0 -129 32.5 -217t129.5 -203l-46 -22q-106 108 -143 203t-37 231z" />
    <glyph glyph-name="uni1F3E" unicode="&#x1f3e;" horiz-adv-x="1342" 
d="M1020 2048v-2048h-64v2048h64zM858 2298l58 -8q-10 -93 -59.5 -152t-132.5 -60q-51 0 -88.5 24.5t-69.5 57t-65 57.5t-75 25q-61 0 -94.5 -44t-43.5 -112l-58 8q10 94 61 153t139 59q54 0 91.5 -25t67.5 -57.5t61 -57t72 -24.5q60 1 93 45t43 111zM592 2024v-52
q0 -83 -21.5 -168t-98.5 -186l-46 22q68 107 85 185.5t17 154.5v44h64z" />
    <glyph glyph-name="uni1F3F" unicode="&#x1f3f;" horiz-adv-x="1327" 
d="M1008 2048v-2048h-64v2048h64zM538 1972v52h64v-44q0 -91 26 -169.5t78 -170.5l-46 -22q-63 86 -92.5 171t-29.5 183zM858 2298l58 -8q-10 -93 -59.5 -152t-132.5 -60q-51 0 -88.5 24.5t-69.5 57t-65 57.5t-75 25q-61 0 -94.5 -44t-43.5 -112l-58 8q10 94 61 153t139 59
q54 0 91.5 -25t67.5 -57.5t61 -57t72 -24.5q60 1 93 45t43 111z" />
    <glyph glyph-name="uni1FD8" unicode="&#x1fd8;" horiz-adv-x="704" 
d="M384 2048v-2048h-64v2048h64zM512 2560h64q0 -106 -59.5 -167t-164.5 -61t-164.5 61t-59.5 167h64q0 -79 41 -121.5t119 -42.5t119 42.5t41 121.5z" />
    <glyph glyph-name="uni1FD9" unicode="&#x1fd9;" horiz-adv-x="704" 
d="M384 2048v-2048h-64v2048h64zM672 2424v-64h-640v64h640z" />
    <glyph glyph-name="uni1FDA" unicode="&#x1fda;" horiz-adv-x="1234" 
d="M912 2048v-2048h-64v2048h64zM568 1598v-18h-48l-284 446v18h68z" />
    <glyph glyph-name="uni1FDB" unicode="&#x1fdb;" horiz-adv-x="1106" 
d="M784 2048v-2048h-64v2048h64zM384 1728v4l252 464h76v-4l-274 -464h-54z" />
    <glyph glyph-name="uni0406" unicode="&#x406;" horiz-adv-x="704" 
d="M384 2048v-2048h-64v2048h64z" />
    <glyph glyph-name="uni0407" unicode="&#x407;" horiz-adv-x="704" 
d="M384 2048v-2048h-64v2048h64zM160 2328q-26 0 -45 19t-19 45t19 45t45 19t45 -19t19 -45t-19 -45t-45 -19zM544 2328q-26 0 -45 19t-19 45t19 45t45 19t45 -19t19 -45t-19 -45t-45 -19z" />
    <glyph glyph-name="uniE00C" unicode="&#xe00c;" horiz-adv-x="984" 
d="M172 1984v64h640v-64h-640zM172 0v64h640v-64h-640zM524 2048v-2048h-64v2048h64z" />
    <glyph glyph-name="uniE00D" unicode="&#xe00d;" horiz-adv-x="984" 
d="M172 1984v64h640v-64h-640zM172 0v64h640v-64h-640zM524 2048v-2048h-64v2048h64zM300 2328q-26 0 -45 19t-19 45t19 45t45 19t45 -19t19 -45t-19 -45t-45 -19zM684 2328q-26 0 -45 19t-19 45t19 45t45 19t45 -19t19 -45t-19 -45t-45 -19z" />
    <glyph glyph-name="uniE00E" unicode="&#xe00e;" horiz-adv-x="984" 
d="M172 1984v64h640v-64h-640zM172 0v64h640v-64h-640zM524 2048v-2048h-64v2048h64zM450 2528l236 256h92l-252 -256h-76zM300 2240q-26 0 -45 19t-19 45t19 45t45 19t45 -19t19 -45t-19 -45t-45 -19zM684 2240q-26 0 -45 19t-19 45t19 45t45 19t45 -19t19 -45t-19 -45
t-45 -19z" />
    <glyph glyph-name="uniE00F" unicode="&#xe00f;" horiz-adv-x="984" 
d="M172 1984v64h640v-64h-640zM172 0v64h640v-64h-640zM524 2048v-2048h-64v2048h64zM112 1024v64h760v-64h-760z" />
    <glyph glyph-name="uniE010" unicode="&#xe010;" horiz-adv-x="984" 
d="M172 1984v64h640v-64h-640zM172 0v64h640v-64h-640zM524 2048v-2048h-64v2048h64zM96 -382l-64 8q14 94 88 153t176 59q69 0 119 -25t91.5 -57t84 -57t97.5 -25q68 0 126 43t74 113l64 -16q-22 -91 -97.5 -147.5t-166.5 -56.5q-64 0 -110 25t-86.5 57t-86 57t-109.5 25
q-78 0 -134 -44t-66 -112z" />
    <glyph glyph-name="uniE011" unicode="&#xe011;" horiz-adv-x="984" 
d="M172 1984v64h640v-64h-640zM172 0v64h640v-64h-640zM524 2048v-2048h-64v2048h64zM462 2272l-296 432h80l280 -432h-64z" />
    <glyph glyph-name="uniE012" unicode="&#xe012;" horiz-adv-x="984" 
d="M172 1984v64h640v-64h-640zM172 0v64h640v-64h-640zM524 2048v-2048h-64v2048h64zM458 2272l280 432h80l-296 -432h-64z" />
    <glyph glyph-name="uniE013" unicode="&#xe013;" horiz-adv-x="984" 
d="M172 1984v64h640v-64h-640zM172 0v64h640v-64h-640zM524 2048v-2048h-64v2048h64zM192 2208h-76v8l368 376h16l368 -376v-8h-76l-300 308z" />
    <glyph glyph-name="uniE014" unicode="&#xe014;" horiz-adv-x="984" 
d="M172 1984v64h640v-64h-640zM172 0v64h640v-64h-640zM524 2048v-2048h-64v2048h64zM96 2316l-64 8q14 94 88 153t176 59q69 0 119 -25t91.5 -57t84 -57t97.5 -25q68 0 126 43t74 113l64 -16q-22 -91 -97.5 -147.5t-166.5 -56.5q-64 0 -110 25t-86.5 57t-86 57t-109.5 25
q-78 0 -134 -44t-66 -112z" />
    <glyph glyph-name="uniE015" unicode="&#xe015;" horiz-adv-x="984" 
d="M172 1984v64h640v-64h-640zM172 0v64h640v-64h-640zM524 2048v-2048h-64v2048h64zM812 2424v-64h-640v64h640z" />
    <glyph glyph-name="uniE016" unicode="&#xe016;" horiz-adv-x="984" 
d="M172 1984v64h640v-64h-640zM172 0v64h640v-64h-640zM524 2048v-2048h-64v2048h64zM652 2560h64q0 -106 -59.5 -167t-164.5 -61t-164.5 61t-59.5 167h64q0 -79 41 -121.5t119 -42.5t119 42.5t41 121.5z" />
    <glyph glyph-name="uniE017" unicode="&#xe017;" horiz-adv-x="984" 
d="M172 1984v64h640v-64h-640zM172 0v64h640v-64h-640zM524 2048v-2048h-64v2048h64zM764 -608q-103 0 -169.5 59.5t-66.5 174.5q0 73 27.5 135t77 120t115.5 119h64q-103 -103 -161.5 -191.5t-58.5 -182.5q0 -88 48 -129t124 -41q44 0 77 13t69 39l38 -52
q-43 -31 -86.5 -47.5t-97.5 -16.5z" />
    <glyph glyph-name="uniE018" unicode="&#xe018;" horiz-adv-x="984" 
d="M172 1984v64h640v-64h-640zM172 0v64h640v-64h-640zM524 2048v-2048h-64v2048h64zM492 2328q-26 0 -45 19t-19 45t19 45t45 19t45 -19t19 -45t-19 -45t-45 -19z" />
    <glyph glyph-name="uniE019" unicode="&#xe019;" horiz-adv-x="984" 
d="M172 1984v64h640v-64h-640zM172 0v64h640v-64h-640zM524 2048v-2048h-64v2048h64zM192 2644l300 -308l300 308h76v-8l-368 -376h-16l-368 376v8h76z" />
    <glyph glyph-name="uniE01A" unicode="&#xe01a;" horiz-adv-x="984" 
d="M172 1984v64h640v-64h-640zM172 0v64h640v-64h-640zM524 2048v-2048h-64v2048h64zM368 2272l-316 432h82l298 -432h-64zM588 2272l-254 432h78l240 -432h-64z" />
    <glyph glyph-name="uniE01B" unicode="&#xe01b;" horiz-adv-x="984" 
d="M172 1984v64h640v-64h-640zM172 0v64h640v-64h-640zM524 2048v-2048h-64v2048h64zM274 2408q0 106 59.5 167t164.5 61t164.5 -61t59.5 -167h-64q0 80 -41 122t-119 42t-119 -42t-41 -122h-64z" />
    <glyph glyph-name="uniE01C" unicode="&#xe01c;" horiz-adv-x="984" 
d="M172 1984v64h640v-64h-640zM172 0v64h640v-64h-640zM524 2048v-2048h-64v2048h64zM522 2244h-64v194q115 7 161 41.5t45 112.5q-1 92 -59.5 133.5t-182.5 42.5l10 64q154 -1 226.5 -64.5t73.5 -167.5q1 -95 -57 -152.5t-153 -65.5v-138z" />
    <glyph glyph-name="uniE01D" unicode="&#xe01d;" horiz-adv-x="984" 
d="M172 1984v64h640v-64h-640zM172 0v64h640v-64h-640zM524 2048v-2048h-64v2048h64zM492 -456q-26 0 -45 19t-19 45t19 45t45 19t45 -19t19 -45t-19 -45t-45 -19z" />
    <glyph glyph-name="uniE01E" unicode="&#xe01e;" horiz-adv-x="1416" 
d="M604 1984v64h640v-64h-640zM604 0v64h640v-64h-640zM956 2048v-2048h-64v2048h64zM428 2048v-52q0 -90 -15.5 -161t-54.5 -136t-110 -137l-46 22q65 77 100 139.5t48.5 128.5t13.5 152v44h64z" />
    <glyph glyph-name="uniE01F" unicode="&#xe01f;" horiz-adv-x="1416" 
d="M604 1984v64h640v-64h-640zM604 0v64h640v-64h-640zM956 2048v-2048h-64v2048h64zM282 2004v52h64v-44q0 -86 13.5 -151.5t48.5 -128.5t100 -140l-46 -22q-106 108 -143 203.5t-37 230.5z" />
    <glyph glyph-name="uniE020" unicode="&#xe020;" horiz-adv-x="2024" 
d="M1212 1984v64h640v-64h-640zM1212 0v64h640v-64h-640zM1564 2048v-2048h-64v2048h64zM850 1602v-18h-48l-284 446v18h68zM454 2048v-52q0 -90 -15.5 -161t-54.5 -136t-110 -137l-46 22q98 115 130 203t32 217v44h64z" />
    <glyph glyph-name="uniE021" unicode="&#xe021;" horiz-adv-x="1896" 
d="M1084 1984v64h640v-64h-640zM1084 0v64h640v-64h-640zM1436 2048v-2048h-64v2048h64zM572 1610v-18h-48l-284 446v18h68zM106 2004v52h64v-44q0 -129 32.5 -217t129.5 -203l-46 -22q-106 108 -143 203t-37 231z" />
    <glyph glyph-name="uniE022" unicode="&#xe022;" horiz-adv-x="1832" 
d="M1020 1984v64h640v-64h-640zM1020 0v64h640v-64h-640zM1372 2048v-2048h-64v2048h64zM408 1610l264 446h68v-18l-284 -446h-48v18zM384 2056v-52q0 -90 -15.5 -161t-54.5 -136t-110 -137l-46 22q98 115 130 203t32 217v44h64z" />
    <glyph glyph-name="uniE023" unicode="&#xe023;" horiz-adv-x="1888" 
d="M1076 1984v64h640v-64h-640zM1076 0v64h640v-64h-640zM1428 2048v-2048h-64v2048h64zM434 1610l264 446h68v-18l-284 -446h-48v18zM168 2004v52h64v-44q0 -129 32.5 -217t129.5 -203l-46 -22q-106 108 -143 203t-37 231z" />
    <glyph glyph-name="uniE024" unicode="&#xe024;" horiz-adv-x="1700" 
d="M888 1984v64h640v-64h-640zM888 0v64h640v-64h-640zM1240 2048v-2048h-64v2048h64zM794 2298l58 -8q-10 -93 -59.5 -152t-132.5 -60q-51 0 -88.5 24.5t-69.5 57t-65 57.5t-75 25q-61 0 -94.5 -44t-43.5 -112l-58 8q10 94 61 153t139 59q54 0 91.5 -25t67.5 -57.5t61 -57
t72 -24.5q60 1 93 45t43 111zM528 2024v-52q0 -83 -21.5 -168t-98.5 -186l-46 22q68 107 85 185.5t17 154.5v44h64z" />
    <glyph glyph-name="uniE025" unicode="&#xe025;" horiz-adv-x="1684" 
d="M872 1984v64h640v-64h-640zM872 0v64h640v-64h-640zM1224 2048v-2048h-64v2048h64zM474 1972v52h64v-44q0 -91 26 -169.5t78 -170.5l-46 -22q-63 86 -92.5 171t-29.5 183zM794 2298l58 -8q-10 -93 -59.5 -152t-132.5 -60q-51 0 -88.5 24.5t-69.5 57t-65 57.5t-75 25
q-61 0 -94.5 -44t-43.5 -112l-58 8q10 94 61 153t139 59q54 0 91.5 -25t67.5 -57.5t61 -57t72 -24.5q60 1 93 45t43 111z" />
    <glyph glyph-name="uniE026" unicode="&#xe026;" horiz-adv-x="984" 
d="M172 1984v64h640v-64h-640zM172 0v64h640v-64h-640zM524 2048v-2048h-64v2048h64zM652 2560h64q0 -106 -59.5 -167t-164.5 -61t-164.5 61t-59.5 167h64q0 -79 41 -121.5t119 -42.5t119 42.5t41 121.5z" />
    <glyph glyph-name="uniE027" unicode="&#xe027;" horiz-adv-x="984" 
d="M172 1984v64h640v-64h-640zM172 0v64h640v-64h-640zM524 2048v-2048h-64v2048h64zM812 2424v-64h-640v64h640z" />
    <glyph glyph-name="uniE028" unicode="&#xe028;" horiz-adv-x="1596" 
d="M784 1984v64h640v-64h-640zM784 0v64h640v-64h-640zM1136 2048v-2048h-64v2048h64zM704 1598v-18h-48l-284 446v18h68z" />
    <glyph glyph-name="uniE029" unicode="&#xe029;" horiz-adv-x="1468" 
d="M656 1984v64h640v-64h-640zM656 0v64h640v-64h-640zM1008 2048v-2048h-64v2048h64zM320 1728v4l252 464h76v-4l-274 -464h-54z" />
    <glyph glyph-name="uniE02A" unicode="&#xe02a;" horiz-adv-x="984" 
d="M172 1984v64h640v-64h-640zM172 0v64h640v-64h-640zM524 2048v-2048h-64v2048h64z" />
    <glyph glyph-name="uniE02B" unicode="&#xe02b;" horiz-adv-x="984" 
d="M172 1984v64h640v-64h-640zM172 0v64h640v-64h-640zM524 2048v-2048h-64v2048h64zM300 2328q-26 0 -45 19t-19 45t19 45t45 19t45 -19t19 -45t-19 -45t-45 -19zM684 2328q-26 0 -45 19t-19 45t19 45t45 19t45 -19t19 -45t-19 -45t-45 -19z" />
    <glyph glyph-name="uni004A" unicode="J" horiz-adv-x="1464" 
d="M1080 2048h64v-1504q-1 -208 -70.5 -333.5t-182 -182t-243.5 -56.5q-141 0 -253.5 54t-178 147t-64.5 211h64q-1 -100 56 -178.5t155.5 -124t220.5 -45.5q112 0 210.5 48t159.5 159t62 301v1504z" />
    <glyph glyph-name="uni0134" unicode="&#x134;" horiz-adv-x="1464" 
d="M1080 2048h64v-1504q-1 -208 -70.5 -333.5t-182 -182t-243.5 -56.5q-141 0 -253.5 54t-178 147t-64.5 211h64q-1 -100 56 -178.5t155.5 -124t220.5 -45.5q112 0 210.5 48t159.5 159t62 301v1504zM812 2208h-76v8l368 376h16l368 -376v-8h-76l-300 308z" />
    <glyph glyph-name="uni0248" unicode="&#x248;" horiz-adv-x="1464" 
d="M1080 2048h64v-1504q-1 -208 -70.5 -333.5t-182 -182t-243.5 -56.5q-141 0 -253.5 54t-178 147t-64.5 211h64q-1 -100 56 -178.5t155.5 -124t220.5 -45.5q112 0 210.5 48t159.5 159t62 301v1504zM732 1184v64h760v-64h-760z" />
    <glyph glyph-name="uni037F" unicode="&#x37f;" horiz-adv-x="1464" 
d="M1080 2048h64v-1504q-1 -208 -70.5 -333.5t-182 -182t-243.5 -56.5q-141 0 -253.5 54t-178 147t-64.5 211h64q-1 -100 56 -178.5t155.5 -124t220.5 -45.5q112 0 210.5 48t159.5 159t62 301v1504z" />
    <glyph glyph-name="uni0408" unicode="&#x408;" horiz-adv-x="1464" 
d="M1080 2048h64v-1504q-1 -208 -70.5 -333.5t-182 -182t-243.5 -56.5q-141 0 -253.5 54t-178 147t-64.5 211h64q-1 -100 56 -178.5t155.5 -124t220.5 -45.5q112 0 210.5 48t159.5 159t62 301v1504z" />
    <glyph glyph-name="uni004B" unicode="K" horiz-adv-x="1736" 
d="M320 0v2048h64v-1276h8l1160 1276h88l-904 -992l892 -1056h-84l-852 1008l-308 -340v-668h-64z" />
    <glyph glyph-name="uni0136" unicode="&#x136;" horiz-adv-x="1736" 
d="M320 0v2048h64v-1276h8l1160 1276h88l-904 -992l892 -1056h-84l-852 1008l-308 -340v-668h-64zM702 -680l132 518h70l-150 -518h-52z" />
    <glyph glyph-name="uni01E8" unicode="&#x1e8;" horiz-adv-x="1736" 
d="M320 0v2048h64v-1276h8l1160 1276h88l-904 -992l892 -1056h-84l-852 1008l-308 -340v-668h-64zM576 2644l300 -308l300 308h76v-8l-368 -376h-16l-368 376v8h76z" />
    <glyph glyph-name="uni1E30" unicode="&#x1e30;" horiz-adv-x="1736" 
d="M320 0v2048h64v-1276h8l1160 1276h88l-904 -992l892 -1056h-84l-852 1008l-308 -340v-668h-64zM842 2272l280 432h80l-296 -432h-64z" />
    <glyph glyph-name="uni1E32" unicode="&#x1e32;" horiz-adv-x="1736" 
d="M320 0v2048h64v-1276h8l1160 1276h88l-904 -992l892 -1056h-84l-852 1008l-308 -340v-668h-64zM872 -456q-26 0 -45 19t-19 45t19 45t45 19t45 -19t19 -45t-19 -45t-45 -19z" />
    <glyph glyph-name="uni1E34" unicode="&#x1e34;" horiz-adv-x="1736" 
d="M320 0v2048h64v-1276h8l1160 1276h88l-904 -992l892 -1056h-84l-852 1008l-308 -340v-668h-64zM1192 -288v-64h-640v64h640z" />
    <glyph glyph-name="uni04A0" unicode="&#x4a0;" horiz-adv-x="1810" 
d="M1706 0l-708 1018h-382v-1018h-64v1984h-548v64h612v-968h340l624 968h76l-622 -968l750 -1080h-78z" />
    <glyph glyph-name="uni049A" unicode="&#x49a;" horiz-adv-x="1778" 
d="M1466 0l-708 1018h-382v-1018h-64v2048h64v-968h340l624 968h76l-622 -968l750 -1080h-78zM1544 152v-568h-64v568h64z" />
    <glyph glyph-name="uni0198" unicode="&#x198;" horiz-adv-x="1844" 
d="M320 0v2048h64v-1276h8l1072 1180q49 59 115.5 84.5t131.5 15.5t109 -58l-44 -42q-70 51 -136 38t-128 -82l-776 -852l992 -1056h-88l-948 1008l-308 -340v-668h-64z" />
    <glyph glyph-name="uni039A" unicode="&#x39a;" horiz-adv-x="1736" 
d="M320 0v2048h64v-1276h8l1160 1276h88l-904 -992l892 -1056h-84l-852 1008l-308 -340v-668h-64z" />
    <glyph glyph-name="uni004C" unicode="L" horiz-adv-x="1584" 
d="M320 0v2048h64v-1984h1024v-64h-1088z" />
    <glyph glyph-name="uni0139" unicode="&#x139;" horiz-adv-x="1584" 
d="M320 0v2048h64v-1984h1024v-64h-1088zM318 2272l280 432h80l-296 -432h-64z" />
    <glyph glyph-name="uni013B" unicode="&#x13b;" horiz-adv-x="1584" 
d="M320 0v2048h64v-1984h1024v-64h-1088zM694 -680l132 518h70l-150 -518h-52z" />
    <glyph glyph-name="uni013D" unicode="&#x13d;" horiz-adv-x="1570" 
d="M320 0v2048h64v-1984h1024v-64h-1088zM818 1626v518h70l-18 -518h-52z" />
    <glyph glyph-name="uni1E36" unicode="&#x1e36;" horiz-adv-x="1584" 
d="M320 0v2048h64v-1984h1024v-64h-1088zM864 -456q-26 0 -45 19t-19 45t19 45t45 19t45 -19t19 -45t-19 -45t-45 -19z" />
    <glyph glyph-name="uni1E38" unicode="&#x1e38;" horiz-adv-x="1584" 
d="M320 0v2048h64v-1984h1024v-64h-1088zM864 -456q-26 0 -45 19t-19 45t19 45t45 19t45 -19t19 -45t-19 -45t-45 -19zM672 2424v-64h-640v64h640z" />
    <glyph glyph-name="uni1E3A" unicode="&#x1e3a;" horiz-adv-x="1584" 
d="M320 0v2048h64v-1984h1024v-64h-1088zM1184 -288v-64h-640v64h640z" />
    <glyph glyph-name="uni1E3C" unicode="&#x1e3c;" horiz-adv-x="1584" 
d="M320 0v2048h64v-1984h1024v-64h-1088zM564 -544h-76v8l368 376h16l368 -376v-8h-76l-300 308z" />
    <glyph glyph-name="uni0141" unicode="&#x141;" horiz-adv-x="1519" 
d="M696 1184v-66l-696 -256v70zM232 0v2048h64v-1984h1024v-64h-1088z" />
    <glyph glyph-name="uni023D" unicode="&#x23d;" horiz-adv-x="1584" 
d="M320 0v2048h64v-1984h1024v-64h-1088zM-28 1024v64h760v-64h-760z" />
    <glyph glyph-name="uni01C8" unicode="&#x1c8;" horiz-adv-x="2208" 
d="M320 0v2048h64v-1984h1024v-64h-1088zM1864 1536h64v-1760q0 -108 -49 -187t-129 -122t-174 -43q-6 0 -13 0.5t-19 3.5l8 60h12h12q114 0 201 77t87 211v1760zM1896 1816q-26 0 -45 19t-19 45t19 45t45 19t45 -19t19 -45t-19 -45t-45 -19z" />
    <glyph glyph-name="uni004D" unicode="M" horiz-adv-x="2432" 
d="M320 2048h56l836 -1952h8l836 1952h56v-2048h-64v1848h-8l-792 -1848h-64l-792 1848h-8v-1848h-64v2048z" />
    <glyph glyph-name="uni1E3E" unicode="&#x1e3e;" horiz-adv-x="2432" 
d="M320 2048h56l836 -1952h8l836 1952h56v-2048h-64v1848h-8l-792 -1848h-64l-792 1848h-8v-1848h-64v2048zM1182 2272l280 432h80l-296 -432h-64z" />
    <glyph glyph-name="uni1E40" unicode="&#x1e40;" horiz-adv-x="2432" 
d="M320 2048h56l836 -1952h8l836 1952h56v-2048h-64v1848h-8l-792 -1848h-64l-792 1848h-8v-1848h-64v2048zM1216 2328q-26 0 -45 19t-19 45t19 45t45 19t45 -19t19 -45t-19 -45t-45 -19z" />
    <glyph glyph-name="uni1E42" unicode="&#x1e42;" horiz-adv-x="2432" 
d="M320 2048h56l836 -1952h8l836 1952h56v-2048h-64v1848h-8l-792 -1848h-64l-792 1848h-8v-1848h-64v2048zM1216 -456q-26 0 -45 19t-19 45t19 45t45 19t45 -19t19 -45t-19 -45t-45 -19z" />
    <glyph glyph-name="uni04CD" unicode="&#x4cd;" horiz-adv-x="2432" 
d="M320 2048h56l836 -1952h8l836 1952h56v-2048h-64v1848h-8l-792 -1848h-64l-792 1848h-8v-1848h-64v2048zM2176 56v-92q0 -61 -10 -120.5t-27 -118t-39 -117.5l-60 22q22 57 38 112t25 110t9 112v92h64z" />
    <glyph glyph-name="uni039C" unicode="&#x39c;" horiz-adv-x="2432" 
d="M320 2048h56l836 -1952h8l836 1952h56v-2048h-64v1848h-8l-792 -1848h-64l-792 1848h-8v-1848h-64v2048z" />
    <glyph glyph-name="uni03FA" unicode="&#x3fa;" horiz-adv-x="2432" 
d="M320 2048h56l836 -1952h8l836 1952h56v-2048h-64v1848h-8l-792 -1848h-64l-792 1848h-8v-1848h-64v2048z" />
    <glyph glyph-name="uni041C" unicode="&#x41c;" horiz-adv-x="2432" 
d="M320 2048h56l836 -1952h8l836 1952h56v-2048h-64v1848h-8l-792 -1848h-64l-792 1848h-8v-1848h-64v2048z" />
    <glyph glyph-name="uni004E" unicode="N" horiz-adv-x="2176" 
d="M1856 2048v-2048h-64l-1400 1928h-8v-1928h-64v2048h64l1400 -1928h8v1928h64z" />
    <glyph glyph-name="uni00D1" unicode="&#xd1;" horiz-adv-x="2176" 
d="M1856 2048v-2048h-64l-1400 1928h-8v-1928h-64v2048h64l1400 -1928h8v1928h64zM692 2316l-64 8q14 94 88 153t176 59q69 0 119 -25t91.5 -57t84 -57t97.5 -25q68 0 126 43t74 113l64 -16q-22 -91 -97.5 -147.5t-166.5 -56.5q-64 0 -110 25t-86.5 57t-86 57t-109.5 25
q-78 0 -134 -44t-66 -112z" />
    <glyph glyph-name="uni0143" unicode="&#x143;" horiz-adv-x="2176" 
d="M1856 2048v-2048h-64l-1400 1928h-8v-1928h-64v2048h64l1400 -1928h8v1928h64zM1054 2272l280 432h80l-296 -432h-64z" />
    <glyph glyph-name="uni0145" unicode="&#x145;" horiz-adv-x="2176" 
d="M1856 2048v-2048h-64l-1400 1928h-8v-1928h-64v2048h64l1400 -1928h8v1928h64zM918 -680l132 518h70l-150 -518h-52z" />
    <glyph glyph-name="uni0147" unicode="&#x147;" horiz-adv-x="2176" 
d="M1856 2048v-2048h-64l-1400 1928h-8v-1928h-64v2048h64l1400 -1928h8v1928h64zM788 2644l300 -308l300 308h76v-8l-368 -376h-16l-368 376v8h76z" />
    <glyph glyph-name="uni01F8" unicode="&#x1f8;" horiz-adv-x="2176" 
d="M1856 2048v-2048h-64l-1400 1928h-8v-1928h-64v2048h64l1400 -1928h8v1928h64zM1058 2272l-296 432h80l280 -432h-64z" />
    <glyph glyph-name="uni1E44" unicode="&#x1e44;" horiz-adv-x="2176" 
d="M1856 2048v-2048h-64l-1400 1928h-8v-1928h-64v2048h64l1400 -1928h8v1928h64zM1088 2328q-26 0 -45 19t-19 45t19 45t45 19t45 -19t19 -45t-19 -45t-45 -19z" />
    <glyph glyph-name="uni1E46" unicode="&#x1e46;" horiz-adv-x="2176" 
d="M1856 2048v-2048h-64l-1400 1928h-8v-1928h-64v2048h64l1400 -1928h8v1928h64zM1088 -456q-26 0 -45 19t-19 45t19 45t45 19t45 -19t19 -45t-19 -45t-45 -19z" />
    <glyph glyph-name="uni1E48" unicode="&#x1e48;" horiz-adv-x="2176" 
d="M1856 2048v-2048h-64l-1400 1928h-8v-1928h-64v2048h64l1400 -1928h8v1928h64zM1408 -288v-64h-640v64h640z" />
    <glyph glyph-name="uni1E4A" unicode="&#x1e4a;" horiz-adv-x="2176" 
d="M1856 2048v-2048h-64l-1400 1928h-8v-1928h-64v2048h64l1400 -1928h8v1928h64zM788 -544h-76v8l368 376h16l368 -376v-8h-76l-300 308z" />
    <glyph glyph-name="uni019D" unicode="&#x19d;" horiz-adv-x="2112" 
d="M256 0h64v-232q0 -82 -17.5 -145.5t-52.5 -107t-85.5 -65.5t-116.5 -22q-22 0 -43 2t-35 6v64q14 -4 32 -6t40 -2q108 0 161 68.5t53 207.5v232zM1792 2048v-2048h-64l-1400 1928h-8v-1928h-64v2048h64l1400 -1928h8v1928h64z" />
    <glyph glyph-name="uni014A" unicode="&#x14a;" horiz-adv-x="2176" 
d="M1792 0h64v-232q0 -110 -31.5 -186t-92 -115t-148.5 -39q-22 0 -43 2t-35 6v64q14 -4 32 -6t40 -2q108 0 161 68.5t53 207.5v232zM1856 2048v-2048h-64l-1400 1928h-8v-1928h-64v2048h64l1400 -1928h8v1928h64z" />
    <glyph glyph-name="uni0418" unicode="&#x418;" horiz-adv-x="2176" 
d="M320 2048h64v-1928h8l1400 1928h64v-2048h-64v1928h-8l-1400 -1928h-64v2048z" />
    <glyph glyph-name="uni040D" unicode="&#x40d;" horiz-adv-x="2176" 
d="M320 2048h64v-1928h8l1400 1928h64v-2048h-64v1928h-8l-1400 -1928h-64v2048zM1058 2272l-296 432h80l280 -432h-64z" />
    <glyph glyph-name="uni0419" unicode="&#x419;" horiz-adv-x="2176" 
d="M320 2048h64v-1928h8l1400 1928h64v-2048h-64v1928h-8l-1400 -1928h-64v2048zM1248 2560h64q0 -106 -59.5 -167t-164.5 -61t-164.5 61t-59.5 167h64q0 -79 41 -121.5t119 -42.5t119 42.5t41 121.5z" />
    <glyph glyph-name="uni04E2" unicode="&#x4e2;" horiz-adv-x="2176" 
d="M320 2048h64v-1928h8l1400 1928h64v-2048h-64v1928h-8l-1400 -1928h-64v2048zM1408 2424v-64h-640v64h640z" />
    <glyph glyph-name="uni04E4" unicode="&#x4e4;" horiz-adv-x="2176" 
d="M320 2048h64v-1928h8l1400 1928h64v-2048h-64v1928h-8l-1400 -1928h-64v2048zM896 2328q-26 0 -45 19t-19 45t19 45t45 19t45 -19t19 -45t-19 -45t-45 -19zM1280 2328q-26 0 -45 19t-19 45t19 45t45 19t45 -19t19 -45t-19 -45t-45 -19z" />
    <glyph glyph-name="uni048A" unicode="&#x48a;" horiz-adv-x="2176" 
d="M320 2048h64v-1928h8l1400 1928h64v-2048h-64v1928h-8l-1400 -1928h-64v2048zM1248 2560h64q0 -106 -59.5 -167t-164.5 -61t-164.5 61t-59.5 167h64q0 -79 41 -121.5t119 -42.5t119 42.5t41 121.5zM1920 56v-92q0 -61 -10 -120.5t-27 -118t-39 -117.5l-60 22
q22 57 38 112t25 110t9 112v92h64z" />
    <glyph glyph-name="uni0376" unicode="&#x376;" horiz-adv-x="2058" 
d="M264 2048h64v-1928h8l1400 1928h64v-2048h-64v1928h-8l-1400 -1928h-64v2048z" />
    <glyph glyph-name="uni039D" unicode="&#x39d;" horiz-adv-x="2176" 
d="M1856 2048v-2048h-64l-1400 1928h-8v-1928h-64v2048h64l1400 -1928h8v1928h64z" />
    <glyph glyph-name="uni01CB" unicode="&#x1cb;" horiz-adv-x="2788" 
d="M1856 2048v-2048h-64l-1400 1928h-8v-1928h-64v2048h64l1400 -1928h8v1928h64zM2444 1536h64v-1760q0 -108 -49 -187t-129 -122t-174 -43q-6 0 -13 0.5t-19 3.5l8 60h12h12q114 0 201 77t87 211v1760zM2476 1816q-26 0 -45 19t-19 45t19 45t45 19t45 -19t19 -45t-19 -45
t-45 -19z" />
    <glyph glyph-name="uni004F" unicode="O" horiz-adv-x="2104" 
d="M1900 1024q0 -313 -107 -550t-298 -369.5t-443 -132.5q-253 0 -444 133t-297.5 370t-106.5 549q0 313 107 549.5t298 369.5t443 133t443 -132.5t298 -369.5t107 -550zM1836 1024q0 294 -99 516.5t-275.5 347t-409.5 124.5q-232 0 -408.5 -123.5t-276 -346t-99.5 -518.5
q0 -292 98 -514.5t274.5 -348t411.5 -125.5q233 0 410 124.5t276 347t98 516.5z" />
    <glyph glyph-name="uni00D6" unicode="&#xd6;" horiz-adv-x="2104" 
d="M1900 1024q0 -313 -107 -550t-298 -369.5t-443 -132.5q-253 0 -444 133t-297.5 370t-106.5 549q0 313 107 549.5t298 369.5t443 133t443 -132.5t298 -369.5t107 -550zM1836 1024q0 294 -99 516.5t-275.5 347t-409.5 124.5q-232 0 -408.5 -123.5t-276 -346t-99.5 -518.5
q0 -292 98 -514.5t274.5 -348t411.5 -125.5q233 0 410 124.5t276 347t98 516.5zM860 2328q-26 0 -45 19t-19 45t19 45t45 19t45 -19t19 -45t-19 -45t-45 -19zM1244 2328q-26 0 -45 19t-19 45t19 45t45 19t45 -19t19 -45t-19 -45t-45 -19z" />
    <glyph glyph-name="uni00D5" unicode="&#xd5;" horiz-adv-x="2104" 
d="M1900 1024q0 -313 -107 -550t-298 -369.5t-443 -132.5q-253 0 -444 133t-297.5 370t-106.5 549q0 313 107 549.5t298 369.5t443 133t443 -132.5t298 -369.5t107 -550zM1836 1024q0 294 -99 516.5t-275.5 347t-409.5 124.5q-232 0 -408.5 -123.5t-276 -346t-99.5 -518.5
q0 -292 98 -514.5t274.5 -348t411.5 -125.5q233 0 410 124.5t276 347t98 516.5zM658 2344l-64 8q14 94 88 153t176 59q69 0 119 -25t91.5 -57t84 -57t97.5 -25q68 0 126 43t74 113l64 -16q-22 -91 -97.5 -147.5t-166.5 -56.5q-64 0 -110 25t-86.5 57t-86 57t-109.5 25
q-78 0 -134 -44t-66 -112z" />
    <glyph glyph-name="uni00D8" unicode="&#xd8;" horiz-adv-x="2104" 
d="M388 -48l-52 36l1380 2108l52 -36zM1900 1024q0 -313 -107 -550t-298 -369.5t-443 -132.5q-253 0 -444 133t-297.5 370t-106.5 549q0 313 107 549.5t298 369.5t443 133t443 -132.5t298 -369.5t107 -550zM1836 1024q0 294 -99 516.5t-275.5 347t-409.5 124.5
q-232 0 -408.5 -123.5t-276 -346t-99.5 -518.5q0 -292 98 -514.5t274.5 -348t411.5 -125.5q233 0 410 124.5t276 347t98 516.5z" />
    <glyph glyph-name="uni01A0" unicode="&#x1a0;" horiz-adv-x="2070" 
d="M1880 2204h64q1 -189 -78 -287t-262 -137v64q157 40 216 118t60 242zM1900 1024q0 -313 -107 -550t-298 -369.5t-443 -132.5q-253 0 -444 133t-297.5 370t-106.5 549q0 313 107 549.5t298 369.5t443 133t443 -132.5t298 -369.5t107 -550zM1836 1024q0 294 -99 516.5
t-275.5 347t-409.5 124.5q-232 0 -408.5 -123.5t-276 -346t-99.5 -518.5q0 -292 98 -514.5t274.5 -348t411.5 -125.5q233 0 410 124.5t276 347t98 516.5z" />
    <glyph glyph-name="uni00D2" unicode="&#xd2;" horiz-adv-x="2104" 
d="M1900 1024q0 -313 -107 -550t-298 -369.5t-443 -132.5q-253 0 -444 133t-297.5 370t-106.5 549q0 313 107 549.5t298 369.5t443 133t443 -132.5t298 -369.5t107 -550zM1836 1024q0 294 -99 516.5t-275.5 347t-409.5 124.5q-232 0 -408.5 -123.5t-276 -346t-99.5 -518.5
q0 -292 98 -514.5t274.5 -348t411.5 -125.5q233 0 410 124.5t276 347t98 516.5zM1022 2272l-296 432h80l280 -432h-64z" />
    <glyph glyph-name="uni00D3" unicode="&#xd3;" horiz-adv-x="2104" 
d="M1900 1024q0 -313 -107 -550t-298 -369.5t-443 -132.5q-253 0 -444 133t-297.5 370t-106.5 549q0 313 107 549.5t298 369.5t443 133t443 -132.5t298 -369.5t107 -550zM1836 1024q0 294 -99 516.5t-275.5 347t-409.5 124.5q-232 0 -408.5 -123.5t-276 -346t-99.5 -518.5
q0 -292 98 -514.5t274.5 -348t411.5 -125.5q233 0 410 124.5t276 347t98 516.5zM1018 2272l280 432h80l-296 -432h-64z" />
    <glyph glyph-name="uni00D4" unicode="&#xd4;" horiz-adv-x="2104" 
d="M1900 1024q0 -313 -107 -550t-298 -369.5t-443 -132.5q-253 0 -444 133t-297.5 370t-106.5 549q0 313 107 549.5t298 369.5t443 133t443 -132.5t298 -369.5t107 -550zM1836 1024q0 294 -99 516.5t-275.5 347t-409.5 124.5q-232 0 -408.5 -123.5t-276 -346t-99.5 -518.5
q0 -292 98 -514.5t274.5 -348t411.5 -125.5q233 0 410 124.5t276 347t98 516.5zM752 2208h-76v8l368 376h16l368 -376v-8h-76l-300 308z" />
    <glyph glyph-name="uni014C" unicode="&#x14c;" horiz-adv-x="2104" 
d="M1900 1024q0 -313 -107 -550t-298 -369.5t-443 -132.5q-253 0 -444 133t-297.5 370t-106.5 549q0 313 107 549.5t298 369.5t443 133t443 -132.5t298 -369.5t107 -550zM1836 1024q0 294 -99 516.5t-275.5 347t-409.5 124.5q-232 0 -408.5 -123.5t-276 -346t-99.5 -518.5
q0 -292 98 -514.5t274.5 -348t411.5 -125.5q233 0 410 124.5t276 347t98 516.5zM1372 2424v-64h-640v64h640z" />
    <glyph glyph-name="uni014E" unicode="&#x14e;" horiz-adv-x="2104" 
d="M1900 1024q0 -313 -107 -550t-298 -369.5t-443 -132.5q-253 0 -444 133t-297.5 370t-106.5 549q0 313 107 549.5t298 369.5t443 133t443 -132.5t298 -369.5t107 -550zM1836 1024q0 294 -99 516.5t-275.5 347t-409.5 124.5q-232 0 -408.5 -123.5t-276 -346t-99.5 -518.5
q0 -292 98 -514.5t274.5 -348t411.5 -125.5q233 0 410 124.5t276 347t98 516.5zM1212 2560h64q0 -106 -59.5 -167t-164.5 -61t-164.5 61t-59.5 167h64q0 -79 41 -121.5t119 -42.5t119 42.5t41 121.5z" />
    <glyph glyph-name="uni0150" unicode="&#x150;" horiz-adv-x="2104" 
d="M1900 1024q0 -313 -107 -550t-298 -369.5t-443 -132.5q-253 0 -444 133t-297.5 370t-106.5 549q0 313 107 549.5t298 369.5t443 133t443 -132.5t298 -369.5t107 -550zM1836 1024q0 294 -99 516.5t-275.5 347t-409.5 124.5q-232 0 -408.5 -123.5t-276 -346t-99.5 -518.5
q0 -292 98 -514.5t274.5 -348t411.5 -125.5q233 0 410 124.5t276 347t98 516.5zM1102 2208l360 432h80l-376 -432h-64zM808 2208l280 432h80l-296 -432h-64z" />
    <glyph glyph-name="uni01D1" unicode="&#x1d1;" horiz-adv-x="2104" 
d="M1900 1024q0 -313 -107 -550t-298 -369.5t-443 -132.5q-253 0 -444 133t-297.5 370t-106.5 549q0 313 107 549.5t298 369.5t443 133t443 -132.5t298 -369.5t107 -550zM1836 1024q0 294 -99 516.5t-275.5 347t-409.5 124.5q-232 0 -408.5 -123.5t-276 -346t-99.5 -518.5
q0 -292 98 -514.5t274.5 -348t411.5 -125.5q233 0 410 124.5t276 347t98 516.5zM752 2644l300 -308l300 308h76v-8l-368 -376h-16l-368 376v8h76z" />
    <glyph glyph-name="uni01EA" unicode="&#x1ea;" horiz-adv-x="2104" 
d="M1900 1024q0 -313 -107 -550t-298 -369.5t-443 -132.5q-253 0 -444 133t-297.5 370t-106.5 549q0 313 107 549.5t298 369.5t443 133t443 -132.5t298 -369.5t107 -550zM1836 1024q0 294 -99 516.5t-275.5 347t-409.5 124.5q-232 0 -408.5 -123.5t-276 -346t-99.5 -518.5
q0 -292 98 -514.5t274.5 -348t411.5 -125.5q233 0 410 124.5t276 347t98 516.5zM1052 -608q-103 0 -169.5 59.5t-66.5 174.5q0 73 27.5 135t77 120t115.5 119h64q-103 -103 -161.5 -191.5t-58.5 -182.5q0 -88 48 -129t124 -41q44 0 77 13t69 39l38 -52q-43 -31 -86.5 -47.5
t-97.5 -16.5z" />
    <glyph glyph-name="uni01EC" unicode="&#x1ec;" horiz-adv-x="2104" 
d="M1900 1024q0 -313 -107 -550t-298 -369.5t-443 -132.5q-253 0 -444 133t-297.5 370t-106.5 549q0 313 107 549.5t298 369.5t443 133t443 -132.5t298 -369.5t107 -550zM1836 1024q0 294 -99 516.5t-275.5 347t-409.5 124.5q-232 0 -408.5 -123.5t-276 -346t-99.5 -518.5
q0 -292 98 -514.5t274.5 -348t411.5 -125.5q233 0 410 124.5t276 347t98 516.5zM1052 -608q-103 0 -169.5 59.5t-66.5 174.5q0 73 27.5 135t77 120t115.5 119h64q-103 -103 -161.5 -191.5t-58.5 -182.5q0 -88 48 -129t124 -41q44 0 77 13t69 39l38 -52q-43 -31 -86.5 -47.5
t-97.5 -16.5zM1372 2424v-64h-640v64h640z" />
    <glyph glyph-name="uni020C" unicode="&#x20c;" horiz-adv-x="2104" 
d="M1900 1024q0 -313 -107 -550t-298 -369.5t-443 -132.5q-253 0 -444 133t-297.5 370t-106.5 549q0 313 107 549.5t298 369.5t443 133t443 -132.5t298 -369.5t107 -550zM1836 1024q0 294 -99 516.5t-275.5 347t-409.5 124.5q-232 0 -408.5 -123.5t-276 -346t-99.5 -518.5
q0 -292 98 -514.5t274.5 -348t411.5 -125.5q233 0 410 124.5t276 347t98 516.5zM928 2272l-316 432h82l298 -432h-64zM1148 2272l-254 432h78l240 -432h-64z" />
    <glyph glyph-name="uni020E" unicode="&#x20e;" horiz-adv-x="2104" 
d="M1900 1024q0 -313 -107 -550t-298 -369.5t-443 -132.5q-253 0 -444 133t-297.5 370t-106.5 549q0 313 107 549.5t298 369.5t443 133t443 -132.5t298 -369.5t107 -550zM1836 1024q0 294 -99 516.5t-275.5 347t-409.5 124.5q-232 0 -408.5 -123.5t-276 -346t-99.5 -518.5
q0 -292 98 -514.5t274.5 -348t411.5 -125.5q233 0 410 124.5t276 347t98 516.5zM834 2408q0 106 59.5 167t164.5 61t164.5 -61t59.5 -167h-64q0 80 -41 122t-119 42t-119 -42t-41 -122h-64z" />
    <glyph glyph-name="uni022A" unicode="&#x22a;" horiz-adv-x="2104" 
d="M1900 1024q0 -313 -107 -550t-298 -369.5t-443 -132.5q-253 0 -444 133t-297.5 370t-106.5 549q0 313 107 549.5t298 369.5t443 133t443 -132.5t298 -369.5t107 -550zM1836 1024q0 294 -99 516.5t-275.5 347t-409.5 124.5q-232 0 -408.5 -123.5t-276 -346t-99.5 -518.5
q0 -292 98 -514.5t274.5 -348t411.5 -125.5q233 0 410 124.5t276 347t98 516.5zM862 2328q-26 0 -45 19t-19 45t19 45t45 19t45 -19t19 -45t-19 -45t-45 -19zM1246 2328q-26 0 -45 19t-19 45t19 45t45 19t45 -19t19 -45t-19 -45t-45 -19zM1376 2814v-64h-640v64h640z" />
    <glyph glyph-name="uni022C" unicode="&#x22c;" horiz-adv-x="2104" 
d="M1900 1024q0 -313 -107 -550t-298 -369.5t-443 -132.5q-253 0 -444 133t-297.5 370t-106.5 549q0 313 107 549.5t298 369.5t443 133t443 -132.5t298 -369.5t107 -550zM1836 1024q0 294 -99 516.5t-275.5 347t-409.5 124.5q-232 0 -408.5 -123.5t-276 -346t-99.5 -518.5
q0 -292 98 -514.5t274.5 -348t411.5 -125.5q233 0 410 124.5t276 347t98 516.5zM1318 2526l58 -8q-10 -78 -57.5 -134.5t-118.5 -57.5q-65 0 -109.5 36t-85 72t-93.5 36q-51 0 -82.5 -41.5t-41.5 -94.5l-58 8q10 79 59 135.5t125 56.5q70 0 113 -36.5t81 -72.5t90 -35
q48 1 79 42.5t41 93.5zM1362 2728v-64h-640v64h640z" />
    <glyph glyph-name="uni022E" unicode="&#x22e;" horiz-adv-x="2104" 
d="M1900 1024q0 -313 -107 -550t-298 -369.5t-443 -132.5q-253 0 -444 133t-297.5 370t-106.5 549q0 313 107 549.5t298 369.5t443 133t443 -132.5t298 -369.5t107 -550zM1836 1024q0 294 -99 516.5t-275.5 347t-409.5 124.5q-232 0 -408.5 -123.5t-276 -346t-99.5 -518.5
q0 -292 98 -514.5t274.5 -348t411.5 -125.5q233 0 410 124.5t276 347t98 516.5zM1052 2328q-26 0 -45 19t-19 45t19 45t45 19t45 -19t19 -45t-19 -45t-45 -19z" />
    <glyph glyph-name="uni0230" unicode="&#x230;" horiz-adv-x="2104" 
d="M1900 1024q0 -313 -107 -550t-298 -369.5t-443 -132.5q-253 0 -444 133t-297.5 370t-106.5 549q0 313 107 549.5t298 369.5t443 133t443 -132.5t298 -369.5t107 -550zM1836 1024q0 294 -99 516.5t-275.5 347t-409.5 124.5q-232 0 -408.5 -123.5t-276 -346t-99.5 -518.5
q0 -292 98 -514.5t274.5 -348t411.5 -125.5q233 0 410 124.5t276 347t98 516.5zM1052 2256q-26 0 -45 19t-19 45t19 45t45 19t45 -19t19 -45t-19 -45t-45 -19zM1372 2600v-64h-640v64h640z" />
    <glyph glyph-name="uni1E4C" unicode="&#x1e4c;" horiz-adv-x="2104" 
d="M1900 1024q0 -313 -107 -550t-298 -369.5t-443 -132.5q-253 0 -444 133t-297.5 370t-106.5 549q0 313 107 549.5t298 369.5t443 133t443 -132.5t298 -369.5t107 -550zM1836 1024q0 294 -99 516.5t-275.5 347t-409.5 124.5q-232 0 -408.5 -123.5t-276 -346t-99.5 -518.5
q0 -292 98 -514.5t274.5 -348t411.5 -125.5q233 0 410 124.5t276 347t98 516.5zM1010 2528l236 256h92l-252 -256h-76zM654 2244l-64 8q14 94 88 153t176 59q69 0 119 -25t91.5 -57t84 -57t97.5 -25q68 0 126 43t74 113l64 -16q-22 -91 -97.5 -147.5t-166.5 -56.5
q-64 0 -110 25t-86.5 57t-86 57t-109.5 25q-78 0 -134 -44t-66 -112z" />
    <glyph glyph-name="uni1E4E" unicode="&#x1e4e;" horiz-adv-x="2104" 
d="M1900 1024q0 -313 -107 -550t-298 -369.5t-443 -132.5q-253 0 -444 133t-297.5 370t-106.5 549q0 313 107 549.5t298 369.5t443 133t443 -132.5t298 -369.5t107 -550zM1836 1024q0 294 -99 516.5t-275.5 347t-409.5 124.5q-232 0 -408.5 -123.5t-276 -346t-99.5 -518.5
q0 -292 98 -514.5t274.5 -348t411.5 -125.5q233 0 410 124.5t276 347t98 516.5zM1298 2590l58 -8q-10 -78 -57.5 -134.5t-118.5 -57.5q-65 0 -109.5 36t-85 72t-93.5 36q-51 0 -82.5 -41.5t-41.5 -94.5l-58 8q10 79 59 135.5t125 56.5q70 0 113 -36t81 -72t90 -36
q48 1 79 42.5t41 93.5zM732 2760q0 26 19 45t45 19t45 -19t19 -45t-19 -45t-45 -19t-45 19t-19 45zM1256 2760q0 26 19 45t45 19t45 -19t19 -45t-19 -45t-45 -19t-45 19t-19 45z" />
    <glyph glyph-name="uni1E50" unicode="&#x1e50;" horiz-adv-x="2104" 
d="M1900 1024q0 -313 -107 -550t-298 -369.5t-443 -132.5q-253 0 -444 133t-297.5 370t-106.5 549q0 313 107 549.5t298 369.5t443 133t443 -132.5t298 -369.5t107 -550zM1836 1024q0 294 -99 516.5t-275.5 347t-409.5 124.5q-232 0 -408.5 -123.5t-276 -346t-99.5 -518.5
q0 -292 98 -514.5t274.5 -348t411.5 -125.5q233 0 410 124.5t276 347t98 516.5zM1018 2528l-252 256h92l236 -256h-76zM1372 2336v-64h-640v64h640z" />
    <glyph glyph-name="uni1E52" unicode="&#x1e52;" horiz-adv-x="2104" 
d="M1900 1024q0 -313 -107 -550t-298 -369.5t-443 -132.5q-253 0 -444 133t-297.5 370t-106.5 549q0 313 107 549.5t298 369.5t443 133t443 -132.5t298 -369.5t107 -550zM1836 1024q0 294 -99 516.5t-275.5 347t-409.5 124.5q-232 0 -408.5 -123.5t-276 -346t-99.5 -518.5
q0 -292 98 -514.5t274.5 -348t411.5 -125.5q233 0 410 124.5t276 347t98 516.5zM1010 2528l236 256h92l-252 -256h-76zM1372 2336v-64h-640v64h640z" />
    <glyph glyph-name="uni1ECC" unicode="&#x1ecc;" horiz-adv-x="2104" 
d="M1900 1024q0 -313 -107 -550t-298 -369.5t-443 -132.5q-253 0 -444 133t-297.5 370t-106.5 549q0 313 107 549.5t298 369.5t443 133t443 -132.5t298 -369.5t107 -550zM1836 1024q0 294 -99 516.5t-275.5 347t-409.5 124.5q-232 0 -408.5 -123.5t-276 -346t-99.5 -518.5
q0 -292 98 -514.5t274.5 -348t411.5 -125.5q233 0 410 124.5t276 347t98 516.5zM1052 -456q-26 0 -45 19t-19 45t19 45t45 19t45 -19t19 -45t-19 -45t-45 -19z" />
    <glyph glyph-name="uni1ECE" unicode="&#x1ece;" horiz-adv-x="2104" 
d="M1900 1024q0 -313 -107 -550t-298 -369.5t-443 -132.5q-253 0 -444 133t-297.5 370t-106.5 549q0 313 107 549.5t298 369.5t443 133t443 -132.5t298 -369.5t107 -550zM1836 1024q0 294 -99 516.5t-275.5 347t-409.5 124.5q-232 0 -408.5 -123.5t-276 -346t-99.5 -518.5
q0 -292 98 -514.5t274.5 -348t411.5 -125.5q233 0 410 124.5t276 347t98 516.5zM1082 2244h-64v194q115 7 161 41.5t45 112.5q-1 92 -59.5 133.5t-182.5 42.5l10 64q154 -1 226.5 -64.5t73.5 -167.5q1 -95 -57 -152.5t-153 -65.5v-138z" />
    <glyph glyph-name="uni1ED0" unicode="&#x1ed0;" horiz-adv-x="2104" 
d="M1900 1024q0 -313 -107 -550t-298 -369.5t-443 -132.5q-253 0 -444 133t-297.5 370t-106.5 549q0 313 107 549.5t298 369.5t443 133t443 -132.5t298 -369.5t107 -550zM1836 1024q0 294 -99 516.5t-275.5 347t-409.5 124.5q-232 0 -408.5 -123.5t-276 -346t-99.5 -518.5
q0 -292 98 -514.5t274.5 -348t411.5 -125.5q233 0 410 124.5t276 347t98 516.5zM1072 2660l376 -384h-84l-300 308l-300 -308h-84l376 384h16zM1424 2524l240 352h80l-256 -352h-64z" />
    <glyph glyph-name="uni1ED2" unicode="&#x1ed2;" horiz-adv-x="2104" 
d="M1900 1024q0 -313 -107 -550t-298 -369.5t-443 -132.5q-253 0 -444 133t-297.5 370t-106.5 549q0 313 107 549.5t298 369.5t443 133t443 -132.5t298 -369.5t107 -550zM1836 1024q0 294 -99 516.5t-275.5 347t-409.5 124.5q-232 0 -408.5 -123.5t-276 -346t-99.5 -518.5
q0 -292 98 -514.5t274.5 -348t411.5 -125.5q233 0 410 124.5t276 347t98 516.5zM1064 2712l376 -384h-84l-300 308l-300 -308h-84l376 384h16zM490 2928l220 -352h-64l-236 352h80z" />
    <glyph glyph-name="uni1ED4" unicode="&#x1ed4;" horiz-adv-x="2104" 
d="M1900 1024q0 -313 -107 -550t-298 -369.5t-443 -132.5q-253 0 -444 133t-297.5 370t-106.5 549q0 313 107 549.5t298 369.5t443 133t443 -132.5t298 -369.5t107 -550zM1836 1024q0 294 -99 516.5t-275.5 347t-409.5 124.5q-232 0 -408.5 -123.5t-276 -346t-99.5 -518.5
q0 -292 98 -514.5t274.5 -348t411.5 -125.5q233 0 410 124.5t276 347t98 516.5zM1066 2616l376 -384h-84l-300 308l-300 -308h-84l376 384h16zM1532 2428h-64v162q114 7 160 39t46 95q-1 77 -60 116t-182 40l10 64q153 -1 226 -62t74 -150q0 -80 -58 -135t-152 -63v-106z
" />
    <glyph glyph-name="uni1ED6" unicode="&#x1ed6;" horiz-adv-x="2104" 
d="M1900 1024q0 -313 -107 -550t-298 -369.5t-443 -132.5q-253 0 -444 133t-297.5 370t-106.5 549q0 313 107 549.5t298 369.5t443 133t443 -132.5t298 -369.5t107 -550zM1836 1024q0 294 -99 516.5t-275.5 347t-409.5 124.5q-232 0 -408.5 -123.5t-276 -346t-99.5 -518.5
q0 -292 98 -514.5t274.5 -348t411.5 -125.5q233 0 410 124.5t276 347t98 516.5zM1038 2564l376 -384h-84l-300 308l-300 -308h-84l376 384h16zM1348 2888l64 -8q-16 -100 -82 -156t-144 -56q-57 0 -97 24.5t-72 56.5t-65.5 57t-77.5 26q-53 1 -100.5 -39t-59.5 -117l-64 8
q17 101 82.5 156.5t139.5 55.5q54 0 94 -24.5t73 -56.5t68.5 -57t80.5 -26q54 -1 101.5 39.5t58.5 116.5z" />
    <glyph glyph-name="uni1ED8" unicode="&#x1ed8;" horiz-adv-x="2104" 
d="M1900 1024q0 -313 -107 -550t-298 -369.5t-443 -132.5q-253 0 -444 133t-297.5 370t-106.5 549q0 313 107 549.5t298 369.5t443 133t443 -132.5t298 -369.5t107 -550zM1836 1024q0 294 -99 516.5t-275.5 347t-409.5 124.5q-232 0 -408.5 -123.5t-276 -346t-99.5 -518.5
q0 -292 98 -514.5t274.5 -348t411.5 -125.5q233 0 410 124.5t276 347t98 516.5zM752 2208h-76v8l368 376h16l368 -376v-8h-76l-300 308zM1052 -456q-26 0 -45 19t-19 45t19 45t45 19t45 -19t19 -45t-19 -45t-45 -19z" />
    <glyph glyph-name="uni1EDA" unicode="&#x1eda;" horiz-adv-x="2070" 
d="M1880 2204h64q1 -189 -78 -287t-262 -137v64q157 40 216 118t60 242zM1900 1024q0 -313 -107 -550t-298 -369.5t-443 -132.5q-253 0 -444 133t-297.5 370t-106.5 549q0 313 107 549.5t298 369.5t443 133t443 -132.5t298 -369.5t107 -550zM1836 1024q0 294 -99 516.5
t-275.5 347t-409.5 124.5q-232 0 -408.5 -123.5t-276 -346t-99.5 -518.5q0 -292 98 -514.5t274.5 -348t411.5 -125.5q233 0 410 124.5t276 347t98 516.5zM1018 2272l280 432h80l-296 -432h-64z" />
    <glyph glyph-name="uni1EDC" unicode="&#x1edc;" horiz-adv-x="2070" 
d="M1880 2204h64q1 -189 -78 -287t-262 -137v64q157 40 216 118t60 242zM1900 1024q0 -313 -107 -550t-298 -369.5t-443 -132.5q-253 0 -444 133t-297.5 370t-106.5 549q0 313 107 549.5t298 369.5t443 133t443 -132.5t298 -369.5t107 -550zM1836 1024q0 294 -99 516.5
t-275.5 347t-409.5 124.5q-232 0 -408.5 -123.5t-276 -346t-99.5 -518.5q0 -292 98 -514.5t274.5 -348t411.5 -125.5q233 0 410 124.5t276 347t98 516.5zM1022 2272l-296 432h80l280 -432h-64z" />
    <glyph glyph-name="uni1EDE" unicode="&#x1ede;" horiz-adv-x="2070" 
d="M1880 2204h64q1 -189 -78 -287t-262 -137v64q157 40 216 118t60 242zM1900 1024q0 -313 -107 -550t-298 -369.5t-443 -132.5q-253 0 -444 133t-297.5 370t-106.5 549q0 313 107 549.5t298 369.5t443 133t443 -132.5t298 -369.5t107 -550zM1836 1024q0 294 -99 516.5
t-275.5 347t-409.5 124.5q-232 0 -408.5 -123.5t-276 -346t-99.5 -518.5q0 -292 98 -514.5t274.5 -348t411.5 -125.5q233 0 410 124.5t276 347t98 516.5zM1082 2244h-64v194q115 7 161 41.5t45 112.5q-1 92 -59.5 133.5t-182.5 42.5l10 64q154 -1 226.5 -64.5t73.5 -167.5
q1 -95 -57 -152.5t-153 -65.5v-138z" />
    <glyph glyph-name="uni1EE0" unicode="&#x1ee0;" horiz-adv-x="2070" 
d="M1880 2204h64q1 -189 -78 -287t-262 -137v64q157 40 216 118t60 242zM1900 1024q0 -313 -107 -550t-298 -369.5t-443 -132.5q-253 0 -444 133t-297.5 370t-106.5 549q0 313 107 549.5t298 369.5t443 133t443 -132.5t298 -369.5t107 -550zM1836 1024q0 294 -99 516.5
t-275.5 347t-409.5 124.5q-232 0 -408.5 -123.5t-276 -346t-99.5 -518.5q0 -292 98 -514.5t274.5 -348t411.5 -125.5q233 0 410 124.5t276 347t98 516.5zM656 2316l-64 8q14 94 88 153t176 59q69 0 119 -25t91.5 -57t84 -57t97.5 -25q68 0 126 43t74 113l64 -16
q-22 -91 -97.5 -147.5t-166.5 -56.5q-64 0 -110 25t-86.5 57t-86 57t-109.5 25q-78 0 -134 -44t-66 -112z" />
    <glyph glyph-name="uni1EE2" unicode="&#x1ee2;" horiz-adv-x="2070" 
d="M1880 2204h64q1 -189 -78 -287t-262 -137v64q157 40 216 118t60 242zM1900 1024q0 -313 -107 -550t-298 -369.5t-443 -132.5q-253 0 -444 133t-297.5 370t-106.5 549q0 313 107 549.5t298 369.5t443 133t443 -132.5t298 -369.5t107 -550zM1836 1024q0 294 -99 516.5
t-275.5 347t-409.5 124.5q-232 0 -408.5 -123.5t-276 -346t-99.5 -518.5q0 -292 98 -514.5t274.5 -348t411.5 -125.5q233 0 410 124.5t276 347t98 516.5zM1052 -456q-26 0 -45 19t-19 45t19 45t45 19t45 -19t19 -45t-19 -45t-45 -19z" />
    <glyph glyph-name="uni01FE" unicode="&#x1fe;" horiz-adv-x="2104" 
d="M388 -48l-52 36l1380 2108l52 -36zM1900 1024q0 -313 -107 -550t-298 -369.5t-443 -132.5q-253 0 -444 133t-297.5 370t-106.5 549q0 313 107 549.5t298 369.5t443 133t443 -132.5t298 -369.5t107 -550zM1836 1024q0 294 -99 516.5t-275.5 347t-409.5 124.5
q-232 0 -408.5 -123.5t-276 -346t-99.5 -518.5q0 -292 98 -514.5t274.5 -348t411.5 -125.5q233 0 410 124.5t276 347t98 516.5zM1018 2272l280 432h80l-296 -432h-64z" />
    <glyph glyph-name="uni039F" unicode="&#x39f;" horiz-adv-x="2104" 
d="M1900 1024q0 -313 -107 -550t-298 -369.5t-443 -132.5q-253 0 -444 133t-297.5 370t-106.5 549q0 313 107 549.5t298 369.5t443 133t443 -132.5t298 -369.5t107 -550zM1836 1024q0 294 -99 516.5t-275.5 347t-409.5 124.5q-232 0 -408.5 -123.5t-276 -346t-99.5 -518.5
q0 -292 98 -514.5t274.5 -348t411.5 -125.5q233 0 410 124.5t276 347t98 516.5z" />
    <glyph glyph-name="uni038C" unicode="&#x38c;" horiz-adv-x="2135" 
d="M1880 1024q0 -313 -107 -550t-298 -369.5t-443 -132.5q-253 0 -444 133t-297.5 370t-106.5 549q0 313 107 549.5t298 369.5t443 133t443 -132.5t298 -369.5t107 -550zM1816 1024q0 294 -99 516.5t-275.5 347t-409.5 124.5q-232 0 -408.5 -123.5t-276 -346t-99.5 -518.5
q0 -292 98 -514.5t274.5 -348t411.5 -125.5q233 0 410 124.5t276 347t98 516.5zM14 1696l40 460h80l-72 -460h-48z" />
    <glyph glyph-name="uni1F48" unicode="&#x1f48;" horiz-adv-x="2289" 
d="M2032 1024q0 -313 -107 -550t-298 -369.5t-443 -132.5q-253 0 -444 133t-297.5 370t-106.5 549q0 313 107 549.5t298 369.5t443 133t443 -132.5t298 -369.5t107 -550zM1968 1024q0 294 -99 516.5t-275.5 347t-409.5 124.5q-232 0 -408.5 -123.5t-276 -346t-99.5 -518.5
q0 -292 98 -514.5t274.5 -348t411.5 -125.5q233 0 410 124.5t276 347t98 516.5zM252 2048v-52q0 -90 -15.5 -161t-54.5 -136t-110 -137l-46 22q65 77 100 139.5t48.5 128.5t13.5 152v44h64z" />
    <glyph glyph-name="uni1F49" unicode="&#x1f49;" horiz-adv-x="2387" 
d="M2132 1024q0 -313 -107 -550t-298 -369.5t-443 -132.5q-253 0 -444 133t-297.5 370t-106.5 549q0 313 107 549.5t298 369.5t443 133t443 -132.5t298 -369.5t107 -550zM2068 1024q0 294 -99 516.5t-275.5 347t-409.5 124.5q-232 0 -408.5 -123.5t-276 -346t-99.5 -518.5
q0 -292 98 -514.5t274.5 -348t411.5 -125.5q233 0 410 124.5t276 347t98 516.5zM202 2004v52h64v-44q0 -86 13.5 -151.5t48.5 -128.5t100 -140l-46 -22q-106 108 -143 203.5t-37 230.5z" />
    <glyph glyph-name="uni1F4A" unicode="&#x1f4a;" horiz-adv-x="2891" 
d="M2636 1024q0 -313 -107 -550t-298 -369.5t-443 -132.5q-253 0 -444 133t-297.5 370t-106.5 549q0 313 107 549.5t298 369.5t443 133t443 -132.5t298 -369.5t107 -550zM2572 1024q0 294 -99 516.5t-275.5 347t-409.5 124.5q-232 0 -408.5 -123.5t-276 -346t-99.5 -518.5
q0 -292 98 -514.5t274.5 -348t411.5 -125.5q233 0 410 124.5t276 347t98 516.5zM662 1602v-18h-48l-284 446v18h68zM266 2048v-52q0 -90 -15.5 -161t-54.5 -136t-110 -137l-46 22q98 115 130 203t32 217v44h64z" />
    <glyph glyph-name="uni1F4B" unicode="&#x1f4b;" horiz-adv-x="2702" 
d="M2448 1024q0 -313 -107 -550t-298 -369.5t-443 -132.5q-253 0 -444 133t-297.5 370t-106.5 549q0 313 107 549.5t298 369.5t443 133t443 -132.5t298 -369.5t107 -550zM2384 1024q0 294 -99 516.5t-275.5 347t-409.5 124.5q-232 0 -408.5 -123.5t-276 -346t-99.5 -518.5
q0 -292 98 -514.5t274.5 -348t411.5 -125.5q233 0 410 124.5t276 347t98 516.5zM328 1610v-18h-48l-284 446v18h68zM-138 2004v52h64v-44q0 -129 32.5 -217t129.5 -203l-46 -22q-106 108 -143 203t-37 231z" />
    <glyph glyph-name="uni1F4C" unicode="&#x1f4c;" horiz-adv-x="2604" 
d="M2348 1024q0 -313 -107 -550t-298 -369.5t-443 -132.5q-253 0 -444 133t-297.5 370t-106.5 549q0 313 107 549.5t298 369.5t443 133t443 -132.5t298 -369.5t107 -550zM2284 1024q0 294 -99 516.5t-275.5 347t-409.5 124.5q-232 0 -408.5 -123.5t-276 -346t-99.5 -518.5
q0 -292 98 -514.5t274.5 -348t411.5 -125.5q233 0 410 124.5t276 347t98 516.5zM220 1610l264 446h68v-18l-284 -446h-48v18zM196 2056v-52q0 -90 -15.5 -161t-54.5 -136t-110 -137l-46 22q98 115 130 203t32 217v44h64z" />
    <glyph glyph-name="uni1F4D" unicode="&#x1f4d;" horiz-adv-x="2636" 
d="M2380 1024q0 -313 -107 -550t-298 -369.5t-443 -132.5q-253 0 -444 133t-297.5 370t-106.5 549q0 313 107 549.5t298 369.5t443 133t443 -132.5t298 -369.5t107 -550zM2316 1024q0 294 -99 516.5t-275.5 347t-409.5 124.5q-232 0 -408.5 -123.5t-276 -346t-99.5 -518.5
q0 -292 98 -514.5t274.5 -348t411.5 -125.5q233 0 410 124.5t276 347t98 516.5zM250 1610l264 446h68v-18l-284 -446h-48v18zM-16 2004v52h64v-44q0 -129 32.5 -217t129.5 -203l-46 -22q-106 108 -143 203t-37 231z" />
    <glyph glyph-name="uni1FF8" unicode="&#x1ff8;" horiz-adv-x="2463" 
d="M2208 1024q0 -313 -107 -550t-298 -369.5t-443 -132.5q-253 0 -444 133t-297.5 370t-106.5 549q0 313 107 549.5t298 369.5t443 133t443 -132.5t298 -369.5t107 -550zM2144 1024q0 294 -99 516.5t-275.5 347t-409.5 124.5q-232 0 -408.5 -123.5t-276 -346t-99.5 -518.5
q0 -292 98 -514.5t274.5 -348t411.5 -125.5q233 0 410 124.5t276 347t98 516.5zM320 1598v-18h-48l-284 446v18h68z" />
    <glyph glyph-name="uni03F4" unicode="&#x3f4;" horiz-adv-x="2104" 
d="M1898 1046v-48q-159 -78 -302 -89.5t-277 15.5t-265 68t-265.5 71t-277 23.5t-301.5 -76.5v52q159 75 301.5 84.5t277 -18.5t265.5 -69.5t265 -70.5t277 -21.5t302 79.5zM1900 1024q0 -313 -107 -550t-298 -369.5t-443 -132.5q-253 0 -444 133t-297.5 370t-106.5 549
q0 313 107 549.5t298 369.5t443 133t443 -132.5t298 -369.5t107 -550zM1836 1024q0 294 -99 516.5t-275.5 347t-409.5 124.5q-232 0 -408.5 -123.5t-276 -346t-99.5 -518.5q0 -292 98 -514.5t274.5 -348t411.5 -125.5q233 0 410 124.5t276 347t98 516.5z" />
    <glyph glyph-name="uni1FF9" unicode="&#x1ff9;" horiz-adv-x="2242" 
d="M1988 1024q0 -313 -107 -550t-298 -369.5t-443 -132.5q-253 0 -444 133t-297.5 370t-106.5 549q0 313 107 549.5t298 369.5t443 133t443 -132.5t298 -369.5t107 -550zM1924 1024q0 294 -99 516.5t-275.5 347t-409.5 124.5q-232 0 -408.5 -123.5t-276 -346t-99.5 -518.5
q0 -292 98 -514.5t274.5 -348t411.5 -125.5q233 0 410 124.5t276 347t98 516.5zM180 1728v4l252 464h76v-4l-274 -464h-54z" />
    <glyph glyph-name="uni041E" unicode="&#x41e;" horiz-adv-x="2104" 
d="M1900 1024q0 -313 -107 -550t-298 -369.5t-443 -132.5q-253 0 -444 133t-297.5 370t-106.5 549q0 313 107 549.5t298 369.5t443 133t443 -132.5t298 -369.5t107 -550zM1836 1024q0 294 -99 516.5t-275.5 347t-409.5 124.5q-232 0 -408.5 -123.5t-276 -346t-99.5 -518.5
q0 -292 98 -514.5t274.5 -348t411.5 -125.5q233 0 410 124.5t276 347t98 516.5z" />
    <glyph glyph-name="uni04E6" unicode="&#x4e6;" horiz-adv-x="2104" 
d="M1900 1024q0 -313 -107 -550t-298 -369.5t-443 -132.5q-253 0 -444 133t-297.5 370t-106.5 549q0 313 107 549.5t298 369.5t443 133t443 -132.5t298 -369.5t107 -550zM1836 1024q0 294 -99 516.5t-275.5 347t-409.5 124.5q-232 0 -408.5 -123.5t-276 -346t-99.5 -518.5
q0 -292 98 -514.5t274.5 -348t411.5 -125.5q233 0 410 124.5t276 347t98 516.5zM860 2328q-26 0 -45 19t-19 45t19 45t45 19t45 -19t19 -45t-19 -45t-45 -19zM1244 2328q-26 0 -45 19t-19 45t19 45t45 19t45 -19t19 -45t-19 -45t-45 -19z" />
    <glyph glyph-name="uni019F" unicode="&#x19f;" horiz-adv-x="2104" 
d="M1898 1046v-48q-159 -78 -302 -89.5t-277 15.5t-265 68t-265.5 71t-277 23.5t-301.5 -76.5v52q159 75 301.5 84.5t277 -18.5t265.5 -69.5t265 -70.5t277 -21.5t302 79.5zM1900 1024q0 -313 -107 -550t-298 -369.5t-443 -132.5q-253 0 -444 133t-297.5 370t-106.5 549
q0 313 107 549.5t298 369.5t443 133t443 -132.5t298 -369.5t107 -550zM1836 1024q0 294 -99 516.5t-275.5 347t-409.5 124.5q-232 0 -408.5 -123.5t-276 -346t-99.5 -518.5q0 -292 98 -514.5t274.5 -348t411.5 -125.5q233 0 410 124.5t276 347t98 516.5z" />
    <glyph glyph-name="uni04E8" unicode="&#x4e8;" horiz-adv-x="2104" 
d="M1898 1046v-48q-159 -78 -302 -89.5t-277 15.5t-265 68t-265.5 71t-277 23.5t-301.5 -76.5v52q159 75 301.5 84.5t277 -18.5t265.5 -69.5t265 -70.5t277 -21.5t302 79.5zM1900 1024q0 -313 -107 -550t-298 -369.5t-443 -132.5q-253 0 -444 133t-297.5 370t-106.5 549
q0 313 107 549.5t298 369.5t443 133t443 -132.5t298 -369.5t107 -550zM1836 1024q0 294 -99 516.5t-275.5 347t-409.5 124.5q-232 0 -408.5 -123.5t-276 -346t-99.5 -518.5q0 -292 98 -514.5t274.5 -348t411.5 -125.5q233 0 410 124.5t276 347t98 516.5z" />
    <glyph glyph-name="uni04EA" unicode="&#x4ea;" horiz-adv-x="2104" 
d="M1898 1046v-48q-159 -78 -302 -89.5t-277 15.5t-265 68t-265.5 71t-277 23.5t-301.5 -76.5v52q159 75 301.5 84.5t277 -18.5t265.5 -69.5t265 -70.5t277 -21.5t302 79.5zM1900 1024q0 -313 -107 -550t-298 -369.5t-443 -132.5q-253 0 -444 133t-297.5 370t-106.5 549
q0 313 107 549.5t298 369.5t443 133t443 -132.5t298 -369.5t107 -550zM1836 1024q0 294 -99 516.5t-275.5 347t-409.5 124.5q-232 0 -408.5 -123.5t-276 -346t-99.5 -518.5q0 -292 98 -514.5t274.5 -348t411.5 -125.5q233 0 410 124.5t276 347t98 516.5zM860 2328
q-26 0 -45 19t-19 45t19 45t45 19t45 -19t19 -45t-19 -45t-45 -19zM1244 2328q-26 0 -45 19t-19 45t19 45t45 19t45 -19t19 -45t-19 -45t-45 -19z" />
    <glyph glyph-name="uni0152" unicode="&#x152;" horiz-adv-x="2596" 
d="M1052 0q-253 0 -444 129.5t-297.5 360t-106.5 534.5q0 305 107 535.5t298 359.5t443 129h1312v-64h-1028v-928h968v-64h-968v-928h1056v-64h-1340zM1272 64v1920h-220q-232 1 -408.5 -119t-276 -336.5t-99.5 -504.5q0 -284 98 -500.5t274.5 -338t411.5 -121.5h220z" />
    <glyph glyph-name="uni0050" unicode="P" horiz-adv-x="1708" 
d="M320 0v2048h600q172 0 304.5 -77t208 -212t75.5 -311q0 -174 -75.5 -308.5t-208 -211t-304.5 -76.5h-568v64h568q154 0 272 68t185 188t67 276q0 157 -67 278t-185 189.5t-272 68.5h-536v-1984h-64z" />
    <glyph glyph-name="uni1E54" unicode="&#x1e54;" horiz-adv-x="1708" 
d="M320 0v2048h600q172 0 304.5 -77t208 -212t75.5 -311q0 -174 -75.5 -308.5t-208 -211t-304.5 -76.5h-568v64h568q154 0 272 68t185 188t67 276q0 157 -67 278t-185 189.5t-272 68.5h-536v-1984h-64zM842 2272l280 432h80l-296 -432h-64z" />
    <glyph glyph-name="uni1E56" unicode="&#x1e56;" horiz-adv-x="1708" 
d="M320 0v2048h600q172 0 304.5 -77t208 -212t75.5 -311q0 -174 -75.5 -308.5t-208 -211t-304.5 -76.5h-568v64h568q154 0 272 68t185 188t67 276q0 157 -67 278t-185 189.5t-272 68.5h-536v-1984h-64zM876 2328q-26 0 -45 19t-19 45t19 45t45 19t45 -19t19 -45t-19 -45
t-45 -19z" />
    <glyph glyph-name="uni048E" unicode="&#x48e;" horiz-adv-x="1714" 
d="M1140 1266l324 -492l-54 -36l-324 494zM308 0v2048h600q172 0 304.5 -77t208 -212t75.5 -311q0 -174 -75.5 -308.5t-208 -211t-304.5 -76.5h-568v64h568q154 0 272 68t185 188t67 276q0 157 -67 278t-185 189.5t-272 68.5h-536v-1984h-64z" />
    <glyph glyph-name="uni01A4" unicode="&#x1a4;" horiz-adv-x="1916" 
d="M236 1688h-64v72q1 94 32 158t91.5 97t148.5 33h640q172 0 304.5 -77t208 -212t75.5 -311q0 -174 -75.5 -308.5t-208 -211t-304.5 -76.5h-536v-852h-64v1984h-36q-76 0 -123 -26t-68 -83t-21 -151v-36zM548 916h536q154 0 272 68t185 188t67 276q0 157 -67 278
t-185 189.5t-272 68.5h-536v-1068z" />
    <glyph glyph-name="uni03A1" unicode="&#x3a1;" horiz-adv-x="1708" 
d="M320 0v2048h600q172 0 304.5 -77t208 -212t75.5 -311q0 -174 -75.5 -308.5t-208 -211t-304.5 -76.5h-568v64h568q154 0 272 68t185 188t67 276q0 157 -67 278t-185 189.5t-272 68.5h-536v-1984h-64z" />
    <glyph glyph-name="uni1FEC" unicode="&#x1fec;" horiz-adv-x="2014" 
d="M624 0v2048h600q172 0 304.5 -77t208 -212t75.5 -311q0 -174 -75.5 -308.5t-208 -211t-304.5 -76.5h-568v64h568q154 0 272 68t185 188t67 276q0 157 -67 278t-185 189.5t-272 68.5h-536v-1984h-64zM234 2004v52h64v-44q0 -86 13.5 -151.5t48.5 -128.5t100 -140l-46 -22
q-106 108 -143 203.5t-37 230.5z" />
    <glyph glyph-name="uni0051" unicode="Q" horiz-adv-x="2104" 
d="M1132 640h80l332 -440l12 -16l284 -376h-80l-260 344l-12 16zM1900 1024q0 -313 -107 -550t-298 -369.5t-443 -132.5q-253 0 -444 133t-297.5 370t-106.5 549q0 313 107 549.5t298 369.5t443 133t443 -132.5t298 -369.5t107 -550zM1836 1024q0 294 -99 516.5t-275.5 347
t-409.5 124.5q-232 0 -408.5 -123.5t-276 -346t-99.5 -518.5q0 -292 98 -514.5t274.5 -348t411.5 -125.5q233 0 410 124.5t276 347t98 516.5z" />
    <glyph glyph-name="uni0052" unicode="R" horiz-adv-x="1732" 
d="M320 0v2048h600q172 0 304.5 -73t208 -204t75.5 -307q0 -174 -75.5 -304.5t-208 -203t-304.5 -72.5h-568v64h568q154 0 272 64t185 180t67 272q0 157 -67 274t-185 181.5t-272 64.5h-536v-1984h-64zM1100 932l504 -932h-72l-504 932h72z" />
    <glyph glyph-name="uni0154" unicode="&#x154;" horiz-adv-x="1732" 
d="M320 0v2048h600q172 0 304.5 -73t208 -204t75.5 -307q0 -174 -75.5 -304.5t-208 -203t-304.5 -72.5h-568v64h568q154 0 272 64t185 180t67 272q0 157 -67 274t-185 181.5t-272 64.5h-536v-1984h-64zM1100 932l504 -932h-72l-504 932h72zM826 2272l280 432h80l-296 -432
h-64z" />
    <glyph glyph-name="uni0156" unicode="&#x156;" horiz-adv-x="1732" 
d="M320 0v2048h600q172 0 304.5 -73t208 -204t75.5 -307q0 -174 -75.5 -304.5t-208 -203t-304.5 -72.5h-568v64h568q154 0 272 64t185 180t67 272q0 157 -67 274t-185 181.5t-272 64.5h-536v-1984h-64zM1100 932l504 -932h-72l-504 932h72zM718 -680l132 518h70l-150 -518
h-52z" />
    <glyph glyph-name="uni0158" unicode="&#x158;" horiz-adv-x="1732" 
d="M320 0v2048h600q172 0 304.5 -73t208 -204t75.5 -307q0 -174 -75.5 -304.5t-208 -203t-304.5 -72.5h-568v64h568q154 0 272 64t185 180t67 272q0 157 -67 274t-185 181.5t-272 64.5h-536v-1984h-64zM1100 932l504 -932h-72l-504 932h72zM560 2644l300 -308l300 308h76v-8
l-368 -376h-16l-368 376v8h76z" />
    <glyph glyph-name="uni0210" unicode="&#x210;" horiz-adv-x="1732" 
d="M320 0v2048h600q172 0 304.5 -73t208 -204t75.5 -307q0 -174 -75.5 -304.5t-208 -203t-304.5 -72.5h-568v64h568q154 0 272 64t185 180t67 272q0 157 -67 274t-185 181.5t-272 64.5h-536v-1984h-64zM1100 932l504 -932h-72l-504 932h72zM736 2272l-316 432h82l298 -432
h-64zM956 2272l-254 432h78l240 -432h-64z" />
    <glyph glyph-name="uni0212" unicode="&#x212;" horiz-adv-x="1732" 
d="M320 0v2048h600q172 0 304.5 -73t208 -204t75.5 -307q0 -174 -75.5 -304.5t-208 -203t-304.5 -72.5h-568v64h568q154 0 272 64t185 180t67 272q0 157 -67 274t-185 181.5t-272 64.5h-536v-1984h-64zM1100 932l504 -932h-72l-504 932h72zM642 2408q0 106 59.5 167
t164.5 61t164.5 -61t59.5 -167h-64q0 80 -41 122t-119 42t-119 -42t-41 -122h-64z" />
    <glyph glyph-name="uni1E58" unicode="&#x1e58;" horiz-adv-x="1732" 
d="M320 0v2048h600q172 0 304.5 -73t208 -204t75.5 -307q0 -174 -75.5 -304.5t-208 -203t-304.5 -72.5h-568v64h568q154 0 272 64t185 180t67 272q0 157 -67 274t-185 181.5t-272 64.5h-536v-1984h-64zM1100 932l504 -932h-72l-504 932h72zM860 2328q-26 0 -45 19t-19 45
t19 45t45 19t45 -19t19 -45t-19 -45t-45 -19z" />
    <glyph glyph-name="uni1E5A" unicode="&#x1e5a;" horiz-adv-x="1732" 
d="M320 0v2048h600q172 0 304.5 -73t208 -204t75.5 -307q0 -174 -75.5 -304.5t-208 -203t-304.5 -72.5h-568v64h568q154 0 272 64t185 180t67 272q0 157 -67 274t-185 181.5t-272 64.5h-536v-1984h-64zM1100 932l504 -932h-72l-504 932h72zM888 -456q-26 0 -45 19t-19 45
t19 45t45 19t45 -19t19 -45t-19 -45t-45 -19z" />
    <glyph glyph-name="uni1E5C" unicode="&#x1e5c;" horiz-adv-x="1732" 
d="M320 0v2048h600q172 0 304.5 -73t208 -204t75.5 -307q0 -174 -75.5 -304.5t-208 -203t-304.5 -72.5h-568v64h568q154 0 272 64t185 180t67 272q0 157 -67 274t-185 181.5t-272 64.5h-536v-1984h-64zM1100 932l504 -932h-72l-504 932h72zM888 -456q-26 0 -45 19t-19 45
t19 45t45 19t45 -19t19 -45t-19 -45t-45 -19zM1180 2424v-64h-640v64h640z" />
    <glyph glyph-name="uni1E5E" unicode="&#x1e5e;" horiz-adv-x="1732" 
d="M320 0v2048h600q172 0 304.5 -73t208 -204t75.5 -307q0 -174 -75.5 -304.5t-208 -203t-304.5 -72.5h-568v64h568q154 0 272 64t185 180t67 272q0 157 -67 274t-185 181.5t-272 64.5h-536v-1984h-64zM1100 932l504 -932h-72l-504 932h72zM1208 -288v-64h-640v64h640z" />
    <glyph glyph-name="uni211F" unicode="&#x211f;" horiz-adv-x="1735" 
d="M1350 2274l-960 -2726l-62 16l940 2672l-466 176l26 58zM312 0v2048h600q172 0 304.5 -73t208 -204t75.5 -307q0 -174 -75.5 -304.5t-208 -203t-304.5 -72.5h-568v64h568q154 0 272 64t185 180t67 272q0 157 -67 274t-185 181.5t-272 64.5h-536v-1984h-64zM1092 932
l504 -932h-72l-504 932h72z" />
    <glyph glyph-name="uni211E" unicode="&#x211e;" horiz-adv-x="1644" 
d="M320 2048h600q172 0 304.5 -72.5t208 -204t75.5 -307.5q0 -174 -75.5 -304.5t-208 -203t-304.5 -72.5h-18h-550v64h568q154 0 272 64t185 180t67 272q0 157 -67 274t-185 181.5t-272 64.5h-536v-1984h-64v2048zM1538 0l-684 932h78l684 -932h-78zM934 0h-78l682 936h78z
" />
    <glyph glyph-name="uni024C" unicode="&#x24c;" horiz-adv-x="1745" 
d="M344 884h-300v64h300v-64zM324 0v2048h600q172 0 304.5 -73t208 -204t75.5 -307q0 -174 -75.5 -304.5t-208 -203t-304.5 -72.5h-568v64h568q154 0 272 64t185 180t67 272q0 157 -67 274t-185 181.5t-272 64.5h-536v-1984h-64zM1104 932l504 -932h-72l-504 932h72z" />
    <glyph glyph-name="uni0053" unicode="S" horiz-adv-x="1724" 
d="M1416 1536q-15 210 -160.5 345t-383.5 135q-156 0 -279 -60t-194 -164.5t-71 -239.5q0 -78 26 -144t79.5 -120.5t135 -98t191.5 -77.5l232 -72q133 -41 230 -92t160.5 -114.5t94.5 -141t31 -172.5q0 -160 -82 -285t-229 -196t-341 -71q-187 0 -327 65.5t-221.5 181
t-91.5 265.5h64q10 -132 83 -233t198.5 -158t294.5 -57q176 0 308.5 61.5t206 171.5t73.5 255q0 110 -48 193.5t-151 147.5t-269 115l-232 72q-241 76 -360.5 201t-119.5 303q0 151 79 270.5t216.5 188.5t312.5 69q176 0 309 -70t211 -193t88 -281h-64z" />
    <glyph glyph-name="uni015A" unicode="&#x15a;" horiz-adv-x="1724" 
d="M1416 1536q-15 210 -160.5 345t-383.5 135q-156 0 -279 -60t-194 -164.5t-71 -239.5q0 -78 26 -144t79.5 -120.5t135 -98t191.5 -77.5l232 -72q133 -41 230 -92t160.5 -114.5t94.5 -141t31 -172.5q0 -160 -82 -285t-229 -196t-341 -71q-187 0 -327 65.5t-221.5 181
t-91.5 265.5h64q10 -132 83 -233t198.5 -158t294.5 -57q176 0 308.5 61.5t206 171.5t73.5 255q0 110 -48 193.5t-151 147.5t-269 115l-232 72q-241 76 -360.5 201t-119.5 303q0 151 79 270.5t216.5 188.5t312.5 69q176 0 309 -70t211 -193t88 -281h-64zM830 2272l280 432h80
l-296 -432h-64z" />
    </font>
</defs>
</svg>
