<?xml version="1.0" standalone="no"?>
<!DOCTYPE svg PUBLIC "-//W3C//DTD SVG 1.1//EN" "http://www.w3.org/Graphics/SVG/1.1/DTD/svg11.dtd" >
<svg xmlns="http://www.w3.org/2000/svg" xmlns:xlink="http://www.w3.org/1999/xlink" version="1.1">
<metadata>
Created by FontForge 20190801 at Thu Jan 23 23:42:53 2020
 By Jimmy Wärting
Copyright 2020 The Inter Project Authors (https://github.com/rsms/inter)
</metadata>
<defs>
<font id="Inter-Regular" horiz-adv-x="0" >
  <font-face 
    font-family="Inter"
    font-weight="400"
    font-stretch="normal"
    units-per-em="2816"
    panose-1="2 11 5 2 3 0 0 0 0 4"
    ascent="2252"
    descent="-564"
    x-height="1536"
    cap-height="2048"
    bbox="-2080 -900 7274 3072"
    underline-thickness="192"
    underline-position="-560"
    unicode-range="U+0020-1F852"
  />
<missing-glyph horiz-adv-x="2800" 
d="M248 -640v512h2304v-512h-2304zM248 1472v512h2304v-512h-2304zM248 2176v512h2304v-512h-2304zM248 64v512h2304v-512h-2304zM248 768v512h2304v-512h-2304z" />
    <glyph glyph-name="uni24B6" unicode="A&#x20dd;" horiz-adv-x="3912" 
d="M1336 0h-260l752 2048h256l752 -2048h-260l-612 1724h-16zM1432 800h1048v-220h-1048v220zM1956 -900q-319 0 -607.5 97t-529 273.5t-417 417t-273.5 529t-97 607.5t97 607.5t273.5 529t417 417t529 273.5t607.5 97t607.5 -97t529 -273.5t417 -417t273.5 -529t97 -607.5
t-97 -607.5t-273.5 -529t-417 -417t-529 -273.5t-607.5 -97zM1956 -668q281 0 534.5 85.5t465 241t367 367t240.5 465t85 533.5q0 281 -85 534.5t-240.5 465t-367 367t-465 240.5t-534.5 85t-534.5 -85t-465 -240.5t-367 -367t-240.5 -465t-85 -534.5q0 -280 85 -533.5
t240.5 -465t367 -367t465 -241t534.5 -85.5z" />
    <glyph glyph-name="uni24B7" unicode="B&#x20dd;" horiz-adv-x="3912" 
d="M1320 0v2048h716q214 0 353 -73.5t207 -197t68 -273.5q0 -132 -46.5 -218t-122 -136t-163.5 -74v-20q94 -6 189 -66t159 -172t64 -274q0 -154 -70 -277t-221 -195t-393 -72h-740zM1568 220h492q243 0 345.5 94.5t102.5 229.5q0 104 -53 192.5t-151 142t-232 53.5h-504
v-712zM1568 1148h460q112 0 202.5 44t144 124t53.5 188q0 135 -94 229.5t-298 94.5h-468v-680zM1956 -900q-319 0 -607.5 97t-529 273.5t-417 417t-273.5 529t-97 607.5t97 607.5t273.5 529t417 417t529 273.5t607.5 97t607.5 -97t529 -273.5t417 -417t273.5 -529t97 -607.5
t-97 -607.5t-273.5 -529t-417 -417t-529 -273.5t-607.5 -97zM1956 -668q281 0 534.5 85.5t465 241t367 367t240.5 465t85 533.5q0 281 -85 534.5t-240.5 465t-367 367t-465 240.5t-534.5 85t-534.5 -85t-465 -240.5t-367 -367t-240.5 -465t-85 -534.5q0 -280 85 -533.5
t240.5 -465t367 -367t465 -241t534.5 -85.5z" />
    <glyph glyph-name="uni24B8" unicode="C&#x20dd;" horiz-adv-x="3912" 
d="M2820 1408h-248q-22 107 -76.5 188t-132 136.5t-171.5 83.5t-196 28q-186 0 -336.5 -94t-239 -277t-88.5 -449t88.5 -449t239 -277t336.5 -94q102 0 196 28t171.5 83.5t132 137t76.5 187.5h248q-28 -157 -102 -281t-184 -210.5t-246.5 -131.5t-291.5 -45q-262 0 -466 128
t-321 364t-117 560t117 560t321 364t466 128q155 0 291.5 -45t246.5 -131.5t184 -210t102 -281.5zM1956 -900q-319 0 -607.5 97t-529 273.5t-417 417t-273.5 529t-97 607.5t97 607.5t273.5 529t417 417t529 273.5t607.5 97t607.5 -97t529 -273.5t417 -417t273.5 -529
t97 -607.5t-97 -607.5t-273.5 -529t-417 -417t-529 -273.5t-607.5 -97zM1956 -668q281 0 534.5 85.5t465 241t367 367t240.5 465t85 533.5q0 281 -85 534.5t-240.5 465t-367 367t-465 240.5t-534.5 85t-534.5 -85t-465 -240.5t-367 -367t-240.5 -465t-85 -534.5
q0 -280 85 -533.5t240.5 -465t367 -367t465 -241t534.5 -85.5z" />
    <glyph glyph-name="uni24B9" unicode="D&#x20dd;" horiz-adv-x="3912" 
d="M1932 0h-632v2048h660q298 0 510 -122.5t325 -351t113 -546.5q0 -320 -114 -550.5t-332 -354t-530 -123.5zM1548 220h368q254 0 421 98t249 279t82 431q0 248 -81 427.5t-242 276t-401 96.5h-396v-1608zM1956 -900q-319 0 -607.5 97t-529 273.5t-417 417t-273.5 529
t-97 607.5t97 607.5t273.5 529t417 417t529 273.5t607.5 97t607.5 -97t529 -273.5t417 -417t273.5 -529t97 -607.5t-97 -607.5t-273.5 -529t-417 -417t-529 -273.5t-607.5 -97zM1956 -668q281 0 534.5 85.5t465 241t367 367t240.5 465t85 533.5q0 281 -85 534.5t-240.5 465
t-367 367t-465 240.5t-534.5 85t-534.5 -85t-465 -240.5t-367 -367t-240.5 -465t-85 -534.5q0 -280 85 -533.5t240.5 -465t367 -367t465 -241t534.5 -85.5z" />
    <glyph glyph-name="uni24BA" unicode="E&#x20dd;" horiz-adv-x="3912" 
d="M1330 0v2048h1236v-220h-988v-692h924v-220h-924v-696h1004v-220h-1252zM1956 -900q-319 0 -607.5 97t-529 273.5t-417 417t-273.5 529t-97 607.5t97 607.5t273.5 529t417 417t529 273.5t607.5 97t607.5 -97t529 -273.5t417 -417t273.5 -529t97 -607.5t-97 -607.5
t-273.5 -529t-417 -417t-529 -273.5t-607.5 -97zM1956 -668q281 0 534.5 85.5t465 241t367 367t240.5 465t85 533.5q0 281 -85 534.5t-240.5 465t-367 367t-465 240.5t-534.5 85t-534.5 -85t-465 -240.5t-367 -367t-240.5 -465t-85 -534.5q0 -280 85 -533.5t240.5 -465
t367 -367t465 -241t534.5 -85.5z" />
    <glyph glyph-name="uni24BB" unicode="F&#x20dd;" horiz-adv-x="3912" 
d="M1342 0v2048h1228v-220h-980v-692h888v-220h-888v-916h-248zM1956 -900q-319 0 -607.5 97t-529 273.5t-417 417t-273.5 529t-97 607.5t97 607.5t273.5 529t417 417t529 273.5t607.5 97t607.5 -97t529 -273.5t417 -417t273.5 -529t97 -607.5t-97 -607.5t-273.5 -529
t-417 -417t-529 -273.5t-607.5 -97zM1956 -668q281 0 534.5 85.5t465 241t367 367t240.5 465t85 533.5q0 281 -85 534.5t-240.5 465t-367 367t-465 240.5t-534.5 85t-534.5 -85t-465 -240.5t-367 -367t-240.5 -465t-85 -534.5q0 -280 85 -533.5t240.5 -465t367 -367
t465 -241t534.5 -85.5z" />
    <glyph glyph-name="uni24BC" unicode="G&#x20dd;" horiz-adv-x="3912" 
d="M2562 1408q-33 101 -86.5 181.5t-127 137.5t-166.5 87t-204 30q-182 0 -331 -94t-237 -277t-88 -449t89 -449t241 -277t342 -94q176 0 310.5 75.5t210 214t75.5 326.5l76 -16h-616v220h780v-220q0 -253 -107.5 -440t-296 -289.5t-432.5 -102.5q-272 0 -477.5 128
t-320 364t-114.5 560q0 243 65.5 437.5t185.5 331.5t284 210t361 73q162 0 302.5 -48.5t251 -137t184.5 -211t102 -271.5h-256zM1956 -900q-319 0 -607.5 97t-529 273.5t-417 417t-273.5 529t-97 607.5t97 607.5t273.5 529t417 417t529 273.5t607.5 97t607.5 -97t529 -273.5
t417 -417t273.5 -529t97 -607.5t-97 -607.5t-273.5 -529t-417 -417t-529 -273.5t-607.5 -97zM1956 -668q281 0 534.5 85.5t465 241t367 367t240.5 465t85 533.5q0 281 -85 534.5t-240.5 465t-367 367t-465 240.5t-534.5 85t-534.5 -85t-465 -240.5t-367 -367t-240.5 -465
t-85 -534.5q0 -280 85 -533.5t240.5 -465t367 -367t465 -241t534.5 -85.5z" />
    <glyph glyph-name="uni24BD" unicode="H&#x20dd;" horiz-adv-x="3912" 
d="M1162 0v2048h248v-912h1092v912h248v-2048h-248v916h-1092v-916h-248zM1956 -900q-319 0 -607.5 97t-529 273.5t-417 417t-273.5 529t-97 607.5t97 607.5t273.5 529t417 417t529 273.5t607.5 97t607.5 -97t529 -273.5t417 -417t273.5 -529t97 -607.5t-97 -607.5
t-273.5 -529t-417 -417t-529 -273.5t-607.5 -97zM1956 -668q281 0 534.5 85.5t465 241t367 367t240.5 465t85 533.5q0 281 -85 534.5t-240.5 465t-367 367t-465 240.5t-534.5 85t-534.5 -85t-465 -240.5t-367 -367t-240.5 -465t-85 -534.5q0 -280 85 -533.5t240.5 -465
t367 -367t465 -241t534.5 -85.5z" />
    <glyph glyph-name="uni24BE" unicode="I&#x20dd;" horiz-adv-x="3912" 
d="M2080 2048v-2048h-248v2048h248zM1956 -900q-319 0 -607.5 97t-529 273.5t-417 417t-273.5 529t-97 607.5t97 607.5t273.5 529t417 417t529 273.5t607.5 97t607.5 -97t529 -273.5t417 -417t273.5 -529t97 -607.5t-97 -607.5t-273.5 -529t-417 -417t-529 -273.5
t-607.5 -97zM1956 -668q281 0 534.5 85.5t465 241t367 367t240.5 465t85 533.5q0 281 -85 534.5t-240.5 465t-367 367t-465 240.5t-534.5 85t-534.5 -85t-465 -240.5t-367 -367t-240.5 -465t-85 -534.5q0 -280 85 -533.5t240.5 -465t367 -367t465 -241t534.5 -85.5z" />
    <glyph glyph-name="uni24BF" unicode="J&#x20dd;" horiz-adv-x="3912" 
d="M2210 2048h248v-1464q0 -196 -72 -333t-203 -208t-309 -71q-168 0 -299 61.5t-206 175.5t-75 271h244q0 -87 43.5 -151.5t119.5 -100.5t173 -36q107 0 182 45t114.5 132.5t39.5 214.5v1464zM1956 -900q-319 0 -607.5 97t-529 273.5t-417 417t-273.5 529t-97 607.5
t97 607.5t273.5 529t417 417t529 273.5t607.5 97t607.5 -97t529 -273.5t417 -417t273.5 -529t97 -607.5t-97 -607.5t-273.5 -529t-417 -417t-529 -273.5t-607.5 -97zM1956 -668q281 0 534.5 85.5t465 241t367 367t240.5 465t85 533.5q0 281 -85 534.5t-240.5 465t-367 367
t-465 240.5t-534.5 85t-534.5 -85t-465 -240.5t-367 -367t-240.5 -465t-85 -534.5q0 -280 85 -533.5t240.5 -465t367 -367t465 -241t534.5 -85.5z" />
    <glyph glyph-name="uni24C0" unicode="K&#x20dd;" horiz-adv-x="3912" 
d="M1300 0v2048h248v-1016h24l920 1016h324l-860 -924l860 -1124h-300l-712 952l-256 -288v-664h-248zM1956 -900q-319 0 -607.5 97t-529 273.5t-417 417t-273.5 529t-97 607.5t97 607.5t273.5 529t417 417t529 273.5t607.5 97t607.5 -97t529 -273.5t417 -417t273.5 -529
t97 -607.5t-97 -607.5t-273.5 -529t-417 -417t-529 -273.5t-607.5 -97zM1956 -668q281 0 534.5 85.5t465 241t367 367t240.5 465t85 533.5q0 281 -85 534.5t-240.5 465t-367 367t-465 240.5t-534.5 85t-534.5 -85t-465 -240.5t-367 -367t-240.5 -465t-85 -534.5
q0 -280 85 -533.5t240.5 -465t367 -367t465 -241t534.5 -85.5z" />
    <glyph glyph-name="uni24C1" unicode="L&#x20dd;" horiz-adv-x="3912" 
d="M1416 0v2048h248v-1828h952v-220h-1200zM1956 -900q-319 0 -607.5 97t-529 273.5t-417 417t-273.5 529t-97 607.5t97 607.5t273.5 529t417 417t529 273.5t607.5 97t607.5 -97t529 -273.5t417 -417t273.5 -529t97 -607.5t-97 -607.5t-273.5 -529t-417 -417t-529 -273.5
t-607.5 -97zM1956 -668q281 0 534.5 85.5t465 241t367 367t240.5 465t85 533.5q0 281 -85 534.5t-240.5 465t-367 367t-465 240.5t-534.5 85t-534.5 -85t-465 -240.5t-367 -367t-240.5 -465t-85 -534.5q0 -280 85 -533.5t240.5 -465t367 -367t465 -241t534.5 -85.5z" />
    <glyph glyph-name="uni24C2" unicode="M&#x20dd;" horiz-adv-x="3912" 
d="M952 2048h296l696 -1700h24l696 1700h296v-2048h-232v1556h-20l-640 -1556h-224l-640 1556h-20v-1556h-232v2048zM1956 -900q-319 0 -607.5 97t-529 273.5t-417 417t-273.5 529t-97 607.5t97 607.5t273.5 529t417 417t529 273.5t607.5 97t607.5 -97t529 -273.5t417 -417
t273.5 -529t97 -607.5t-97 -607.5t-273.5 -529t-417 -417t-529 -273.5t-607.5 -97zM1956 -668q281 0 534.5 85.5t465 241t367 367t240.5 465t85 533.5q0 281 -85 534.5t-240.5 465t-367 367t-465 240.5t-534.5 85t-534.5 -85t-465 -240.5t-367 -367t-240.5 -465t-85 -534.5
q0 -280 85 -533.5t240.5 -465t367 -367t465 -241t534.5 -85.5z" />
    <glyph glyph-name="uni24C3" unicode="N&#x20dd;" horiz-adv-x="3912" 
d="M2768 2048v-2048h-240l-1116 1608h-20v-1608h-248v2048h240l1120 -1612h20v1612h244zM1956 -900q-319 0 -607.5 97t-529 273.5t-417 417t-273.5 529t-97 607.5t97 607.5t273.5 529t417 417t529 273.5t607.5 97t607.5 -97t529 -273.5t417 -417t273.5 -529t97 -607.5
t-97 -607.5t-273.5 -529t-417 -417t-529 -273.5t-607.5 -97zM1956 -668q281 0 534.5 85.5t465 241t367 367t240.5 465t85 533.5q0 281 -85 534.5t-240.5 465t-367 367t-465 240.5t-534.5 85t-534.5 -85t-465 -240.5t-367 -367t-240.5 -465t-85 -534.5q0 -280 85 -533.5
t240.5 -465t367 -367t465 -241t534.5 -85.5z" />
    <glyph glyph-name="uni24C4" unicode="O&#x20dd;" horiz-adv-x="3912" 
d="M2860 1024q0 -324 -117 -560t-321 -364t-466 -128t-466 128t-321 364t-117 560t117 560t321 364t466 128t466 -128t321 -364t117 -560zM2620 1024q0 266 -88.5 449t-239 277t-336.5 94t-336.5 -94t-239 -277t-88.5 -449t88.5 -449t239 -277t336.5 -94t336.5 94t239 277
t88.5 449zM1956 -900q-319 0 -607.5 97t-529 273.5t-417 417t-273.5 529t-97 607.5t97 607.5t273.5 529t417 417t529 273.5t607.5 97t607.5 -97t529 -273.5t417 -417t273.5 -529t97 -607.5t-97 -607.5t-273.5 -529t-417 -417t-529 -273.5t-607.5 -97zM1956 -668
q281 0 534.5 85.5t465 241t367 367t240.5 465t85 533.5q0 281 -85 534.5t-240.5 465t-367 367t-465 240.5t-534.5 85t-534.5 -85t-465 -240.5t-367 -367t-240.5 -465t-85 -534.5q0 -280 85 -533.5t240.5 -465t367 -367t465 -241t534.5 -85.5z" />
    <glyph glyph-name="uni24C5" unicode="P&#x20dd;" horiz-adv-x="3912" 
d="M1362 0v2048h692q241 0 394.5 -86.5t227.5 -233.5t74 -328t-73.5 -329t-226.5 -235.5t-392 -87.5h-496v220h488q165 0 265 57t145.5 154.5t45.5 220.5t-45.5 220t-146.5 152.5t-268 55.5h-436v-1828h-248zM1956 -900q-319 0 -607.5 97t-529 273.5t-417 417t-273.5 529
t-97 607.5t97 607.5t273.5 529t417 417t529 273.5t607.5 97t607.5 -97t529 -273.5t417 -417t273.5 -529t97 -607.5t-97 -607.5t-273.5 -529t-417 -417t-529 -273.5t-607.5 -97zM1956 -668q281 0 534.5 85.5t465 241t367 367t240.5 465t85 533.5q0 281 -85 534.5t-240.5 465
t-367 367t-465 240.5t-534.5 85t-534.5 -85t-465 -240.5t-367 -367t-240.5 -465t-85 -534.5q0 -280 85 -533.5t240.5 -465t367 -367t465 -241t534.5 -85.5z" />
    <glyph glyph-name="uni24C6" unicode="Q&#x20dd;" horiz-adv-x="3912" 
d="M1876 640h272l228 -300l60 -80l340 -452h-272l-224 300l-56 76zM2860 1024q0 -324 -117 -560t-321 -364t-466 -128t-466 128t-321 364t-117 560t117 560t321 364t466 128t466 -128t321 -364t117 -560zM2620 1024q0 266 -88.5 449t-239 277t-336.5 94t-336.5 -94
t-239 -277t-88.5 -449t88.5 -449t239 -277t336.5 -94t336.5 94t239 277t88.5 449zM1956 -900q-319 0 -607.5 97t-529 273.5t-417 417t-273.5 529t-97 607.5t97 607.5t273.5 529t417 417t529 273.5t607.5 97t607.5 -97t529 -273.5t417 -417t273.5 -529t97 -607.5t-97 -607.5
t-273.5 -529t-417 -417t-529 -273.5t-607.5 -97zM1956 -668q281 0 534.5 85.5t465 241t367 367t240.5 465t85 533.5q0 281 -85 534.5t-240.5 465t-367 367t-465 240.5t-534.5 85t-534.5 -85t-465 -240.5t-367 -367t-240.5 -465t-85 -534.5q0 -280 85 -533.5t240.5 -465
t367 -367t465 -241t534.5 -85.5z" />
    <glyph glyph-name="uni24C7" unicode="R&#x20dd;" horiz-adv-x="3912" 
d="M1282 0v2048h692q240 0 394 -81.5t228 -223.5t74 -323t-74 -321t-227 -219.5t-391 -79.5h-560v224h552q164 0 264.5 48t146 136.5t45.5 211.5t-46 215t-147 142.5t-267 50.5h-436v-1828h-248zM2246 920l504 -920h-288l-496 920h280zM1956 -900q-319 0 -607.5 97
t-529 273.5t-417 417t-273.5 529t-97 607.5t97 607.5t273.5 529t417 417t529 273.5t607.5 97t607.5 -97t529 -273.5t417 -417t273.5 -529t97 -607.5t-97 -607.5t-273.5 -529t-417 -417t-529 -273.5t-607.5 -97zM1956 -668q281 0 534.5 85.5t465 241t367 367t240.5 465
t85 533.5q0 281 -85 534.5t-240.5 465t-367 367t-465 240.5t-534.5 85t-534.5 -85t-465 -240.5t-367 -367t-240.5 -465t-85 -534.5q0 -280 85 -533.5t240.5 -465t367 -367t465 -241t534.5 -85.5z" />
    <glyph glyph-name="uni24C8" unicode="S&#x20dd;" horiz-adv-x="3912" 
d="M2426 1536q-18 152 -146 236t-314 84q-136 0 -237.5 -44t-158 -121t-56.5 -175q0 -82 39.5 -140.5t101.5 -97t130 -63t125 -39.5l208 -56q80 -21 178.5 -58t189 -100.5t149.5 -162.5t59 -243q0 -166 -86.5 -300t-252 -213t-401.5 -79q-220 0 -380.5 71t-252 198
t-103.5 295h256q10 -116 78.5 -191.5t174 -112t227.5 -36.5q142 0 255 46.5t179 130t66 195.5q0 102 -57 166t-150 104t-201 70l-252 72q-240 69 -380 197t-140 335q0 172 93.5 300.5t252 200t354.5 71.5q198 0 352 -70.5t244.5 -192.5t95.5 -277h-240zM1956 -900
q-319 0 -607.5 97t-529 273.5t-417 417t-273.5 529t-97 607.5t97 607.5t273.5 529t417 417t529 273.5t607.5 97t607.5 -97t529 -273.5t417 -417t273.5 -529t97 -607.5t-97 -607.5t-273.5 -529t-417 -417t-529 -273.5t-607.5 -97zM1956 -668q281 0 534.5 85.5t465 241
t367 367t240.5 465t85 533.5q0 281 -85 534.5t-240.5 465t-367 367t-465 240.5t-534.5 85t-534.5 -85t-465 -240.5t-367 -367t-240.5 -465t-85 -534.5q0 -280 85 -533.5t240.5 -465t367 -367t465 -241t534.5 -85.5z" />
    <glyph glyph-name="uni24C9" unicode="T&#x20dd;" horiz-adv-x="3912" 
d="M1188 1828v220h1536v-220h-644v-1828h-248v1828h-644zM1956 -900q-319 0 -607.5 97t-529 273.5t-417 417t-273.5 529t-97 607.5t97 607.5t273.5 529t417 417t529 273.5t607.5 97t607.5 -97t529 -273.5t417 -417t273.5 -529t97 -607.5t-97 -607.5t-273.5 -529t-417 -417
t-529 -273.5t-607.5 -97zM1956 -668q281 0 534.5 85.5t465 241t367 367t240.5 465t85 533.5q0 281 -85 534.5t-240.5 465t-367 367t-465 240.5t-534.5 85t-534.5 -85t-465 -240.5t-367 -367t-240.5 -465t-85 -534.5q0 -280 85 -533.5t240.5 -465t367 -367t465 -241
t534.5 -85.5z" />
    <glyph glyph-name="uni24CA" unicode="U&#x20dd;" horiz-adv-x="3912" 
d="M2504 2048h248v-1356q0 -210 -98.5 -374.5t-277.5 -259t-420 -94.5t-420 94.5t-277.5 259t-98.5 374.5v1356h248v-1336q0 -150 66 -266.5t188.5 -183t293.5 -66.5t294 66.5t188.5 183t65.5 266.5v1336zM1956 -900q-319 0 -607.5 97t-529 273.5t-417 417t-273.5 529
t-97 607.5t97 607.5t273.5 529t417 417t529 273.5t607.5 97t607.5 -97t529 -273.5t417 -417t273.5 -529t97 -607.5t-97 -607.5t-273.5 -529t-417 -417t-529 -273.5t-607.5 -97zM1956 -668q281 0 534.5 85.5t465 241t367 367t240.5 465t85 533.5q0 281 -85 534.5t-240.5 465
t-367 367t-465 240.5t-534.5 85t-534.5 -85t-465 -240.5t-367 -367t-240.5 -465t-85 -534.5q0 -280 85 -533.5t240.5 -465t367 -367t465 -241t534.5 -85.5z" />
    <glyph glyph-name="uni24CB" unicode="V&#x20dd;" horiz-adv-x="3912" 
d="M1336 2048l608 -1724h24l608 1724h260l-752 -2048h-256l-752 2048h260zM1956 -900q-319 0 -607.5 97t-529 273.5t-417 417t-273.5 529t-97 607.5t97 607.5t273.5 529t417 417t529 273.5t607.5 97t607.5 -97t529 -273.5t417 -417t273.5 -529t97 -607.5t-97 -607.5
t-273.5 -529t-417 -417t-529 -273.5t-607.5 -97zM1956 -668q281 0 534.5 85.5t465 241t367 367t240.5 465t85 533.5q0 281 -85 534.5t-240.5 465t-367 367t-465 240.5t-534.5 85t-534.5 -85t-465 -240.5t-367 -367t-240.5 -465t-85 -534.5q0 -280 85 -533.5t240.5 -465
t367 -367t465 -241t534.5 -85.5z" />
    <glyph glyph-name="uni24CC" unicode="W&#x20dd;" horiz-adv-x="3912" 
d="M1240 0l-560 2048h252l428 -1668h20l436 1668h280l436 -1668h20l428 1668h252l-560 -2048h-256l-452 1632h-16l-452 -1632h-256zM1956 -900q-319 0 -607.5 97t-529 273.5t-417 417t-273.5 529t-97 607.5t97 607.5t273.5 529t417 417t529 273.5t607.5 97t607.5 -97
t529 -273.5t417 -417t273.5 -529t97 -607.5t-97 -607.5t-273.5 -529t-417 -417t-529 -273.5t-607.5 -97zM1956 -668q281 0 534.5 85.5t465 241t367 367t240.5 465t85 533.5q0 281 -85 534.5t-240.5 465t-367 367t-465 240.5t-534.5 85t-534.5 -85t-465 -240.5t-367 -367
t-240.5 -465t-85 -534.5q0 -280 85 -533.5t240.5 -465t367 -367t465 -241t534.5 -85.5z" />
    <glyph glyph-name="uni24CD" unicode="X&#x20dd;" horiz-adv-x="3912" 
d="M1420 2048l528 -852h16l528 852h292l-644 -1024l644 -1024h-292l-528 836h-16l-528 -836h-292l660 1024l-660 1024h292zM1956 -900q-319 0 -607.5 97t-529 273.5t-417 417t-273.5 529t-97 607.5t97 607.5t273.5 529t417 417t529 273.5t607.5 97t607.5 -97t529 -273.5
t417 -417t273.5 -529t97 -607.5t-97 -607.5t-273.5 -529t-417 -417t-529 -273.5t-607.5 -97zM1956 -668q281 0 534.5 85.5t465 241t367 367t240.5 465t85 533.5q0 281 -85 534.5t-240.5 465t-367 367t-465 240.5t-534.5 85t-534.5 -85t-465 -240.5t-367 -367t-240.5 -465
t-85 -534.5q0 -280 85 -533.5t240.5 -465t367 -367t465 -241t534.5 -85.5z" />
    <glyph glyph-name="uni24CE" unicode="Y&#x20dd;" horiz-adv-x="3912" 
d="M1092 2048h284l568 -956h24l568 956h284l-740 -1204v-844h-248v844zM1956 -900q-319 0 -607.5 97t-529 273.5t-417 417t-273.5 529t-97 607.5t97 607.5t273.5 529t417 417t529 273.5t607.5 97t607.5 -97t529 -273.5t417 -417t273.5 -529t97 -607.5t-97 -607.5
t-273.5 -529t-417 -417t-529 -273.5t-607.5 -97zM1956 -668q281 0 534.5 85.5t465 241t367 367t240.5 465t85 533.5q0 281 -85 534.5t-240.5 465t-367 367t-465 240.5t-534.5 85t-534.5 -85t-465 -240.5t-367 -367t-240.5 -465t-85 -534.5q0 -280 85 -533.5t240.5 -465
t367 -367t465 -241t534.5 -85.5z" />
    <glyph glyph-name="uni24CF" unicode="Z&#x20dd;" horiz-adv-x="3912" 
d="M1256 0v180l1104 1648h-1116v220h1412v-180l-1104 -1648h1116v-220h-1412zM1956 -900q-319 0 -607.5 97t-529 273.5t-417 417t-273.5 529t-97 607.5t97 607.5t273.5 529t417 417t529 273.5t607.5 97t607.5 -97t529 -273.5t417 -417t273.5 -529t97 -607.5t-97 -607.5
t-273.5 -529t-417 -417t-529 -273.5t-607.5 -97zM1956 -668q281 0 534.5 85.5t465 241t367 367t240.5 465t85 533.5q0 281 -85 534.5t-240.5 465t-367 367t-465 240.5t-534.5 85t-534.5 -85t-465 -240.5t-367 -367t-240.5 -465t-85 -534.5q0 -280 85 -533.5t240.5 -465
t367 -367t465 -241t534.5 -85.5z" />
    <glyph glyph-name="uni24EA" unicode="&#x30;&#x20dd;" horiz-adv-x="3912" 
d="M1956 -28q-226 0 -385 123.5t-243 359t-84 569.5q0 332 84.5 567.5t244 360t383.5 124.5t383.5 -124.5t244 -360t84.5 -567.5q0 -334 -84 -569.5t-243 -359t-385 -123.5zM1956 192q224 0 348 216t124 616q0 266 -56.5 453t-162 285t-253.5 98q-222 0 -347 -218.5
t-125 -617.5q0 -266 56 -452t161.5 -283t254.5 -97zM1956 -900q-319 0 -607.5 97t-529 273.5t-417 417t-273.5 529t-97 607.5t97 607.5t273.5 529t417 417t529 273.5t607.5 97t607.5 -97t529 -273.5t417 -417t273.5 -529t97 -607.5t-97 -607.5t-273.5 -529t-417 -417
t-529 -273.5t-607.5 -97zM1956 -668q281 0 534.5 85.5t465 241t367 367t240.5 465t85 533.5q0 281 -85 534.5t-240.5 465t-367 367t-465 240.5t-534.5 85t-534.5 -85t-465 -240.5t-367 -367t-240.5 -465t-85 -534.5q0 -280 85 -533.5t240.5 -465t367 -367t465 -241
t534.5 -85.5z" />
    <glyph glyph-name="uni2460" unicode="&#x31;&#x20dd;" horiz-adv-x="3912" 
d="M2130 2048v-2048h-248v1788h-12l-500 -332v252l512 340h248zM1956 -900q-319 0 -607.5 97t-529 273.5t-417 417t-273.5 529t-97 607.5t97 607.5t273.5 529t417 417t529 273.5t607.5 97t607.5 -97t529 -273.5t417 -417t273.5 -529t97 -607.5t-97 -607.5t-273.5 -529
t-417 -417t-529 -273.5t-607.5 -97zM1956 -668q281 0 534.5 85.5t465 241t367 367t240.5 465t85 533.5q0 281 -85 534.5t-240.5 465t-367 367t-465 240.5t-534.5 85t-534.5 -85t-465 -240.5t-367 -367t-240.5 -465t-85 -534.5q0 -280 85 -533.5t240.5 -465t367 -367
t465 -241t534.5 -85.5z" />
    <glyph glyph-name="uni2461" unicode="&#x32;&#x20dd;" horiz-adv-x="3912" 
d="M1310 0v180l676 740q119 130 196 226.5t114.5 182t37.5 179.5q0 108 -51.5 187t-140.5 122t-200 43q-118 0 -205.5 -48.5t-135 -135.5t-47.5 -204h-236q0 180 83 316t226.5 212t322.5 76q180 0 319 -76t218 -205t79 -287q0 -113 -40.5 -220.5t-140 -239t-275.5 -320.5
l-460 -492v-16h952v-220h-1292zM1956 -900q-319 0 -607.5 97t-529 273.5t-417 417t-273.5 529t-97 607.5t97 607.5t273.5 529t417 417t529 273.5t607.5 97t607.5 -97t529 -273.5t417 -417t273.5 -529t97 -607.5t-97 -607.5t-273.5 -529t-417 -417t-529 -273.5t-607.5 -97z
M1956 -668q281 0 534.5 85.5t465 241t367 367t240.5 465t85 533.5q0 281 -85 534.5t-240.5 465t-367 367t-465 240.5t-534.5 85t-534.5 -85t-465 -240.5t-367 -367t-240.5 -465t-85 -534.5q0 -280 85 -533.5t240.5 -465t367 -367t465 -241t534.5 -85.5z" />
    <glyph glyph-name="uni2462" unicode="&#x33;&#x20dd;" horiz-adv-x="3912" 
d="M1958 -28q-198 0 -352.5 68t-245 189.5t-98.5 282.5h252q8 -99 68 -170.5t157 -110.5t215 -39q132 0 234 46t160 128t58 190q0 113 -56 199.5t-164 135.5t-264 49h-164v220h164q122 0 214.5 44t145 124t52.5 188q0 104 -46 181t-129.5 120t-196.5 43q-106 0 -199.5 -38.5
t-152.5 -111t-64 -174.5h-240q6 161 97 282.5t238.5 189.5t324.5 68q190 0 326 -76.5t209 -201.5t73 -270q0 -173 -90.5 -295t-245.5 -169v-16q194 -32 303 -164.5t109 -327.5q0 -167 -90.5 -299.5t-246.5 -208.5t-355 -76zM1956 -900q-319 0 -607.5 97t-529 273.5t-417 417
t-273.5 529t-97 607.5t97 607.5t273.5 529t417 417t529 273.5t607.5 97t607.5 -97t529 -273.5t417 -417t273.5 -529t97 -607.5t-97 -607.5t-273.5 -529t-417 -417t-529 -273.5t-607.5 -97zM1956 -668q281 0 534.5 85.5t465 241t367 367t240.5 465t85 533.5q0 281 -85 534.5
t-240.5 465t-367 367t-465 240.5t-534.5 85t-534.5 -85t-465 -240.5t-367 -367t-240.5 -465t-85 -534.5q0 -280 85 -533.5t240.5 -465t367 -367t465 -241t534.5 -85.5z" />
    <glyph glyph-name="uni2463" unicode="&#x34;&#x20dd;" horiz-adv-x="3912" 
d="M1096 420v204l900 1424h148v-316h-100l-680 -1076v-16h1212v-220h-1480zM2060 0v482v95v1471h236v-2048h-236zM1956 -900q-319 0 -607.5 97t-529 273.5t-417 417t-273.5 529t-97 607.5t97 607.5t273.5 529t417 417t529 273.5t607.5 97t607.5 -97t529 -273.5t417 -417
t273.5 -529t97 -607.5t-97 -607.5t-273.5 -529t-417 -417t-529 -273.5t-607.5 -97zM1956 -668q281 0 534.5 85.5t465 241t367 367t240.5 465t85 533.5q0 281 -85 534.5t-240.5 465t-367 367t-465 240.5t-534.5 85t-534.5 -85t-465 -240.5t-367 -367t-240.5 -465t-85 -534.5
q0 -280 85 -533.5t240.5 -465t367 -367t465 -241t534.5 -85.5z" />
    <glyph glyph-name="uni2464" unicode="&#x35;&#x20dd;" horiz-adv-x="3912" 
d="M1936 -28q-176 0 -317 70t-226 192t-93 278h240q14 -139 126.5 -229.5t269.5 -90.5q126 0 224.5 59t155 162.5t56.5 234.5q0 134 -58.5 239.5t-160.5 166.5t-233 62q-94 1 -193 -28.5t-163 -75.5l-232 28l124 1008h1064v-220h-856l-72 -604h12q63 50 158 83t198 33
q188 0 335.5 -89.5t232 -244.5t84.5 -354q0 -196 -87.5 -349.5t-240.5 -242t-348 -88.5zM1956 -900q-319 0 -607.5 97t-529 273.5t-417 417t-273.5 529t-97 607.5t97 607.5t273.5 529t417 417t529 273.5t607.5 97t607.5 -97t529 -273.5t417 -417t273.5 -529t97 -607.5
t-97 -607.5t-273.5 -529t-417 -417t-529 -273.5t-607.5 -97zM1956 -668q281 0 534.5 85.5t465 241t367 367t240.5 465t85 533.5q0 281 -85 534.5t-240.5 465t-367 367t-465 240.5t-534.5 85t-534.5 -85t-465 -240.5t-367 -367t-240.5 -465t-85 -534.5q0 -280 85 -533.5
t240.5 -465t367 -367t465 -241t534.5 -85.5z" />
    <glyph glyph-name="uni2465" unicode="&#x36;&#x20dd;" horiz-adv-x="3912" 
d="M1970 -28q-126 2 -252 48t-230 155.5t-167 297t-63 471.5q0 273 51 484.5t148 356.5t234.5 220t310.5 75q172 0 306.5 -69t219.5 -191.5t110 -283.5h-244q-34 141 -132 232.5t-260 91.5q-238 0 -374.5 -207.5t-137.5 -584.5h16q56 85 133.5 145.5t171.5 93.5t199 33
q176 0 322 -87.5t234 -241t88 -351.5q0 -190 -85 -347.5t-238.5 -250t-360.5 -90.5zM1970 192q126 0 226.5 63t159 169t58.5 236q0 127 -56.5 231.5t-155 166.5t-224.5 62q-95 0 -177 -37.5t-143.5 -102.5t-96.5 -148.5t-35 -175.5q0 -122 57.5 -228t158 -171t228.5 -65z
M1956 -900q-319 0 -607.5 97t-529 273.5t-417 417t-273.5 529t-97 607.5t97 607.5t273.5 529t417 417t529 273.5t607.5 97t607.5 -97t529 -273.5t417 -417t273.5 -529t97 -607.5t-97 -607.5t-273.5 -529t-417 -417t-529 -273.5t-607.5 -97zM1956 -668q281 0 534.5 85.5
t465 241t367 367t240.5 465t85 533.5q0 281 -85 534.5t-240.5 465t-367 367t-465 240.5t-534.5 85t-534.5 -85t-465 -240.5t-367 -367t-240.5 -465t-85 -534.5q0 -280 85 -533.5t240.5 -465t367 -367t465 -241t534.5 -85.5z" />
    <glyph glyph-name="uni2466" unicode="&#x37;&#x20dd;" horiz-adv-x="3912" 
d="M1496 0l916 1812v16h-1056v220h1312v-232l-912 -1816h-260zM1956 -900q-319 0 -607.5 97t-529 273.5t-417 417t-273.5 529t-97 607.5t97 607.5t273.5 529t417 417t529 273.5t607.5 97t607.5 -97t529 -273.5t417 -417t273.5 -529t97 -607.5t-97 -607.5t-273.5 -529
t-417 -417t-529 -273.5t-607.5 -97zM1956 -668q281 0 534.5 85.5t465 241t367 367t240.5 465t85 533.5q0 281 -85 534.5t-240.5 465t-367 367t-465 240.5t-534.5 85t-534.5 -85t-465 -240.5t-367 -367t-240.5 -465t-85 -534.5q0 -280 85 -533.5t240.5 -465t367 -367
t465 -241t534.5 -85.5z" />
    <glyph glyph-name="uni2467" unicode="&#x38;&#x20dd;" horiz-adv-x="3912" 
d="M1956 -28q-206 0 -363.5 73.5t-245.5 203t-87 295.5q-1 130 51 240.5t142.5 185t202.5 94.5v12q-147 38 -234 165.5t-86 290.5q-1 156 79 279t220.5 194t320.5 71q178 0 318 -71t220.5 -194t81.5 -279q-1 -163 -88.5 -290.5t-231.5 -165.5v-12q111 -20 200 -94.5
t142 -185t54 -240.5q-1 -166 -89.5 -295.5t-245 -203t-361.5 -73.5zM1956 192q139 0 240 45t156 127t56 192q-1 116 -60 205t-160.5 140t-231.5 51q-131 0 -233.5 -51t-161 -140t-57.5 -205q-1 -110 53.5 -192t156.5 -127t242 -45zM1956 1164q110 0 195.5 44t134.5 123
t50 185q-1 104 -49 181.5t-133 120t-198 42.5q-115 0 -201 -42.5t-133 -120t-46 -181.5q-1 -106 47.5 -185t134.5 -123t198 -44zM1956 -900q-319 0 -607.5 97t-529 273.5t-417 417t-273.5 529t-97 607.5t97 607.5t273.5 529t417 417t529 273.5t607.5 97t607.5 -97
t529 -273.5t417 -417t273.5 -529t97 -607.5t-97 -607.5t-273.5 -529t-417 -417t-529 -273.5t-607.5 -97zM1956 -668q281 0 534.5 85.5t465 241t367 367t240.5 465t85 533.5q0 281 -85 534.5t-240.5 465t-367 367t-465 240.5t-534.5 85t-534.5 -85t-465 -240.5t-367 -367
t-240.5 -465t-85 -534.5q0 -280 85 -533.5t240.5 -465t367 -367t465 -241t534.5 -85.5z" />
    <glyph glyph-name="uni2468" unicode="&#x39;&#x20dd;" horiz-adv-x="3912" 
d="M1942 2080q126 -1 252 -48t230 -156t167 -296.5t63 -471.5q0 -273 -51.5 -484.5t-148 -356.5t-234 -220t-310.5 -75q-172 0 -306.5 68.5t-220 191t-109.5 284.5h244q33 -141 131.5 -232.5t260.5 -91.5q237 0 374.5 207t137.5 585h-16q-56 -84 -133 -145t-171 -94
t-200 -33q-176 0 -322.5 87.5t-234 241t-87.5 351.5q0 190 84.5 347t238 250t361.5 91zM1942 1860q-126 0 -226.5 -63t-159 -169t-58.5 -236q0 -128 56.5 -232.5t155 -166t224.5 -61.5q95 0 177 37.5t143.5 103t96.5 149t35 174.5q0 122 -57.5 228t-158 171t-228.5 65z
M1956 -900q-319 0 -607.5 97t-529 273.5t-417 417t-273.5 529t-97 607.5t97 607.5t273.5 529t417 417t529 273.5t607.5 97t607.5 -97t529 -273.5t417 -417t273.5 -529t97 -607.5t-97 -607.5t-273.5 -529t-417 -417t-529 -273.5t-607.5 -97zM1956 -668q281 0 534.5 85.5
t465 241t367 367t240.5 465t85 533.5q0 281 -85 534.5t-240.5 465t-367 367t-465 240.5t-534.5 85t-534.5 -85t-465 -240.5t-367 -367t-240.5 -465t-85 -534.5q0 -280 85 -533.5t240.5 -465t367 -367t465 -241t534.5 -85.5z" />
    <glyph glyph-name="uniE12B" unicode="&#xe06b;&#x20dd;" horiz-adv-x="3912" 
d="M2264 1836l128 -104l-752 -1524l-120 116zM1956 -28q-226 0 -385 123.5t-243 359t-84 569.5q0 332 84.5 567.5t244 360t383.5 124.5t383.5 -124.5t244 -360t84.5 -567.5q0 -334 -84 -569.5t-243 -359t-385 -123.5zM1956 192q224 0 348 216t124 616q0 266 -56.5 453
t-162 285t-253.5 98q-222 0 -347 -218.5t-125 -617.5q0 -266 56 -452t161.5 -283t254.5 -97zM1956 -900q-319 0 -607.5 97t-529 273.5t-417 417t-273.5 529t-97 607.5t97 607.5t273.5 529t417 417t529 273.5t607.5 97t607.5 -97t529 -273.5t417 -417t273.5 -529t97 -607.5
t-97 -607.5t-273.5 -529t-417 -417t-529 -273.5t-607.5 -97zM1956 -668q281 0 534.5 85.5t465 241t367 367t240.5 465t85 533.5q0 281 -85 534.5t-240.5 465t-367 367t-465 240.5t-534.5 85t-534.5 -85t-465 -240.5t-367 -367t-240.5 -465t-85 -534.5q0 -280 85 -533.5
t240.5 -465t367 -367t465 -241t534.5 -85.5z" />
    <glyph glyph-name="uniE12C" unicode="&#xe06c;&#x20dd;" horiz-adv-x="3912" 
d="M2164 2048v-2048h-248v1688h-16q-14 -28 -72 -63.5t-150 -62t-210 -26.5v208q119 0 206 43t145.5 101t89 105t35.5 55h220zM1956 -900q-319 0 -607.5 97t-529 273.5t-417 417t-273.5 529t-97 607.5t97 607.5t273.5 529t417 417t529 273.5t607.5 97t607.5 -97t529 -273.5
t417 -417t273.5 -529t97 -607.5t-97 -607.5t-273.5 -529t-417 -417t-529 -273.5t-607.5 -97zM1956 -668q281 0 534.5 85.5t465 241t367 367t240.5 465t85 533.5q0 281 -85 534.5t-240.5 465t-367 367t-465 240.5t-534.5 85t-534.5 -85t-465 -240.5t-367 -367t-240.5 -465
t-85 -534.5q0 -280 85 -533.5t240.5 -465t367 -367t465 -241t534.5 -85.5z" />
    <glyph glyph-name="uniE12D" unicode="&#xe06d;&#x20dd;" horiz-adv-x="3912" 
d="M1260 512h252q11 -104 71.5 -175.5t157.5 -108t215 -36.5q128 0 230 43t162 128.5t60 212.5q0 111 -52 206.5t-167 154.5t-305 59h-164v200l512 616v16h-872v220h1212v-180l-548 -664v-16q132 -6 246.5 -54t200 -130t133.5 -191t48 -237q0 -175 -89.5 -311.5t-247 -214.5
t-363.5 -78q-182 0 -335 64t-249 185t-108 291zM1956 -900q-319 0 -607.5 97t-529 273.5t-417 417t-273.5 529t-97 607.5t97 607.5t273.5 529t417 417t529 273.5t607.5 97t607.5 -97t529 -273.5t417 -417t273.5 -529t97 -607.5t-97 -607.5t-273.5 -529t-417 -417
t-529 -273.5t-607.5 -97zM1956 -668q281 0 534.5 85.5t465 241t367 367t240.5 465t85 533.5q0 281 -85 534.5t-240.5 465t-367 367t-465 240.5t-534.5 85t-534.5 -85t-465 -240.5t-367 -367t-240.5 -465t-85 -534.5q0 -280 85 -533.5t240.5 -465t367 -367t465 -241
t534.5 -85.5z" />
    <glyph glyph-name="uniE12E" unicode="&#xe06e;&#x20dd;" horiz-adv-x="3912" 
d="M1156 420v204l820 1424h244l-800 -1392v-16h1216v-220h-1480zM2120 0v480v97v703h236v-1280h-236zM1956 -900q-319 0 -607.5 97t-529 273.5t-417 417t-273.5 529t-97 607.5t97 607.5t273.5 529t417 417t529 273.5t607.5 97t607.5 -97t529 -273.5t417 -417t273.5 -529
t97 -607.5t-97 -607.5t-273.5 -529t-417 -417t-529 -273.5t-607.5 -97zM1956 -668q281 0 534.5 85.5t465 241t367 367t240.5 465t85 533.5q0 281 -85 534.5t-240.5 465t-367 367t-465 240.5t-534.5 85t-534.5 -85t-465 -240.5t-367 -367t-240.5 -465t-85 -534.5
q0 -280 85 -533.5t240.5 -465t367 -367t465 -241t534.5 -85.5z" />
    <glyph glyph-name="uniE12F" unicode="&#xe06f;&#x20dd;" horiz-adv-x="3912" 
d="M1312 648q2 96 29 199t91 229t176 292l460 680h272l-540 -788q36 12 74.5 20t77.5 8q186 0 332.5 -86t231 -235t84.5 -339t-83.5 -338t-229 -233t-331.5 -85q-188 0 -334 87.5t-229 240t-81 348.5zM1548 632q0 -130 52 -230t144 -157t212 -57t212 56.5t144 156t52 227.5
q0 130 -52 229t-144 155t-212 56t-212 -55.5t-144 -154t-52 -226.5zM1956 -900q-319 0 -607.5 97t-529 273.5t-417 417t-273.5 529t-97 607.5t97 607.5t273.5 529t417 417t529 273.5t607.5 97t607.5 -97t529 -273.5t417 -417t273.5 -529t97 -607.5t-97 -607.5t-273.5 -529
t-417 -417t-529 -273.5t-607.5 -97zM1956 -668q281 0 534.5 85.5t465 241t367 367t240.5 465t85 533.5q0 281 -85 534.5t-240.5 465t-367 367t-465 240.5t-534.5 85t-534.5 -85t-465 -240.5t-367 -367t-240.5 -465t-85 -534.5q0 -280 85 -533.5t240.5 -465t367 -367
t465 -241t534.5 -85.5z" />
    <glyph glyph-name="uniE130" unicode="&#xe070;&#x20dd;" horiz-adv-x="3912" 
d="M1312 1420q0 190 83.5 338t229 233t331.5 85q188 0 334 -87.5t229 -240t81 -348.5q-2 -96 -29 -199t-91 -229t-176 -292l-460 -680h-272l540 788q-36 -12 -74.5 -20t-77.5 -8q-186 0 -332.5 86t-231 235t-84.5 339zM1548 1420q0 -130 52 -229t144 -155t212 -56t212 55.5
t144 154t52 226.5q0 130 -52 230t-144 157t-212 57t-212 -56.5t-144 -156t-52 -227.5zM1956 -900q-319 0 -607.5 97t-529 273.5t-417 417t-273.5 529t-97 607.5t97 607.5t273.5 529t417 417t529 273.5t607.5 97t607.5 -97t529 -273.5t417 -417t273.5 -529t97 -607.5
t-97 -607.5t-273.5 -529t-417 -417t-529 -273.5t-607.5 -97zM1956 -668q281 0 534.5 85.5t465 241t367 367t240.5 465t85 533.5q0 281 -85 534.5t-240.5 465t-367 367t-465 240.5t-534.5 85t-534.5 -85t-465 -240.5t-367 -367t-240.5 -465t-85 -534.5q0 -280 85 -533.5
t240.5 -465t367 -367t465 -241t534.5 -85.5z" />
    <glyph glyph-name="uniE131" unicode="&#x21;&#x20dd;" horiz-adv-x="3912" 
d="M2092 2048l-20 -1472h-232l-20 1472h272zM1956 -16q-74 0 -127 53t-53 127t53 127t127 53t127 -53t53 -127q0 -49 -24.5 -90t-65 -65.5t-90.5 -24.5zM1956 -900q-319 0 -607.5 97t-529 273.5t-417 417t-273.5 529t-97 607.5t97 607.5t273.5 529t417 417t529 273.5
t607.5 97t607.5 -97t529 -273.5t417 -417t273.5 -529t97 -607.5t-97 -607.5t-273.5 -529t-417 -417t-529 -273.5t-607.5 -97zM1956 -668q281 0 534.5 85.5t465 241t367 367t240.5 465t85 533.5q0 281 -85 534.5t-240.5 465t-367 367t-465 240.5t-534.5 85t-534.5 -85
t-465 -240.5t-367 -367t-240.5 -465t-85 -534.5q0 -280 85 -533.5t240.5 -465t367 -367t465 -241t534.5 -85.5z" />
    <glyph glyph-name="uniE132" unicode="&#x3f;&#x20dd;" horiz-adv-x="3912" 
d="M1818 576v12q2 191 40 304t108 183t168 129q59 36 106 85.5t74.5 114.5t27.5 144q0 98 -46 170t-123 111t-171 39q-82 0 -158 -34t-127 -107t-59 -191h-252q8 170 88.5 291t213 185t294.5 64q176 0 306.5 -70t202 -192t71.5 -278q0 -110 -33.5 -199t-96 -159t-150.5 -124
q-88 -55 -141 -115.5t-77 -143.5t-26 -207v-12h-240zM1946 -16q-74 0 -127 53t-53 127t53 127t127 53t127 -53t53 -127q0 -49 -24.5 -90t-65 -65.5t-90.5 -24.5zM1956 -900q-319 0 -607.5 97t-529 273.5t-417 417t-273.5 529t-97 607.5t97 607.5t273.5 529t417 417
t529 273.5t607.5 97t607.5 -97t529 -273.5t417 -417t273.5 -529t97 -607.5t-97 -607.5t-273.5 -529t-417 -417t-529 -273.5t-607.5 -97zM1956 -668q281 0 534.5 85.5t465 241t367 367t240.5 465t85 533.5q0 281 -85 534.5t-240.5 465t-367 367t-465 240.5t-534.5 85
t-534.5 -85t-465 -240.5t-367 -367t-240.5 -465t-85 -534.5q0 -280 85 -533.5t240.5 -465t367 -367t465 -241t534.5 -85.5z" />
    <glyph glyph-name="uniE133" unicode="&#x23;&#x20dd;" horiz-adv-x="3912" 
d="M2048 0l336 2048h200l-336 -2048h-200zM1116 568l32 200h1528l-32 -200h-1528zM1328 0l336 2048h200l-336 -2048h-200zM1236 1280l32 200h1528l-32 -200h-1528zM1956 -900q-319 0 -607.5 97t-529 273.5t-417 417t-273.5 529t-97 607.5t97 607.5t273.5 529t417 417
t529 273.5t607.5 97t607.5 -97t529 -273.5t417 -417t273.5 -529t97 -607.5t-97 -607.5t-273.5 -529t-417 -417t-529 -273.5t-607.5 -97zM1956 -668q281 0 534.5 85.5t465 241t367 367t240.5 465t85 533.5q0 281 -85 534.5t-240.5 465t-367 367t-465 240.5t-534.5 85
t-534.5 -85t-465 -240.5t-367 -367t-240.5 -465t-85 -534.5q0 -280 85 -533.5t240.5 -465t367 -367t465 -241t534.5 -85.5z" />
    <glyph glyph-name="uniE134" unicode="&#x2d;&#x20dd;" horiz-adv-x="3912" 
d="M2404 1134v-220h-896v220h896zM1956 -900q-319 0 -607.5 97t-529 273.5t-417 417t-273.5 529t-97 607.5t97 607.5t273.5 529t417 417t529 273.5t607.5 97t607.5 -97t529 -273.5t417 -417t273.5 -529t97 -607.5t-97 -607.5t-273.5 -529t-417 -417t-529 -273.5t-607.5 -97z
M1956 -668q281 0 534.5 85.5t465 241t367 367t240.5 465t85 533.5q0 281 -85 534.5t-240.5 465t-367 367t-465 240.5t-534.5 85t-534.5 -85t-465 -240.5t-367 -367t-240.5 -465t-85 -534.5q0 -280 85 -533.5t240.5 -465t367 -367t465 -241t534.5 -85.5z" />
    <glyph glyph-name="uniE135" unicode="&#x3c;&#x20dd;" horiz-adv-x="3912" 
d="M1272 912v160l1288 656v-256l-988 -476l8 16v-40l-8 16l988 -476v-256zM1956 -900q-319 0 -607.5 97t-529 273.5t-417 417t-273.5 529t-97 607.5t97 607.5t273.5 529t417 417t529 273.5t607.5 97t607.5 -97t529 -273.5t417 -417t273.5 -529t97 -607.5t-97 -607.5
t-273.5 -529t-417 -417t-529 -273.5t-607.5 -97zM1956 -668q281 0 534.5 85.5t465 241t367 367t240.5 465t85 533.5q0 281 -85 534.5t-240.5 465t-367 367t-465 240.5t-534.5 85t-534.5 -85t-465 -240.5t-367 -367t-240.5 -465t-85 -534.5q0 -280 85 -533.5t240.5 -465
t367 -367t465 -241t534.5 -85.5z" />
    <glyph glyph-name="uniE136" unicode="&#x3e;&#x20dd;" horiz-adv-x="3912" 
d="M2640 912l-1288 -656v256l988 476l-8 -16v40l8 -16l-988 476v256l1288 -656v-160zM1956 -900q-319 0 -607.5 97t-529 273.5t-417 417t-273.5 529t-97 607.5t97 607.5t273.5 529t417 417t529 273.5t607.5 97t607.5 -97t529 -273.5t417 -417t273.5 -529t97 -607.5
t-97 -607.5t-273.5 -529t-417 -417t-529 -273.5t-607.5 -97zM1956 -668q281 0 534.5 85.5t465 241t367 367t240.5 465t85 533.5q0 281 -85 534.5t-240.5 465t-367 367t-465 240.5t-534.5 85t-534.5 -85t-465 -240.5t-367 -367t-240.5 -465t-85 -534.5q0 -280 85 -533.5
t240.5 -465t367 -367t465 -241t534.5 -85.5z" />
    <glyph glyph-name="uniE137" unicode="&#x3d;&#x20dd;" horiz-adv-x="3912" 
d="M1340 1212v216h1232v-216h-1232zM1340 620v216h1232v-216h-1232zM1956 -900q-319 0 -607.5 97t-529 273.5t-417 417t-273.5 529t-97 607.5t97 607.5t273.5 529t417 417t529 273.5t607.5 97t607.5 -97t529 -273.5t417 -417t273.5 -529t97 -607.5t-97 -607.5t-273.5 -529
t-417 -417t-529 -273.5t-607.5 -97zM1956 -668q281 0 534.5 85.5t465 241t367 367t240.5 465t85 533.5q0 281 -85 534.5t-240.5 465t-367 367t-465 240.5t-534.5 85t-534.5 -85t-465 -240.5t-367 -367t-240.5 -465t-85 -534.5q0 -280 85 -533.5t240.5 -465t367 -367
t465 -241t534.5 -85.5z" />
    <glyph glyph-name="uni2295" unicode="&#x2b;&#x20dd;" horiz-adv-x="3912" 
d="M1844 360v1320h224v-1320h-224zM1296 908v224h1320v-224h-1320zM1956 -900q-319 0 -607.5 97t-529 273.5t-417 417t-273.5 529t-97 607.5t97 607.5t273.5 529t417 417t529 273.5t607.5 97t607.5 -97t529 -273.5t417 -417t273.5 -529t97 -607.5t-97 -607.5t-273.5 -529
t-417 -417t-529 -273.5t-607.5 -97zM1956 -668q281 0 534.5 85.5t465 241t367 367t240.5 465t85 533.5q0 281 -85 534.5t-240.5 465t-367 367t-465 240.5t-534.5 85t-534.5 -85t-465 -240.5t-367 -367t-240.5 -465t-85 -534.5q0 -280 85 -533.5t240.5 -465t367 -367
t465 -241t534.5 -85.5z" />
    <glyph glyph-name="uni2296" unicode="&#x2212;&#x20dd;" horiz-adv-x="3912" 
d="M2596 1136v-224h-1280v224h1280zM1956 -900q-319 0 -607.5 97t-529 273.5t-417 417t-273.5 529t-97 607.5t97 607.5t273.5 529t417 417t529 273.5t607.5 97t607.5 -97t529 -273.5t417 -417t273.5 -529t97 -607.5t-97 -607.5t-273.5 -529t-417 -417t-529 -273.5
t-607.5 -97zM1956 -668q281 0 534.5 85.5t465 241t367 367t240.5 465t85 533.5q0 281 -85 534.5t-240.5 465t-367 367t-465 240.5t-534.5 85t-534.5 -85t-465 -240.5t-367 -367t-240.5 -465t-85 -534.5q0 -280 85 -533.5t240.5 -465t367 -367t465 -241t534.5 -85.5z" />
    <glyph glyph-name="uni2297" unicode="&#xd7;&#x20dd;" horiz-adv-x="3912" 
d="M2444 368l-1128 1128l152 152l1128 -1128zM1468 368l-152 152l1128 1128l152 -152zM1956 -900q-319 0 -607.5 97t-529 273.5t-417 417t-273.5 529t-97 607.5t97 607.5t273.5 529t417 417t529 273.5t607.5 97t607.5 -97t529 -273.5t417 -417t273.5 -529t97 -607.5
t-97 -607.5t-273.5 -529t-417 -417t-529 -273.5t-607.5 -97zM1956 -668q281 0 534.5 85.5t465 241t367 367t240.5 465t85 533.5q0 281 -85 534.5t-240.5 465t-367 367t-465 240.5t-534.5 85t-534.5 -85t-465 -240.5t-367 -367t-240.5 -465t-85 -534.5q0 -280 85 -533.5
t240.5 -465t367 -367t465 -241t534.5 -85.5z" />
    <glyph glyph-name="uni2A38" unicode="&#xf7;&#x20dd;" horiz-adv-x="3912" 
d="M2596 1136v-224h-1280v224h1280zM1956 328q-75 0 -127.5 52.5t-52.5 127.5q0 72 52.5 124t127.5 52q72 0 124 -52t52 -124q0 -75 -52 -127.5t-124 -52.5zM1956 1364q-50 0 -91 24t-65 65t-24 91q0 72 52.5 124t127.5 52q72 0 124 -52t52 -124q0 -75 -52 -127.5
t-124 -52.5zM1956 -900q-319 0 -607.5 97t-529 273.5t-417 417t-273.5 529t-97 607.5t97 607.5t273.5 529t417 417t529 273.5t607.5 97t607.5 -97t529 -273.5t417 -417t273.5 -529t97 -607.5t-97 -607.5t-273.5 -529t-417 -417t-529 -273.5t-607.5 -97zM1956 -668
q281 0 534.5 85.5t465 241t367 367t240.5 465t85 533.5q0 281 -85 534.5t-240.5 465t-367 367t-465 240.5t-534.5 85t-534.5 -85t-465 -240.5t-367 -367t-240.5 -465t-85 -534.5q0 -280 85 -533.5t240.5 -465t367 -367t465 -241t534.5 -85.5z" />
    <glyph glyph-name="uniE138" unicode="&#x2191;&#x20dd;" horiz-adv-x="3912" 
d="M1848 0v1644l-632 -634l-156 154l898 896l896 -896l-152 -154l-634 634v-1644h-220zM1956 -900q-319 0 -607.5 97t-529 273.5t-417 417t-273.5 529t-97 607.5t97 607.5t273.5 529t417 417t529 273.5t607.5 97t607.5 -97t529 -273.5t417 -417t273.5 -529t97 -607.5
t-97 -607.5t-273.5 -529t-417 -417t-529 -273.5t-607.5 -97zM1956 -668q281 0 534.5 85.5t465 241t367 367t240.5 465t85 533.5q0 281 -85 534.5t-240.5 465t-367 367t-465 240.5t-534.5 85t-534.5 -85t-465 -240.5t-367 -367t-240.5 -465t-85 -534.5q0 -280 85 -533.5
t240.5 -465t367 -367t465 -241t534.5 -85.5z" />
    <glyph glyph-name="uniE139" unicode="&#x2193;&#x20dd;" horiz-adv-x="3912" 
d="M2066 2048v-1644l632 634l156 -154l-898 -896l-896 896l152 154l634 -634v1644h220zM1956 -900q-319 0 -607.5 97t-529 273.5t-417 417t-273.5 529t-97 607.5t97 607.5t273.5 529t417 417t529 273.5t607.5 97t607.5 -97t529 -273.5t417 -417t273.5 -529t97 -607.5
t-97 -607.5t-273.5 -529t-417 -417t-529 -273.5t-607.5 -97zM1956 -668q281 0 534.5 85.5t465 241t367 367t240.5 465t85 533.5q0 281 -85 534.5t-240.5 465t-367 367t-465 240.5t-534.5 85t-534.5 -85t-465 -240.5t-367 -367t-240.5 -465t-85 -534.5q0 -280 85 -533.5
t240.5 -465t367 -367t465 -241t534.5 -85.5z" />
    <glyph glyph-name="uniE13A" unicode="&#x2190;&#x20dd;" horiz-adv-x="3912" 
d="M1824 128l-896 896l896 896l154 -152l-634 -634h1642v-220h-1642l634 -632zM1956 -900q-319 0 -607.5 97t-529 273.5t-417 417t-273.5 529t-97 607.5t97 607.5t273.5 529t417 417t529 273.5t607.5 97t607.5 -97t529 -273.5t417 -417t273.5 -529t97 -607.5t-97 -607.5
t-273.5 -529t-417 -417t-529 -273.5t-607.5 -97zM1956 -668q281 0 534.5 85.5t465 241t367 367t240.5 465t85 533.5q0 281 -85 534.5t-240.5 465t-367 367t-465 240.5t-534.5 85t-534.5 -85t-465 -240.5t-367 -367t-240.5 -465t-85 -534.5q0 -280 85 -533.5t240.5 -465
t367 -367t465 -241t534.5 -85.5z" />
    <glyph glyph-name="uniE13B" unicode="&#x2192;&#x20dd;" horiz-adv-x="3912" 
d="M2090 128l-154 152l634 634h-1642v220h1642l-634 632l154 154l896 -896zM1956 -900q-319 0 -607.5 97t-529 273.5t-417 417t-273.5 529t-97 607.5t97 607.5t273.5 529t417 417t529 273.5t607.5 97t607.5 -97t529 -273.5t417 -417t273.5 -529t97 -607.5t-97 -607.5
t-273.5 -529t-417 -417t-529 -273.5t-607.5 -97zM1956 -668q281 0 534.5 85.5t465 241t367 367t240.5 465t85 533.5q0 281 -85 534.5t-240.5 465t-367 367t-465 240.5t-534.5 85t-534.5 -85t-465 -240.5t-367 -367t-240.5 -465t-85 -534.5q0 -280 85 -533.5t240.5 -465
t367 -367t465 -241t534.5 -85.5z" />
    <glyph glyph-name="uniE13C" unicode="&#x2713;&#x20dd;" horiz-adv-x="3912" 
d="M1054 1004l152 156l528 -520l1092 1088l156 -156l-1248 -1244zM1956 -900q-319 0 -607.5 97t-529 273.5t-417 417t-273.5 529t-97 607.5t97 607.5t273.5 529t417 417t529 273.5t607.5 97t607.5 -97t529 -273.5t417 -417t273.5 -529t97 -607.5t-97 -607.5t-273.5 -529
t-417 -417t-529 -273.5t-607.5 -97zM1956 -668q281 0 534.5 85.5t465 241t367 367t240.5 465t85 533.5q0 281 -85 534.5t-240.5 465t-367 367t-465 240.5t-534.5 85t-534.5 -85t-465 -240.5t-367 -367t-240.5 -465t-85 -534.5q0 -280 85 -533.5t240.5 -465t367 -367
t465 -241t534.5 -85.5z" />
    <glyph glyph-name="uniE13D" unicode="&#x2717;&#x20dd;" horiz-adv-x="3912" 
d="M1420 334l-156 156l1228 1224l156 -156zM2492 334l-1228 1224l156 156l1228 -1224zM1956 -900q-319 0 -607.5 97t-529 273.5t-417 417t-273.5 529t-97 607.5t97 607.5t273.5 529t417 417t529 273.5t607.5 97t607.5 -97t529 -273.5t417 -417t273.5 -529t97 -607.5
t-97 -607.5t-273.5 -529t-417 -417t-529 -273.5t-607.5 -97zM1956 -668q281 0 534.5 85.5t465 241t367 367t240.5 465t85 533.5q0 281 -85 534.5t-240.5 465t-367 367t-465 240.5t-534.5 85t-534.5 -85t-465 -240.5t-367 -367t-240.5 -465t-85 -534.5q0 -280 85 -533.5
t240.5 -465t367 -367t465 -241t534.5 -85.5z" />
    <glyph glyph-name="u1F130" unicode="A&#x20de;" horiz-adv-x="3912" 
d="M1336 0h-260l752 2048h256l752 -2048h-260l-612 1724h-16zM1432 800h1048v-220h-1048v220zM444 -832q-168 0 -256 88t-88 256v3024q0 168 88 256t256 88h3024q168 0 256 -88t88 -256v-3024q0 -168 -88 -256t-256 -88h-3024zM410 -600h3092q35 0 56.5 22t21.5 56v3092
q0 35 -21.5 56.5t-56.5 21.5h-3092q-34 0 -56 -21.5t-22 -56.5v-3092q0 -34 22 -56t56 -22z" />
    <glyph glyph-name="u1F131" unicode="B&#x20de;" horiz-adv-x="3912" 
d="M1280 0v2048h716q214 0 353 -73.5t207 -197t68 -273.5q0 -132 -46.5 -218t-122 -136t-163.5 -74v-20q94 -6 189 -66t159 -172t64 -274q0 -154 -70 -277t-221 -195t-393 -72h-740zM1528 220h492q243 0 345.5 94.5t102.5 229.5q0 104 -53 192.5t-151 142t-232 53.5h-504
v-712zM1528 1148h460q112 0 202.5 44t144 124t53.5 188q0 135 -94 229.5t-298 94.5h-468v-680zM444 -832q-168 0 -256 88t-88 256v3024q0 168 88 256t256 88h3024q168 0 256 -88t88 -256v-3024q0 -168 -88 -256t-256 -88h-3024zM410 -600h3092q35 0 56.5 22t21.5 56v3092
q0 35 -21.5 56.5t-56.5 21.5h-3092q-34 0 -56 -21.5t-22 -56.5v-3092q0 -34 22 -56t56 -22z" />
    <glyph glyph-name="u1F132" unicode="C&#x20de;" horiz-adv-x="3912" 
d="M2820 1408h-248q-22 107 -76.5 188t-132 136.5t-171.5 83.5t-196 28q-186 0 -336.5 -94t-239 -277t-88.5 -449t88.5 -449t239 -277t336.5 -94q102 0 196 28t171.5 83.5t132 137t76.5 187.5h248q-28 -157 -102 -281t-184 -210.5t-246.5 -131.5t-291.5 -45q-262 0 -466 128
t-321 364t-117 560t117 560t321 364t466 128q155 0 291.5 -45t246.5 -131.5t184 -210t102 -281.5zM444 -832q-168 0 -256 88t-88 256v3024q0 168 88 256t256 88h3024q168 0 256 -88t88 -256v-3024q0 -168 -88 -256t-256 -88h-3024zM410 -600h3092q35 0 56.5 22t21.5 56v3092
q0 35 -21.5 56.5t-56.5 21.5h-3092q-34 0 -56 -21.5t-22 -56.5v-3092q0 -34 22 -56t56 -22z" />
    <glyph glyph-name="u1F133" unicode="D&#x20de;" horiz-adv-x="3912" 
d="M1844 0h-632v2048h660q298 0 510 -122.5t325 -351t113 -546.5q0 -320 -114 -550.5t-332 -354t-530 -123.5zM1460 220h368q254 0 421 98t249 279t82 431q0 248 -81 427.5t-242 276t-401 96.5h-396v-1608zM444 -832q-168 0 -256 88t-88 256v3024q0 168 88 256t256 88h3024
q168 0 256 -88t88 -256v-3024q0 -168 -88 -256t-256 -88h-3024zM410 -600h3092q35 0 56.5 22t21.5 56v3092q0 35 -21.5 56.5t-56.5 21.5h-3092q-34 0 -56 -21.5t-22 -56.5v-3092q0 -34 22 -56t56 -22z" />
    <glyph glyph-name="u1F134" unicode="E&#x20de;" horiz-adv-x="3912" 
d="M1330 0v2048h1236v-220h-988v-692h924v-220h-924v-696h1004v-220h-1252zM444 -832q-168 0 -256 88t-88 256v3024q0 168 88 256t256 88h3024q168 0 256 -88t88 -256v-3024q0 -168 -88 -256t-256 -88h-3024zM410 -600h3092q35 0 56.5 22t21.5 56v3092q0 35 -21.5 56.5
t-56.5 21.5h-3092q-34 0 -56 -21.5t-22 -56.5v-3092q0 -34 22 -56t56 -22z" />
    <glyph glyph-name="u1F135" unicode="F&#x20de;" horiz-adv-x="3912" 
d="M1362 0v2048h1228v-220h-980v-692h888v-220h-888v-916h-248zM444 -832q-168 0 -256 88t-88 256v3024q0 168 88 256t256 88h3024q168 0 256 -88t88 -256v-3024q0 -168 -88 -256t-256 -88h-3024zM410 -600h3092q35 0 56.5 22t21.5 56v3092q0 35 -21.5 56.5t-56.5 21.5
h-3092q-34 0 -56 -21.5t-22 -56.5v-3092q0 -34 22 -56t56 -22z" />
    <glyph glyph-name="u1F136" unicode="G&#x20de;" horiz-adv-x="3912" 
d="M2562 1408q-33 101 -86.5 181.5t-127 137.5t-166.5 87t-204 30q-182 0 -331 -94t-237 -277t-88 -449t89 -449t241 -277t342 -94q176 0 310.5 75.5t210 214t75.5 326.5l76 -16h-616v220h780v-220q0 -253 -107.5 -440t-296 -289.5t-432.5 -102.5q-272 0 -477.5 128
t-320 364t-114.5 560q0 243 65.5 437.5t185.5 331.5t284 210t361 73q162 0 302.5 -48.5t251 -137t184.5 -211t102 -271.5h-256zM444 -832q-168 0 -256 88t-88 256v3024q0 168 88 256t256 88h3024q168 0 256 -88t88 -256v-3024q0 -168 -88 -256t-256 -88h-3024zM410 -600
h3092q35 0 56.5 22t21.5 56v3092q0 35 -21.5 56.5t-56.5 21.5h-3092q-34 0 -56 -21.5t-22 -56.5v-3092q0 -34 22 -56t56 -22z" />
    <glyph glyph-name="u1F137" unicode="H&#x20de;" horiz-adv-x="3912" 
d="M1162 0v2048h248v-912h1092v912h248v-2048h-248v916h-1092v-916h-248zM444 -832q-168 0 -256 88t-88 256v3024q0 168 88 256t256 88h3024q168 0 256 -88t88 -256v-3024q0 -168 -88 -256t-256 -88h-3024zM410 -600h3092q35 0 56.5 22t21.5 56v3092q0 35 -21.5 56.5
t-56.5 21.5h-3092q-34 0 -56 -21.5t-22 -56.5v-3092q0 -34 22 -56t56 -22z" />
    <glyph glyph-name="u1F138" unicode="I&#x20de;" horiz-adv-x="3912" 
d="M2080 2048v-2048h-248v2048h248zM444 -832q-168 0 -256 88t-88 256v3024q0 168 88 256t256 88h3024q168 0 256 -88t88 -256v-3024q0 -168 -88 -256t-256 -88h-3024zM410 -600h3092q35 0 56.5 22t21.5 56v3092q0 35 -21.5 56.5t-56.5 21.5h-3092q-34 0 -56 -21.5
t-22 -56.5v-3092q0 -34 22 -56t56 -22z" />
    <glyph glyph-name="u1F139" unicode="J&#x20de;" horiz-adv-x="3912" 
d="M2250 2048h248v-1464q0 -196 -72 -333t-203 -208t-309 -71q-168 0 -299 61.5t-206 175.5t-75 271h244q0 -87 43.5 -151.5t119.5 -100.5t173 -36q107 0 182 45t114.5 132.5t39.5 214.5v1464zM444 -832q-168 0 -256 88t-88 256v3024q0 168 88 256t256 88h3024
q168 0 256 -88t88 -256v-3024q0 -168 -88 -256t-256 -88h-3024zM410 -600h3092q35 0 56.5 22t21.5 56v3092q0 35 -21.5 56.5t-56.5 21.5h-3092q-34 0 -56 -21.5t-22 -56.5v-3092q0 -34 22 -56t56 -22z" />
    <glyph glyph-name="u1F13A" unicode="K&#x20de;" horiz-adv-x="3912" 
d="M1238 0v2048h248v-1016h24l920 1016h324l-860 -924l860 -1124h-300l-712 952l-256 -288v-664h-248zM444 -832q-168 0 -256 88t-88 256v3024q0 168 88 256t256 88h3024q168 0 256 -88t88 -256v-3024q0 -168 -88 -256t-256 -88h-3024zM410 -600h3092q35 0 56.5 22t21.5 56
v3092q0 35 -21.5 56.5t-56.5 21.5h-3092q-34 0 -56 -21.5t-22 -56.5v-3092q0 -34 22 -56t56 -22z" />
    <glyph glyph-name="u1F13B" unicode="L&#x20de;" horiz-adv-x="3912" 
d="M1396 0v2048h248v-1828h952v-220h-1200zM444 -832q-168 0 -256 88t-88 256v3024q0 168 88 256t256 88h3024q168 0 256 -88t88 -256v-3024q0 -168 -88 -256t-256 -88h-3024zM410 -600h3092q35 0 56.5 22t21.5 56v3092q0 35 -21.5 56.5t-56.5 21.5h-3092q-34 0 -56 -21.5
t-22 -56.5v-3092q0 -34 22 -56t56 -22z" />
    <glyph glyph-name="u1F13C" unicode="M&#x20de;" horiz-adv-x="3912" 
d="M952 2048h296l696 -1700h24l696 1700h296v-2048h-232v1556h-20l-640 -1556h-224l-640 1556h-20v-1556h-232v2048zM444 -832q-168 0 -256 88t-88 256v3024q0 168 88 256t256 88h3024q168 0 256 -88t88 -256v-3024q0 -168 -88 -256t-256 -88h-3024zM410 -600h3092
q35 0 56.5 22t21.5 56v3092q0 35 -21.5 56.5t-56.5 21.5h-3092q-34 0 -56 -21.5t-22 -56.5v-3092q0 -34 22 -56t56 -22z" />
    <glyph glyph-name="u1F13D" unicode="N&#x20de;" horiz-adv-x="3912" 
d="M2768 2048v-2048h-240l-1116 1608h-20v-1608h-248v2048h240l1120 -1612h20v1612h244zM444 -832q-168 0 -256 88t-88 256v3024q0 168 88 256t256 88h3024q168 0 256 -88t88 -256v-3024q0 -168 -88 -256t-256 -88h-3024zM410 -600h3092q35 0 56.5 22t21.5 56v3092
q0 35 -21.5 56.5t-56.5 21.5h-3092q-34 0 -56 -21.5t-22 -56.5v-3092q0 -34 22 -56t56 -22z" />
    <glyph glyph-name="u1F13E" unicode="O&#x20de;" horiz-adv-x="3912" 
d="M2860 1024q0 -324 -117 -560t-321 -364t-466 -128t-466 128t-321 364t-117 560t117 560t321 364t466 128t466 -128t321 -364t117 -560zM2620 1024q0 266 -88.5 449t-239 277t-336.5 94t-336.5 -94t-239 -277t-88.5 -449t88.5 -449t239 -277t336.5 -94t336.5 94t239 277
t88.5 449zM444 -832q-168 0 -256 88t-88 256v3024q0 168 88 256t256 88h3024q168 0 256 -88t88 -256v-3024q0 -168 -88 -256t-256 -88h-3024zM410 -600h3092q35 0 56.5 22t21.5 56v3092q0 35 -21.5 56.5t-56.5 21.5h-3092q-34 0 -56 -21.5t-22 -56.5v-3092q0 -34 22 -56
t56 -22z" />
    <glyph glyph-name="u1F13F" unicode="P&#x20de;" horiz-adv-x="3912" 
d="M1300 0v2048h692q241 0 394.5 -86.5t227.5 -233.5t74 -328t-73.5 -329t-226.5 -235.5t-392 -87.5h-496v220h488q165 0 265 57t145.5 154.5t45.5 220.5t-45.5 220t-146.5 152.5t-268 55.5h-436v-1828h-248zM444 -832q-168 0 -256 88t-88 256v3024q0 168 88 256t256 88
h3024q168 0 256 -88t88 -256v-3024q0 -168 -88 -256t-256 -88h-3024zM410 -600h3092q35 0 56.5 22t21.5 56v3092q0 35 -21.5 56.5t-56.5 21.5h-3092q-34 0 -56 -21.5t-22 -56.5v-3092q0 -34 22 -56t56 -22z" />
    <glyph glyph-name="u1F140" unicode="Q&#x20de;" horiz-adv-x="3912" 
d="M1876 640h272l228 -300l60 -80l340 -452h-272l-224 300l-56 76zM2860 1024q0 -324 -117 -560t-321 -364t-466 -128t-466 128t-321 364t-117 560t117 560t321 364t466 128t466 -128t321 -364t117 -560zM2620 1024q0 266 -88.5 449t-239 277t-336.5 94t-336.5 -94
t-239 -277t-88.5 -449t88.5 -449t239 -277t336.5 -94t336.5 94t239 277t88.5 449zM444 -832q-168 0 -256 88t-88 256v3024q0 168 88 256t256 88h3024q168 0 256 -88t88 -256v-3024q0 -168 -88 -256t-256 -88h-3024zM410 -600h3092q35 0 56.5 22t21.5 56v3092
q0 35 -21.5 56.5t-56.5 21.5h-3092q-34 0 -56 -21.5t-22 -56.5v-3092q0 -34 22 -56t56 -22z" />
    <glyph glyph-name="u1F141" unicode="R&#x20de;" horiz-adv-x="3912" 
d="M1300 0v2048h692q240 0 394 -81.5t228 -223.5t74 -323t-74 -321t-227 -219.5t-391 -79.5h-560v224h552q164 0 264.5 48t146 136.5t45.5 211.5t-46 215t-147 142.5t-267 50.5h-436v-1828h-248zM2264 920l504 -920h-288l-496 920h280zM444 -832q-168 0 -256 88t-88 256
v3024q0 168 88 256t256 88h3024q168 0 256 -88t88 -256v-3024q0 -168 -88 -256t-256 -88h-3024zM410 -600h3092q35 0 56.5 22t21.5 56v3092q0 35 -21.5 56.5t-56.5 21.5h-3092q-34 0 -56 -21.5t-22 -56.5v-3092q0 -34 22 -56t56 -22z" />
    <glyph glyph-name="u1F142" unicode="S&#x20de;" horiz-adv-x="3912" 
d="M2426 1536q-18 152 -146 236t-314 84q-136 0 -237.5 -44t-158 -121t-56.5 -175q0 -82 39.5 -140.5t101.5 -97t130 -63t125 -39.5l208 -56q80 -21 178.5 -58t189 -100.5t149.5 -162.5t59 -243q0 -166 -86.5 -300t-252 -213t-401.5 -79q-220 0 -380.5 71t-252 198
t-103.5 295h256q10 -116 78.5 -191.5t174 -112t227.5 -36.5q142 0 255 46.5t179 130t66 195.5q0 102 -57 166t-150 104t-201 70l-252 72q-240 69 -380 197t-140 335q0 172 93.5 300.5t252 200t354.5 71.5q198 0 352 -70.5t244.5 -192.5t95.5 -277h-240zM444 -832
q-168 0 -256 88t-88 256v3024q0 168 88 256t256 88h3024q168 0 256 -88t88 -256v-3024q0 -168 -88 -256t-256 -88h-3024zM410 -600h3092q35 0 56.5 22t21.5 56v3092q0 35 -21.5 56.5t-56.5 21.5h-3092q-34 0 -56 -21.5t-22 -56.5v-3092q0 -34 22 -56t56 -22z" />
    <glyph glyph-name="u1F143" unicode="T&#x20de;" horiz-adv-x="3912" 
d="M1188 1828v220h1536v-220h-644v-1828h-248v1828h-644zM444 -832q-168 0 -256 88t-88 256v3024q0 168 88 256t256 88h3024q168 0 256 -88t88 -256v-3024q0 -168 -88 -256t-256 -88h-3024zM410 -600h3092q35 0 56.5 22t21.5 56v3092q0 35 -21.5 56.5t-56.5 21.5h-3092
q-34 0 -56 -21.5t-22 -56.5v-3092q0 -34 22 -56t56 -22z" />
    <glyph glyph-name="u1F144" unicode="U&#x20de;" horiz-adv-x="3912" 
d="M2504 2048h248v-1356q0 -210 -98.5 -374.5t-277.5 -259t-420 -94.5t-420 94.5t-277.5 259t-98.5 374.5v1356h248v-1336q0 -150 66 -266.5t188.5 -183t293.5 -66.5t294 66.5t188.5 183t65.5 266.5v1336zM444 -832q-168 0 -256 88t-88 256v3024q0 168 88 256t256 88h3024
q168 0 256 -88t88 -256v-3024q0 -168 -88 -256t-256 -88h-3024zM410 -600h3092q35 0 56.5 22t21.5 56v3092q0 35 -21.5 56.5t-56.5 21.5h-3092q-34 0 -56 -21.5t-22 -56.5v-3092q0 -34 22 -56t56 -22z" />
    <glyph glyph-name="u1F145" unicode="V&#x20de;" horiz-adv-x="3912" 
d="M1336 2048l608 -1724h24l608 1724h260l-752 -2048h-256l-752 2048h260zM444 -832q-168 0 -256 88t-88 256v3024q0 168 88 256t256 88h3024q168 0 256 -88t88 -256v-3024q0 -168 -88 -256t-256 -88h-3024zM410 -600h3092q35 0 56.5 22t21.5 56v3092q0 35 -21.5 56.5
t-56.5 21.5h-3092q-34 0 -56 -21.5t-22 -56.5v-3092q0 -34 22 -56t56 -22z" />
    <glyph glyph-name="u1F146" unicode="W&#x20de;" horiz-adv-x="3912" 
d="M1240 0l-560 2048h252l428 -1668h20l436 1668h280l436 -1668h20l428 1668h252l-560 -2048h-256l-452 1632h-16l-452 -1632h-256zM444 -832q-168 0 -256 88t-88 256v3024q0 168 88 256t256 88h3024q168 0 256 -88t88 -256v-3024q0 -168 -88 -256t-256 -88h-3024zM410 -600
h3092q35 0 56.5 22t21.5 56v3092q0 35 -21.5 56.5t-56.5 21.5h-3092q-34 0 -56 -21.5t-22 -56.5v-3092q0 -34 22 -56t56 -22z" />
    <glyph glyph-name="u1F147" unicode="X&#x20de;" horiz-adv-x="3912" 
d="M1420 2048l528 -852h16l528 852h292l-644 -1024l644 -1024h-292l-528 836h-16l-528 -836h-292l660 1024l-660 1024h292zM444 -832q-168 0 -256 88t-88 256v3024q0 168 88 256t256 88h3024q168 0 256 -88t88 -256v-3024q0 -168 -88 -256t-256 -88h-3024zM410 -600h3092
q35 0 56.5 22t21.5 56v3092q0 35 -21.5 56.5t-56.5 21.5h-3092q-34 0 -56 -21.5t-22 -56.5v-3092q0 -34 22 -56t56 -22z" />
    <glyph glyph-name="u1F148" unicode="Y&#x20de;" horiz-adv-x="3912" 
d="M1092 2048h284l568 -956h24l568 956h284l-740 -1204v-844h-248v844zM444 -832q-168 0 -256 88t-88 256v3024q0 168 88 256t256 88h3024q168 0 256 -88t88 -256v-3024q0 -168 -88 -256t-256 -88h-3024zM410 -600h3092q35 0 56.5 22t21.5 56v3092q0 35 -21.5 56.5
t-56.5 21.5h-3092q-34 0 -56 -21.5t-22 -56.5v-3092q0 -34 22 -56t56 -22z" />
    <glyph glyph-name="u1F149" unicode="Z&#x20de;" horiz-adv-x="3912" 
d="M1256 0v180l1104 1648h-1116v220h1412v-180l-1104 -1648h1116v-220h-1412zM444 -832q-168 0 -256 88t-88 256v3024q0 168 88 256t256 88h3024q168 0 256 -88t88 -256v-3024q0 -168 -88 -256t-256 -88h-3024zM410 -600h3092q35 0 56.5 22t21.5 56v3092q0 35 -21.5 56.5
t-56.5 21.5h-3092q-34 0 -56 -21.5t-22 -56.5v-3092q0 -34 22 -56t56 -22z" />
    <glyph glyph-name="uniE13E" unicode="&#x30;&#x20de;" horiz-adv-x="3912" 
d="M1956 -28q-226 0 -385 123.5t-243 359t-84 569.5q0 332 84.5 567.5t244 360t383.5 124.5t383.5 -124.5t244 -360t84.5 -567.5q0 -334 -84 -569.5t-243 -359t-385 -123.5zM1956 192q224 0 348 216t124 616q0 266 -56.5 453t-162 285t-253.5 98q-222 0 -347 -218.5
t-125 -617.5q0 -266 56 -452t161.5 -283t254.5 -97zM444 -832q-168 0 -256 88t-88 256v3024q0 168 88 256t256 88h3024q168 0 256 -88t88 -256v-3024q0 -168 -88 -256t-256 -88h-3024zM410 -600h3092q35 0 56.5 22t21.5 56v3092q0 35 -21.5 56.5t-56.5 21.5h-3092
q-34 0 -56 -21.5t-22 -56.5v-3092q0 -34 22 -56t56 -22z" />
    <glyph glyph-name="uniE13F" unicode="&#x31;&#x20de;" horiz-adv-x="3912" 
d="M2130 2048v-2048h-248v1788h-12l-500 -332v252l512 340h248zM444 -832q-168 0 -256 88t-88 256v3024q0 168 88 256t256 88h3024q168 0 256 -88t88 -256v-3024q0 -168 -88 -256t-256 -88h-3024zM410 -600h3092q35 0 56.5 22t21.5 56v3092q0 35 -21.5 56.5t-56.5 21.5
h-3092q-34 0 -56 -21.5t-22 -56.5v-3092q0 -34 22 -56t56 -22z" />
    <glyph glyph-name="uniE140" unicode="&#x32;&#x20de;" horiz-adv-x="3912" 
d="M1310 0v180l676 740q119 130 196 226.5t114.5 182t37.5 179.5q0 108 -51.5 187t-140.5 122t-200 43q-118 0 -205.5 -48.5t-135 -135.5t-47.5 -204h-236q0 180 83 316t226.5 212t322.5 76q180 0 319 -76t218 -205t79 -287q0 -113 -40.5 -220.5t-140 -239t-275.5 -320.5
l-460 -492v-16h952v-220h-1292zM444 -832q-168 0 -256 88t-88 256v3024q0 168 88 256t256 88h3024q168 0 256 -88t88 -256v-3024q0 -168 -88 -256t-256 -88h-3024zM410 -600h3092q35 0 56.5 22t21.5 56v3092q0 35 -21.5 56.5t-56.5 21.5h-3092q-34 0 -56 -21.5t-22 -56.5
v-3092q0 -34 22 -56t56 -22z" />
    <glyph glyph-name="uniE141" unicode="&#x33;&#x20de;" horiz-adv-x="3912" 
d="M1958 -28q-198 0 -352.5 68t-245 189.5t-98.5 282.5h252q8 -99 68 -170.5t157 -110.5t215 -39q132 0 234 46t160 128t58 190q0 113 -56 199.5t-164 135.5t-264 49h-164v220h164q122 0 214.5 44t145 124t52.5 188q0 104 -46 181t-129.5 120t-196.5 43q-106 0 -199.5 -38.5
t-152.5 -111t-64 -174.5h-240q6 161 97 282.5t238.5 189.5t324.5 68q190 0 326 -76.5t209 -201.5t73 -270q0 -173 -90.5 -295t-245.5 -169v-16q194 -32 303 -164.5t109 -327.5q0 -167 -90.5 -299.5t-246.5 -208.5t-355 -76zM444 -832q-168 0 -256 88t-88 256v3024
q0 168 88 256t256 88h3024q168 0 256 -88t88 -256v-3024q0 -168 -88 -256t-256 -88h-3024zM410 -600h3092q35 0 56.5 22t21.5 56v3092q0 35 -21.5 56.5t-56.5 21.5h-3092q-34 0 -56 -21.5t-22 -56.5v-3092q0 -34 22 -56t56 -22z" />
    <glyph glyph-name="uniE142" unicode="&#x34;&#x20de;" horiz-adv-x="3912" 
d="M1136 420v204l900 1424h148v-316h-100l-680 -1076v-16h1212v-220h-1480zM2100 0v482v95v1471h236v-2048h-236zM444 -832q-168 0 -256 88t-88 256v3024q0 168 88 256t256 88h3024q168 0 256 -88t88 -256v-3024q0 -168 -88 -256t-256 -88h-3024zM410 -600h3092
q35 0 56.5 22t21.5 56v3092q0 35 -21.5 56.5t-56.5 21.5h-3092q-34 0 -56 -21.5t-22 -56.5v-3092q0 -34 22 -56t56 -22z" />
    <glyph glyph-name="uniE143" unicode="&#x35;&#x20de;" horiz-adv-x="3912" 
d="M1936 -28q-176 0 -317 70t-226 192t-93 278h240q14 -139 126.5 -229.5t269.5 -90.5q126 0 224.5 59t155 162.5t56.5 234.5q0 134 -58.5 239.5t-160.5 166.5t-233 62q-94 1 -193 -28.5t-163 -75.5l-232 28l124 1008h1064v-220h-856l-72 -604h12q63 50 158 83t198 33
q188 0 335.5 -89.5t232 -244.5t84.5 -354q0 -196 -87.5 -349.5t-240.5 -242t-348 -88.5zM444 -832q-168 0 -256 88t-88 256v3024q0 168 88 256t256 88h3024q168 0 256 -88t88 -256v-3024q0 -168 -88 -256t-256 -88h-3024zM410 -600h3092q35 0 56.5 22t21.5 56v3092
q0 35 -21.5 56.5t-56.5 21.5h-3092q-34 0 -56 -21.5t-22 -56.5v-3092q0 -34 22 -56t56 -22z" />
    <glyph glyph-name="uniE144" unicode="&#x36;&#x20de;" horiz-adv-x="3912" 
d="M1950 -28q-126 2 -252 48t-230 155.5t-167 297t-63 471.5q0 273 51 484.5t148 356.5t234.5 220t310.5 75q172 0 306.5 -69t219.5 -191.5t110 -283.5h-244q-34 141 -132 232.5t-260 91.5q-238 0 -374.5 -207.5t-137.5 -584.5h16q56 85 133.5 145.5t171.5 93.5t199 33
q176 0 322 -87.5t234 -241t88 -351.5q0 -190 -85 -347.5t-238.5 -250t-360.5 -90.5zM1950 192q126 0 226.5 63t159 169t58.5 236q0 127 -56.5 231.5t-155 166.5t-224.5 62q-95 0 -177 -37.5t-143.5 -102.5t-96.5 -148.5t-35 -175.5q0 -122 57.5 -228t158 -171t228.5 -65z
M444 -832q-168 0 -256 88t-88 256v3024q0 168 88 256t256 88h3024q168 0 256 -88t88 -256v-3024q0 -168 -88 -256t-256 -88h-3024zM410 -600h3092q35 0 56.5 22t21.5 56v3092q0 35 -21.5 56.5t-56.5 21.5h-3092q-34 0 -56 -21.5t-22 -56.5v-3092q0 -34 22 -56t56 -22z" />
    <glyph glyph-name="uniE145" unicode="&#x37;&#x20de;" horiz-adv-x="3912" 
d="M1480 0l916 1812v16h-1056v220h1312v-232l-912 -1816h-260zM444 -832q-168 0 -256 88t-88 256v3024q0 168 88 256t256 88h3024q168 0 256 -88t88 -256v-3024q0 -168 -88 -256t-256 -88h-3024zM410 -600h3092q35 0 56.5 22t21.5 56v3092q0 35 -21.5 56.5t-56.5 21.5h-3092
q-34 0 -56 -21.5t-22 -56.5v-3092q0 -34 22 -56t56 -22z" />
    <glyph glyph-name="uniE146" unicode="&#x38;&#x20de;" horiz-adv-x="3912" 
d="M1956 -28q-206 0 -363.5 73.5t-245.5 203t-87 295.5q-1 130 51 240.5t142.5 185t202.5 94.5v12q-147 38 -234 165.5t-86 290.5q-1 156 79 279t220.5 194t320.5 71q178 0 318 -71t220.5 -194t81.5 -279q-1 -163 -88.5 -290.5t-231.5 -165.5v-12q111 -20 200 -94.5
t142 -185t54 -240.5q-1 -166 -89.5 -295.5t-245 -203t-361.5 -73.5zM1956 192q139 0 240 45t156 127t56 192q-1 116 -60 205t-160.5 140t-231.5 51q-131 0 -233.5 -51t-161 -140t-57.5 -205q-1 -110 53.5 -192t156.5 -127t242 -45zM1956 1164q110 0 195.5 44t134.5 123
t50 185q-1 104 -49 181.5t-133 120t-198 42.5q-115 0 -201 -42.5t-133 -120t-46 -181.5q-1 -106 47.5 -185t134.5 -123t198 -44zM444 -832q-168 0 -256 88t-88 256v3024q0 168 88 256t256 88h3024q168 0 256 -88t88 -256v-3024q0 -168 -88 -256t-256 -88h-3024zM410 -600
h3092q35 0 56.5 22t21.5 56v3092q0 35 -21.5 56.5t-56.5 21.5h-3092q-34 0 -56 -21.5t-22 -56.5v-3092q0 -34 22 -56t56 -22z" />
    <glyph glyph-name="uniE147" unicode="&#x39;&#x20de;" horiz-adv-x="3912" 
d="M1942 2080q126 -1 252 -48t230 -156t167 -296.5t63 -471.5q0 -273 -51.5 -484.5t-148 -356.5t-234 -220t-310.5 -75q-172 0 -306.5 68.5t-220 191t-109.5 284.5h244q33 -141 131.5 -232.5t260.5 -91.5q237 0 374.5 207t137.5 585h-16q-56 -84 -133 -145t-171 -94
t-200 -33q-176 0 -322.5 87.5t-234 241t-87.5 351.5q0 190 84.5 347t238 250t361.5 91zM1942 1860q-126 0 -226.5 -63t-159 -169t-58.5 -236q0 -128 56.5 -232.5t155 -166t224.5 -61.5q95 0 177 37.5t143.5 103t96.5 149t35 174.5q0 122 -57.5 228t-158 171t-228.5 65z
M444 -832q-168 0 -256 88t-88 256v3024q0 168 88 256t256 88h3024q168 0 256 -88t88 -256v-3024q0 -168 -88 -256t-256 -88h-3024zM410 -600h3092q35 0 56.5 22t21.5 56v3092q0 35 -21.5 56.5t-56.5 21.5h-3092q-34 0 -56 -21.5t-22 -56.5v-3092q0 -34 22 -56t56 -22z" />
    <glyph glyph-name="uniE148" unicode="&#xe06b;&#x20de;" horiz-adv-x="3912" 
d="M2264 1836l128 -104l-752 -1524l-120 116zM1956 -28q-226 0 -385 123.5t-243 359t-84 569.5q0 332 84.5 567.5t244 360t383.5 124.5t383.5 -124.5t244 -360t84.5 -567.5q0 -334 -84 -569.5t-243 -359t-385 -123.5zM1956 192q224 0 348 216t124 616q0 266 -56.5 453
t-162 285t-253.5 98q-222 0 -347 -218.5t-125 -617.5q0 -266 56 -452t161.5 -283t254.5 -97zM444 -832q-168 0 -256 88t-88 256v3024q0 168 88 256t256 88h3024q168 0 256 -88t88 -256v-3024q0 -168 -88 -256t-256 -88h-3024zM410 -600h3092q35 0 56.5 22t21.5 56v3092
q0 35 -21.5 56.5t-56.5 21.5h-3092q-34 0 -56 -21.5t-22 -56.5v-3092q0 -34 22 -56t56 -22z" />
    <glyph glyph-name="uniE149" unicode="&#xe06c;&#x20de;" horiz-adv-x="3912" 
d="M2164 2048v-2048h-248v1688h-16q-14 -28 -72 -63.5t-150 -62t-210 -26.5v208q119 0 206 43t145.5 101t89 105t35.5 55h220zM444 -832q-168 0 -256 88t-88 256v3024q0 168 88 256t256 88h3024q168 0 256 -88t88 -256v-3024q0 -168 -88 -256t-256 -88h-3024zM410 -600h3092
q35 0 56.5 22t21.5 56v3092q0 35 -21.5 56.5t-56.5 21.5h-3092q-34 0 -56 -21.5t-22 -56.5v-3092q0 -34 22 -56t56 -22z" />
    <glyph glyph-name="uniE14A" unicode="&#xe06d;&#x20de;" horiz-adv-x="3912" 
d="M1260 512h252q11 -104 71.5 -175.5t157.5 -108t215 -36.5q128 0 230 43t162 128.5t60 212.5q0 111 -52 206.5t-167 154.5t-305 59h-164v200l512 616v16h-872v220h1212v-180l-548 -664v-16q132 -6 246.5 -54t200 -130t133.5 -191t48 -237q0 -175 -89.5 -311.5t-247 -214.5
t-363.5 -78q-182 0 -335 64t-249 185t-108 291zM444 -832q-168 0 -256 88t-88 256v3024q0 168 88 256t256 88h3024q168 0 256 -88t88 -256v-3024q0 -168 -88 -256t-256 -88h-3024zM410 -600h3092q35 0 56.5 22t21.5 56v3092q0 35 -21.5 56.5t-56.5 21.5h-3092
q-34 0 -56 -21.5t-22 -56.5v-3092q0 -34 22 -56t56 -22z" />
    <glyph glyph-name="uniE14B" unicode="&#xe06e;&#x20de;" horiz-adv-x="3912" 
d="M1156 420v204l820 1424h244l-800 -1392v-16h1216v-220h-1480zM2120 0v480v97v703h236v-1280h-236zM444 -832q-168 0 -256 88t-88 256v3024q0 168 88 256t256 88h3024q168 0 256 -88t88 -256v-3024q0 -168 -88 -256t-256 -88h-3024zM410 -600h3092q35 0 56.5 22t21.5 56
v3092q0 35 -21.5 56.5t-56.5 21.5h-3092q-34 0 -56 -21.5t-22 -56.5v-3092q0 -34 22 -56t56 -22z" />
    <glyph glyph-name="uniE14C" unicode="&#xe06f;&#x20de;" horiz-adv-x="3912" 
d="M1312 648q2 96 29 199t91 229t176 292l460 680h272l-540 -788q36 12 74.5 20t77.5 8q186 0 332.5 -86t231 -235t84.5 -339t-83.5 -338t-229 -233t-331.5 -85q-188 0 -334 87.5t-229 240t-81 348.5zM1548 632q0 -130 52 -230t144 -157t212 -57t212 56.5t144 156t52 227.5
q0 130 -52 229t-144 155t-212 56t-212 -55.5t-144 -154t-52 -226.5zM444 -832q-168 0 -256 88t-88 256v3024q0 168 88 256t256 88h3024q168 0 256 -88t88 -256v-3024q0 -168 -88 -256t-256 -88h-3024zM410 -600h3092q35 0 56.5 22t21.5 56v3092q0 35 -21.5 56.5t-56.5 21.5
h-3092q-34 0 -56 -21.5t-22 -56.5v-3092q0 -34 22 -56t56 -22z" />
    <glyph glyph-name="uniE14D" unicode="&#xe070;&#x20de;" horiz-adv-x="3912" 
d="M1312 1420q0 190 83.5 338t229 233t331.5 85q188 0 334 -87.5t229 -240t81 -348.5q-2 -96 -29 -199t-91 -229t-176 -292l-460 -680h-272l540 788q-36 -12 -74.5 -20t-77.5 -8q-186 0 -332.5 86t-231 235t-84.5 339zM1548 1420q0 -130 52 -229t144 -155t212 -56t212 55.5
t144 154t52 226.5q0 130 -52 230t-144 157t-212 57t-212 -56.5t-144 -156t-52 -227.5zM444 -832q-168 0 -256 88t-88 256v3024q0 168 88 256t256 88h3024q168 0 256 -88t88 -256v-3024q0 -168 -88 -256t-256 -88h-3024zM410 -600h3092q35 0 56.5 22t21.5 56v3092
q0 35 -21.5 56.5t-56.5 21.5h-3092q-34 0 -56 -21.5t-22 -56.5v-3092q0 -34 22 -56t56 -22z" />
    <glyph glyph-name="uniE14E" unicode="&#x21;&#x20de;" horiz-adv-x="3912" 
d="M2092 2048l-20 -1472h-232l-20 1472h272zM1956 -16q-74 0 -127 53t-53 127t53 127t127 53t127 -53t53 -127q0 -49 -24.5 -90t-65 -65.5t-90.5 -24.5zM444 -832q-168 0 -256 88t-88 256v3024q0 168 88 256t256 88h3024q168 0 256 -88t88 -256v-3024q0 -168 -88 -256
t-256 -88h-3024zM410 -600h3092q35 0 56.5 22t21.5 56v3092q0 35 -21.5 56.5t-56.5 21.5h-3092q-34 0 -56 -21.5t-22 -56.5v-3092q0 -34 22 -56t56 -22z" />
    <glyph glyph-name="uniE14F" unicode="&#x3f;&#x20de;" horiz-adv-x="3912" 
d="M1818 576v12q2 191 40 304t108 183t168 129q59 36 106 85.5t74.5 114.5t27.5 144q0 98 -46 170t-123 111t-171 39q-82 0 -158 -34t-127 -107t-59 -191h-252q8 170 88.5 291t213 185t294.5 64q176 0 306.5 -70t202 -192t71.5 -278q0 -110 -33.5 -199t-96 -159t-150.5 -124
q-88 -55 -141 -115.5t-77 -143.5t-26 -207v-12h-240zM1946 -16q-74 0 -127 53t-53 127t53 127t127 53t127 -53t53 -127q0 -49 -24.5 -90t-65 -65.5t-90.5 -24.5zM444 -832q-168 0 -256 88t-88 256v3024q0 168 88 256t256 88h3024q168 0 256 -88t88 -256v-3024
q0 -168 -88 -256t-256 -88h-3024zM410 -600h3092q35 0 56.5 22t21.5 56v3092q0 35 -21.5 56.5t-56.5 21.5h-3092q-34 0 -56 -21.5t-22 -56.5v-3092q0 -34 22 -56t56 -22z" />
    <glyph glyph-name="uniE150" unicode="&#x23;&#x20de;" horiz-adv-x="3912" 
d="M2048 0l336 2048h200l-336 -2048h-200zM1116 568l32 200h1528l-32 -200h-1528zM1328 0l336 2048h200l-336 -2048h-200zM1236 1280l32 200h1528l-32 -200h-1528zM444 -832q-168 0 -256 88t-88 256v3024q0 168 88 256t256 88h3024q168 0 256 -88t88 -256v-3024
q0 -168 -88 -256t-256 -88h-3024zM410 -600h3092q35 0 56.5 22t21.5 56v3092q0 35 -21.5 56.5t-56.5 21.5h-3092q-34 0 -56 -21.5t-22 -56.5v-3092q0 -34 22 -56t56 -22z" />
    <glyph glyph-name="uniE151" unicode="&#x2d;&#x20de;" horiz-adv-x="3912" 
d="M2404 1134v-220h-896v220h896zM444 -832q-168 0 -256 88t-88 256v3024q0 168 88 256t256 88h3024q168 0 256 -88t88 -256v-3024q0 -168 -88 -256t-256 -88h-3024zM410 -600h3092q35 0 56.5 22t21.5 56v3092q0 35 -21.5 56.5t-56.5 21.5h-3092q-34 0 -56 -21.5t-22 -56.5
v-3092q0 -34 22 -56t56 -22z" />
    <glyph glyph-name="uniE152" unicode="&#x3c;&#x20de;" horiz-adv-x="3912" 
d="M1272 912v160l1288 656v-256l-988 -476l8 16v-40l-8 16l988 -476v-256zM444 -832q-168 0 -256 88t-88 256v3024q0 168 88 256t256 88h3024q168 0 256 -88t88 -256v-3024q0 -168 -88 -256t-256 -88h-3024zM410 -600h3092q35 0 56.5 22t21.5 56v3092q0 35 -21.5 56.5
t-56.5 21.5h-3092q-34 0 -56 -21.5t-22 -56.5v-3092q0 -34 22 -56t56 -22z" />
    <glyph glyph-name="uniE153" unicode="&#x3e;&#x20de;" horiz-adv-x="3912" 
d="M2640 912l-1288 -656v256l988 476l-8 -16v40l8 -16l-988 476v256l1288 -656v-160zM444 -832q-168 0 -256 88t-88 256v3024q0 168 88 256t256 88h3024q168 0 256 -88t88 -256v-3024q0 -168 -88 -256t-256 -88h-3024zM410 -600h3092q35 0 56.5 22t21.5 56v3092
q0 35 -21.5 56.5t-56.5 21.5h-3092q-34 0 -56 -21.5t-22 -56.5v-3092q0 -34 22 -56t56 -22z" />
    <glyph glyph-name="uniE154" unicode="&#x3d;&#x20de;" horiz-adv-x="3912" 
d="M1340 1212v216h1232v-216h-1232zM1340 620v216h1232v-216h-1232zM444 -832q-168 0 -256 88t-88 256v3024q0 168 88 256t256 88h3024q168 0 256 -88t88 -256v-3024q0 -168 -88 -256t-256 -88h-3024zM410 -600h3092q35 0 56.5 22t21.5 56v3092q0 35 -21.5 56.5t-56.5 21.5
h-3092q-34 0 -56 -21.5t-22 -56.5v-3092q0 -34 22 -56t56 -22z" />
    <glyph glyph-name="uniE155" unicode="&#x2b;&#x20de;" horiz-adv-x="3912" 
d="M1844 360v1320h224v-1320h-224zM1296 908v224h1320v-224h-1320zM444 -832q-168 0 -256 88t-88 256v3024q0 168 88 256t256 88h3024q168 0 256 -88t88 -256v-3024q0 -168 -88 -256t-256 -88h-3024zM410 -600h3092q35 0 56.5 22t21.5 56v3092q0 35 -21.5 56.5t-56.5 21.5
h-3092q-34 0 -56 -21.5t-22 -56.5v-3092q0 -34 22 -56t56 -22z" />
    <glyph glyph-name="uniE156" unicode="&#x2212;&#x20de;" horiz-adv-x="3912" 
d="M2596 1136v-224h-1280v224h1280zM444 -832q-168 0 -256 88t-88 256v3024q0 168 88 256t256 88h3024q168 0 256 -88t88 -256v-3024q0 -168 -88 -256t-256 -88h-3024zM410 -600h3092q35 0 56.5 22t21.5 56v3092q0 35 -21.5 56.5t-56.5 21.5h-3092q-34 0 -56 -21.5
t-22 -56.5v-3092q0 -34 22 -56t56 -22z" />
    <glyph glyph-name="uniE157" unicode="&#xd7;&#x20de;" horiz-adv-x="3912" 
d="M2444 368l-1128 1128l152 152l1128 -1128zM1468 368l-152 152l1128 1128l152 -152zM444 -832q-168 0 -256 88t-88 256v3024q0 168 88 256t256 88h3024q168 0 256 -88t88 -256v-3024q0 -168 -88 -256t-256 -88h-3024zM410 -600h3092q35 0 56.5 22t21.5 56v3092
q0 35 -21.5 56.5t-56.5 21.5h-3092q-34 0 -56 -21.5t-22 -56.5v-3092q0 -34 22 -56t56 -22z" />
    <glyph glyph-name="uniE158" unicode="&#xf7;&#x20de;" horiz-adv-x="3912" 
d="M2596 1136v-224h-1280v224h1280zM1956 328q-75 0 -127.5 52.5t-52.5 127.5q0 72 52.5 124t127.5 52q72 0 124 -52t52 -124q0 -75 -52 -127.5t-124 -52.5zM1956 1364q-50 0 -91 24t-65 65t-24 91q0 72 52.5 124t127.5 52q72 0 124 -52t52 -124q0 -75 -52 -127.5
t-124 -52.5zM444 -832q-168 0 -256 88t-88 256v3024q0 168 88 256t256 88h3024q168 0 256 -88t88 -256v-3024q0 -168 -88 -256t-256 -88h-3024zM410 -600h3092q35 0 56.5 22t21.5 56v3092q0 35 -21.5 56.5t-56.5 21.5h-3092q-34 0 -56 -21.5t-22 -56.5v-3092q0 -34 22 -56
t56 -22z" />
    <glyph glyph-name="uniE159" unicode="&#x2191;&#x20de;" horiz-adv-x="3912" 
d="M1848 0v1644l-632 -634l-156 154l898 896l896 -896l-152 -154l-634 634v-1644h-220zM444 -832q-168 0 -256 88t-88 256v3024q0 168 88 256t256 88h3024q168 0 256 -88t88 -256v-3024q0 -168 -88 -256t-256 -88h-3024zM410 -600h3092q35 0 56.5 22t21.5 56v3092
q0 35 -21.5 56.5t-56.5 21.5h-3092q-34 0 -56 -21.5t-22 -56.5v-3092q0 -34 22 -56t56 -22z" />
    <glyph glyph-name="uniE15A" unicode="&#x2193;&#x20de;" horiz-adv-x="3912" 
d="M2066 2048v-1644l632 634l156 -154l-898 -896l-896 896l152 154l634 -634v1644h220zM444 -832q-168 0 -256 88t-88 256v3024q0 168 88 256t256 88h3024q168 0 256 -88t88 -256v-3024q0 -168 -88 -256t-256 -88h-3024zM410 -600h3092q35 0 56.5 22t21.5 56v3092
q0 35 -21.5 56.5t-56.5 21.5h-3092q-34 0 -56 -21.5t-22 -56.5v-3092q0 -34 22 -56t56 -22z" />
    <glyph glyph-name="uniE15B" unicode="&#x2190;&#x20de;" horiz-adv-x="3912" 
d="M1824 128l-896 896l896 896l154 -152l-634 -634h1642v-220h-1642l634 -632zM444 -832q-168 0 -256 88t-88 256v3024q0 168 88 256t256 88h3024q168 0 256 -88t88 -256v-3024q0 -168 -88 -256t-256 -88h-3024zM410 -600h3092q35 0 56.5 22t21.5 56v3092q0 35 -21.5 56.5
t-56.5 21.5h-3092q-34 0 -56 -21.5t-22 -56.5v-3092q0 -34 22 -56t56 -22z" />
    <glyph glyph-name="uniE15C" unicode="&#x2192;&#x20de;" horiz-adv-x="3912" 
d="M2090 128l-154 152l634 634h-1642v220h1642l-634 632l154 154l896 -896zM444 -832q-168 0 -256 88t-88 256v3024q0 168 88 256t256 88h3024q168 0 256 -88t88 -256v-3024q0 -168 -88 -256t-256 -88h-3024zM410 -600h3092q35 0 56.5 22t21.5 56v3092q0 35 -21.5 56.5
t-56.5 21.5h-3092q-34 0 -56 -21.5t-22 -56.5v-3092q0 -34 22 -56t56 -22z" />
    <glyph glyph-name="uniE15D" unicode="&#x2713;&#x20de;" horiz-adv-x="3912" 
d="M1054 1004l152 156l528 -520l1092 1088l156 -156l-1248 -1244zM444 -832q-168 0 -256 88t-88 256v3024q0 168 88 256t256 88h3024q168 0 256 -88t88 -256v-3024q0 -168 -88 -256t-256 -88h-3024zM410 -600h3092q35 0 56.5 22t21.5 56v3092q0 35 -21.5 56.5t-56.5 21.5
h-3092q-34 0 -56 -21.5t-22 -56.5v-3092q0 -34 22 -56t56 -22z" />
    <glyph glyph-name="uniE15E" unicode="&#x2717;&#x20de;" horiz-adv-x="3912" 
d="M1420 334l-156 156l1228 1224l156 -156zM2492 334l-1228 1224l156 156l1228 -1224zM444 -832q-168 0 -256 88t-88 256v3024q0 168 88 256t256 88h3024q168 0 256 -88t88 -256v-3024q0 -168 -88 -256t-256 -88h-3024zM410 -600h3092q35 0 56.5 22t21.5 56v3092
q0 35 -21.5 56.5t-56.5 21.5h-3092q-34 0 -56 -21.5t-22 -56.5v-3092q0 -34 22 -56t56 -22z" />
    <glyph glyph-name=".notdef" horiz-adv-x="2800" 
d="M248 -640v512h2304v-512h-2304zM248 1472v512h2304v-512h-2304zM248 2176v512h2304v-512h-2304zM248 64v512h2304v-512h-2304zM248 768v512h2304v-512h-2304z" />
    <glyph glyph-name=".null" 
 />
    <glyph glyph-name="uni0041" unicode="A" horiz-adv-x="1904" 
d="M332 0h-260l752 2048h256l752 -2048h-260l-612 1724h-16zM428 800h1048v-220h-1048v220z" />
    <glyph glyph-name="uni00C4" unicode="&#xc4;" horiz-adv-x="1904" 
d="M332 0h-260l752 2048h256l752 -2048h-260l-612 1724h-16zM428 800h1048v-220h-1048v220zM664 2304q-63 0 -111.5 48.5t-48.5 111.5q0 69 48.5 114.5t111.5 45.5q69 0 114.5 -45.5t45.5 -114.5q0 -63 -45.5 -111.5t-114.5 -48.5zM1240 2304q-63 0 -111.5 48.5t-48.5 111.5
q0 69 48.5 114.5t111.5 45.5q69 0 114.5 -45.5t45.5 -114.5q0 -63 -45.5 -111.5t-114.5 -48.5z" />
    <glyph glyph-name="uni00C3" unicode="&#xc3;" horiz-adv-x="1904" 
d="M332 0h-260l752 2048h256l752 -2048h-260l-612 1724h-16zM428 800h1048v-220h-1048v220zM644 2252l-184 8q0 153 87.5 250.5t216.5 97.5q57 0 101 -19.5t84 -44.5t82.5 -44.5t96.5 -19.5q57 0 96.5 44.5t39.5 107.5l180 -16q0 -156 -87.5 -248t-216.5 -92
q-69 0 -114 19.5t-80 44.5t-74 44.5t-96 19.5t-94.5 -44.5t-37.5 -107.5z" />
    <glyph glyph-name="uni00C0" unicode="&#xc0;" horiz-adv-x="1904" 
d="M332 0h-260l752 2048h256l752 -2048h-260l-612 1724h-16zM428 800h1048v-220h-1048v220zM852 2256l-312 464h276l244 -464h-208z" />
    <glyph glyph-name="uni00C1" unicode="&#xc1;" horiz-adv-x="1904" 
d="M332 0h-260l752 2048h256l752 -2048h-260l-612 1724h-16zM428 800h1048v-220h-1048v220zM844 2256l244 464h276l-312 -464h-208z" />
    <glyph glyph-name="uni00C2" unicode="&#xc2;" horiz-adv-x="1904" 
d="M332 0h-260l752 2048h256l752 -2048h-260l-612 1724h-16zM428 800h1048v-220h-1048v220zM744 2232h-224v16l324 416h216l324 -416v-16h-224l-208 280z" />
    <glyph glyph-name="uni00C5" unicode="&#xc5;" horiz-adv-x="1904" 
d="M332 0h-260l752 2048h256l752 -2048h-260l-612 1724h-16zM428 800h1048v-220h-1048v220zM952 2184q-91 0 -166.5 42t-120.5 113t-45 157t45 157t120.5 113t166.5 42q92 0 167 -42t120 -113t45 -157t-45 -157t-120 -113t-167 -42zM952 2336q68 0 116 46.5t48 113.5
t-48 113.5t-116 46.5t-116 -46.5t-48 -113.5t48 -113.5t116 -46.5z" />
    <glyph glyph-name="uni0100" unicode="&#x100;" horiz-adv-x="1904" 
d="M332 0h-260l752 2048h256l752 -2048h-260l-612 1724h-16zM428 800h1048v-220h-1048v220zM1420 2560v-200h-936v200h936z" />
    <glyph glyph-name="uni0102" unicode="&#x102;" horiz-adv-x="1904" 
d="M332 0h-260l752 2048h256l752 -2048h-260l-612 1724h-16zM428 800h1048v-220h-1048v220zM1148 2560h220q0 -162 -112 -265t-304 -103q-189 0 -300.5 103t-111.5 265h220q0 -78 43.5 -137t148.5 -59t150.5 59t45.5 137z" />
    <glyph glyph-name="uni0104" unicode="&#x104;" horiz-adv-x="1904" 
d="M332 0h-260l752 2048h256l752 -2048h-260l-612 1724h-16zM428 800h1048v-220h-1048v220zM1644 -600q-123 0 -203.5 67.5t-80.5 196.5q0 74 36 148t116 143t212 129l108 -84q-90 -66 -161 -140t-71 -164q0 -45 22 -70.5t82 -25.5q45 0 80 12t56 24l16 -176
q-33 -21 -86.5 -40.5t-125.5 -19.5z" />
    <glyph glyph-name="uni01CD" unicode="&#x1cd;" horiz-adv-x="1904" 
d="M332 0h-260l752 2048h256l752 -2048h-260l-612 1724h-16zM428 800h1048v-220h-1048v220zM744 2664l208 -280l208 280h224v-16l-324 -416h-216l-324 416v16h224z" />
    <glyph glyph-name="uni01DE" unicode="&#x1de;" horiz-adv-x="1904" 
d="M332 0h-260l752 2048h256l752 -2048h-260l-612 1724h-16zM428 800h1048v-220h-1048v220zM664 2304q-63 0 -111.5 48.5t-48.5 111.5q0 69 48.5 114.5t111.5 45.5q69 0 114.5 -45.5t45.5 -114.5q0 -63 -45.5 -111.5t-114.5 -48.5zM1240 2304q-63 0 -111.5 48.5t-48.5 111.5
q0 69 48.5 114.5t111.5 45.5q69 0 114.5 -45.5t45.5 -114.5q0 -63 -45.5 -111.5t-114.5 -48.5zM1420 3072v-200h-936v200h936z" />
    <glyph glyph-name="uni01E0" unicode="&#x1e0;" horiz-adv-x="1904" 
d="M332 0h-260l752 2048h256l752 -2048h-260l-612 1724h-16zM428 800h1048v-220h-1048v220zM952 2224q-69 0 -118.5 47t-49.5 113t49.5 113t118.5 47t118.5 -47t49.5 -113t-49.5 -113t-118.5 -47zM1384 2960v-200h-936v200h936z" />
    <glyph glyph-name="uni01FA" unicode="&#x1fa;" horiz-adv-x="1904" 
d="M332 0h-260l752 2048h256l752 -2048h-260l-612 1724h-16zM428 800h1048v-220h-1048v220zM952 2160q-96 0 -166 68t-70 164t70 164t166 68q99 0 167.5 -68t68.5 -164t-68.5 -164t-167.5 -68zM952 2296q42 0 69 28.5t27 67.5q0 36 -27 64t-69 28q-39 0 -67.5 -28t-28.5 -64
q0 -39 28.5 -67.5t67.5 -28.5zM852 2688l200 248h272l-304 -248h-168z" />
    <glyph glyph-name="uni0200" unicode="&#x200;" horiz-adv-x="1904" 
d="M332 0h-260l752 2048h256l752 -2048h-260l-612 1724h-16zM428 800h1048v-220h-1048v220zM642 2256l-330 464h294l244 -464h-208zM1066 2256l-244 464h300l150 -464h-206z" />
    <glyph glyph-name="uni0202" unicode="&#x202;" horiz-adv-x="1904" 
d="M332 0h-260l752 2048h256l752 -2048h-260l-612 1724h-16zM428 800h1048v-220h-1048v220zM536 2304q0 162 112 267t304 105t302 -105t110 -267h-220q0 81 -45 140.5t-147 59.5q-108 0 -152 -61t-44 -139h-220z" />
    <glyph glyph-name="uni0226" unicode="&#x226;" horiz-adv-x="1904" 
d="M332 0h-260l752 2048h256l752 -2048h-260l-612 1724h-16zM428 800h1048v-220h-1048v220zM952 2304q-69 0 -118.5 47t-49.5 113t49.5 113t118.5 47t118.5 -47t49.5 -113t-49.5 -113t-118.5 -47z" />
    <glyph glyph-name="uni1E00" unicode="&#x1e00;" horiz-adv-x="1904" 
d="M332 0h-260l752 2048h256l752 -2048h-260l-612 1724h-16zM428 800h1048v-220h-1048v220zM680 -336q0 102 71 167t173 65q96 0 170 -65t74 -167q0 -105 -74 -168.5t-170 -63.5q-102 0 -173 63.5t-71 168.5zM804 -336q0 -51 34.5 -85.5t85.5 -34.5q45 0 82.5 34.5
t37.5 85.5t-37.5 85.5t-82.5 34.5q-51 0 -85.5 -34.5t-34.5 -85.5z" />
    <glyph glyph-name="uni1EA0" unicode="&#x1ea0;" horiz-adv-x="1904" 
d="M332 0h-260l752 2048h256l752 -2048h-260l-612 1724h-16zM428 800h1048v-220h-1048v220zM952 -508q-69 0 -118.5 47t-49.5 113t49.5 113t118.5 47t118.5 -47t49.5 -113t-49.5 -113t-118.5 -47z" />
    <glyph glyph-name="uni1EA2" unicode="&#x1ea2;" horiz-adv-x="1904" 
d="M332 0h-260l752 2048h256l752 -2048h-260l-612 1724h-16zM428 800h1048v-220h-1048v220zM1056 2256h-196v216q105 6 148.5 29t43.5 71q0 54 -63 79t-153 25l8 152q207 0 313.5 -72t106.5 -192q0 -102 -65 -149t-143 -59v-100z" />
    <glyph glyph-name="uni1EA4" unicode="&#x1ea4;" horiz-adv-x="1904" 
d="M332 0h-260l752 2048h256l752 -2048h-260l-612 1724h-16zM428 800h1048v-220h-1048v220zM436 2240l408 364h220l408 -364h-288l-228 212l-228 -212h-292zM1364 2484l196 360h292l-280 -360h-208z" />
    <glyph glyph-name="uni1EA6" unicode="&#x1ea6;" horiz-adv-x="1904" 
d="M332 0h-260l752 2048h256l752 -2048h-260l-612 1724h-16zM428 800h1048v-220h-1048v220zM1060 2600l408 -364h-288l-228 212l-228 -212h-288l404 364h220zM348 2844l192 -364h-204l-284 364h296z" />
    <glyph glyph-name="uni1EA8" unicode="&#x1ea8;" horiz-adv-x="1904" 
d="M332 0h-260l752 2048h256l752 -2048h-260l-612 1724h-16zM428 800h1048v-220h-1048v220zM1088 2576l380 -364h-248l-272 252l-268 -252h-248l380 364h276zM1508 2404h-168v184q84 6 124 22.5t40 61.5q0 48 -53.5 68t-134.5 20l8 132q180 0 272 -61t92 -163
q0 -90 -55.5 -130.5t-124.5 -49.5v-84z" />
    <glyph glyph-name="uni1EAA" unicode="&#x1eaa;" horiz-adv-x="1904" 
d="M332 0h-260l752 2048h256l752 -2048h-260l-612 1724h-16zM428 800h1048v-220h-1048v220zM1044 2520l420 -336h-248l-268 212l-268 -212h-248l420 336h192zM1196 2872l112 -32q0 -81 -66 -148.5t-162 -67.5q-51 0 -86 14.5t-62.5 33.5t-57 33.5t-70.5 14.5q-42 0 -79 -32
t-37 -68l-108 28q0 81 64 150.5t160 69.5q42 0 76 -14t65 -32t63.5 -32t71.5 -14q42 0 79 30t37 66z" />
    <glyph glyph-name="uni1EAC" unicode="&#x1eac;" horiz-adv-x="1904" 
d="M332 0h-260l752 2048h256l752 -2048h-260l-612 1724h-16zM428 800h1048v-220h-1048v220zM744 2232h-224v16l324 416h216l324 -416v-16h-224l-208 280zM952 -508q-69 0 -118.5 47t-49.5 113t49.5 113t118.5 47t118.5 -47t49.5 -113t-49.5 -113t-118.5 -47z" />
    <glyph glyph-name="uni1EAE" unicode="&#x1eae;" horiz-adv-x="1904" 
d="M332 0h-260l752 2048h256l752 -2048h-260l-612 1724h-16zM428 800h1048v-220h-1048v220zM1140 2516h224q0 -126 -112.5 -207t-307.5 -81t-307.5 81t-112.5 207h224q0 -63 44 -109.5t152 -46.5q105 0 150.5 46.5t45.5 109.5zM864 2548l148 272h224l-224 -272h-148z" />
    <glyph glyph-name="uni1EB0" unicode="&#x1eb0;" horiz-adv-x="1904" 
d="M332 0h-260l752 2048h256l752 -2048h-260l-612 1724h-16zM428 800h1048v-220h-1048v220zM1140 2516h224q0 -126 -112.5 -207t-307.5 -81t-307.5 81t-112.5 207h224q0 -63 44 -109.5t152 -46.5q105 0 150.5 46.5t45.5 109.5zM896 2548l-224 272h224l148 -272h-148z" />
    <glyph glyph-name="uni1EB2" unicode="&#x1eb2;" horiz-adv-x="1904" 
d="M332 0h-260l752 2048h256l752 -2048h-260l-612 1724h-16zM428 800h1048v-220h-1048v220zM1124 2544h216q0 -126 -107.5 -207t-296.5 -81q-186 0 -295 81t-109 207h216q0 -63 43 -109.5t145 -46.5t145 46.5t43 109.5zM1044 2572h-188l-4 176q99 3 143.5 18t44.5 54
q0 42 -61 59t-151 17l12 116q201 0 302.5 -54.5t101.5 -141.5q0 -78 -62.5 -112.5t-137.5 -43.5v-88z" />
    <glyph glyph-name="uni1EB4" unicode="&#x1eb4;" horiz-adv-x="1904" 
d="M332 0h-260l752 2048h256l752 -2048h-260l-612 1724h-16zM428 800h1048v-220h-1048v220zM1132 2556h220q0 -129 -110 -212.5t-302 -83.5q-189 0 -300.5 83.5t-111.5 212.5h220q0 -63 43.5 -111.5t148.5 -48.5t148.5 48.5t43.5 111.5zM1220 2960l120 -36q0 -102 -65 -175
t-167 -73q-74 0 -119 25t-85 50t-100 25q-45 0 -76.5 -34.5t-31.5 -85.5l-124 28q0 99 65 177.5t167 78.5q45 0 82 -15t71.5 -35t71 -35t79.5 -15q45 0 78.5 34.5t33.5 85.5z" />
    <glyph glyph-name="uni1EB6" unicode="&#x1eb6;" horiz-adv-x="1904" 
d="M332 0h-260l752 2048h256l752 -2048h-260l-612 1724h-16zM428 800h1048v-220h-1048v220zM1148 2560h220q0 -162 -112 -265t-304 -103q-189 0 -300.5 103t-111.5 265h220q0 -78 43.5 -137t148.5 -59t150.5 59t45.5 137zM952 -508q-69 0 -118.5 47t-49.5 113t49.5 113
t118.5 47t118.5 -47t49.5 -113t-49.5 -113t-118.5 -47z" />
    <glyph glyph-name="uni0391" unicode="&#x391;" horiz-adv-x="1904" 
d="M332 0h-260l752 2048h256l752 -2048h-260l-612 1724h-16zM428 800h1048v-220h-1048v220z" />
    <glyph glyph-name="uni0386" unicode="&#x386;" horiz-adv-x="1904" 
d="M332 0h-260l752 2048h256l752 -2048h-260l-612 1724h-16zM428 800h1048v-220h-1048v220zM336 1708l68 468h256l-160 -468h-164z" />
    <glyph glyph-name="uni1F08" unicode="&#x1f08;" horiz-adv-x="1904" 
d="M332 0h-260l752 2048h256l752 -2048h-260l-612 1724h-16zM428 800h1048v-220h-1048v220zM600 2048v-112q0 -80 -29 -151t-85 -130t-138 -103l-108 84q38 42 63 88t37 100t12 120v104h248z" />
    <glyph glyph-name="uni1F09" unicode="&#x1f09;" horiz-adv-x="1904" 
d="M332 0h-260l752 2048h256l752 -2048h-260l-612 1724h-16zM428 800h1048v-220h-1048v220zM260 1936v112h248v-104q0 -66 12 -120t37 -100t63 -88l-108 -84q-120 66 -186 165t-66 219z" />
    <glyph glyph-name="uni1F0A" unicode="&#x1f0a;" horiz-adv-x="1904" 
d="M332 0h-260l752 2048h256l752 -2048h-260l-612 1724h-16zM428 800h1048v-220h-1048v220zM556 1604v-20h-128l-316 436v28h288zM48 2048v-112q0 -80 -29.5 -151t-86 -130t-136.5 -103l-108 84q54 63 83 136t29 172v104h248z" />
    <glyph glyph-name="uni1F0B" unicode="&#x1f0b;" horiz-adv-x="1904" 
d="M332 0h-260l752 2048h256l752 -2048h-260l-612 1724h-16zM428 800h1048v-220h-1048v220zM576 1604v-20h-128l-316 436v28h292zM-208 1936v112h248v-104q0 -99 27.5 -172t84.5 -136l-108 -84q-120 66 -186 165t-66 219z" />
    <glyph glyph-name="uni1F0C" unicode="&#x1f0c;" horiz-adv-x="1904" 
d="M332 0h-260l752 2048h256l752 -2048h-260l-612 1724h-16zM428 800h1048v-220h-1048v220zM192 1584v20l156 444h288v-28l-316 -436h-128zM172 2048v-112q0 -80 -29.5 -151t-86 -130t-136.5 -103l-108 84q54 63 83 136t29 172v104h248z" />
    <glyph glyph-name="uni1F0D" unicode="&#x1f0d;" horiz-adv-x="1904" 
d="M332 0h-260l752 2048h256l752 -2048h-260l-612 1724h-16zM428 800h1048v-220h-1048v220zM176 1584v20l152 444h292v-28l-316 -436h-128zM-236 1936v112h248v-104q0 -99 29 -172t83 -136l-108 -84q-120 66 -186 165t-66 219z" />
    <glyph glyph-name="uni1F0E" unicode="&#x1f0e;" horiz-adv-x="1904" 
d="M332 0h-260l752 2048h256l752 -2048h-260l-612 1724h-16zM428 800h1048v-220h-1048v220zM616 2372l120 -36q0 -99 -65 -173.5t-167 -74.5q-55 0 -93.5 15t-69 35t-63.5 35t-78 15t-76.5 -34.5t-31.5 -85.5l-120 32q0 99 63 177.5t165 78.5q47 0 84 -15.5t71 -36.5
t70 -36.5t79 -15.5q45 0 78.5 34.5t33.5 85.5zM484 2020v-96q0 -78 -42 -167t-126 -149l-120 68q42 57 61 116t19 128v100h208z" />
    <glyph glyph-name="uni1F0F" unicode="&#x1f0f;" horiz-adv-x="1904" 
d="M332 0h-260l752 2048h256l752 -2048h-260l-612 1724h-16zM428 800h1048v-220h-1048v220zM252 1924v96h208v-100q0 -69 19 -128t61 -116l-124 -68q-84 60 -124 149t-40 167zM604 2372l120 -36q0 -99 -65 -173.5t-167 -74.5q-55 0 -93.5 15t-69 35t-63.5 35t-78 15
t-76.5 -34.5t-31.5 -85.5l-120 32q0 99 63 177.5t165 78.5q47 0 84 -15.5t71 -36.5t70 -36.5t79 -15.5q45 0 78.5 34.5t33.5 85.5z" />
    <glyph glyph-name="uni1FB8" unicode="&#x1fb8;" horiz-adv-x="1904" 
d="M332 0h-260l752 2048h256l752 -2048h-260l-612 1724h-16zM428 800h1048v-220h-1048v220zM1148 2560h220q0 -162 -112 -265t-304 -103q-189 0 -300.5 103t-111.5 265h220q0 -78 43.5 -137t148.5 -59t150.5 59t45.5 137z" />
    <glyph glyph-name="uni1FB9" unicode="&#x1fb9;" horiz-adv-x="1904" 
d="M332 0h-260l752 2048h256l752 -2048h-260l-612 1724h-16zM428 800h1048v-220h-1048v220zM1420 2560v-200h-936v200h936z" />
    <glyph glyph-name="uni1FBA" unicode="&#x1fba;" horiz-adv-x="1904" 
d="M332 0h-260l752 2048h256l752 -2048h-260l-612 1724h-16zM428 800h1048v-220h-1048v220zM560 1580h-128l-316 440v28h288l156 -444v-24z" />
    <glyph glyph-name="uni023A" unicode="&#x23a;" horiz-adv-x="1904" 
d="M1572 2308l-912 -2568h-228l912 2568h228zM332 0h-260l752 2048h256l752 -2048h-260l-612 1724h-16zM428 800h1048v-220h-1048v220z" />
    <glyph glyph-name="uni1FBB" unicode="&#x1fbb;" horiz-adv-x="1904" 
d="M332 0h-260l752 2048h256l752 -2048h-260l-612 1724h-16zM428 800h1048v-220h-1048v220zM340 1728v24l152 444h292v-28l-316 -440h-128z" />
    <glyph glyph-name="uni0410" unicode="&#x410;" horiz-adv-x="1904" 
d="M332 0h-260l752 2048h256l752 -2048h-260l-612 1724h-16zM428 800h1048v-220h-1048v220z" />
    <glyph glyph-name="uni04D0" unicode="&#x4d0;" horiz-adv-x="1904" 
d="M332 0h-260l752 2048h256l752 -2048h-260l-612 1724h-16zM428 800h1048v-220h-1048v220zM1148 2560h220q0 -162 -112 -265t-304 -103q-189 0 -300.5 103t-111.5 265h220q0 -78 43.5 -137t148.5 -59t150.5 59t45.5 137z" />
    <glyph glyph-name="uni04D2" unicode="&#x4d2;" horiz-adv-x="1904" 
d="M332 0h-260l752 2048h256l752 -2048h-260l-612 1724h-16zM428 800h1048v-220h-1048v220zM664 2304q-63 0 -111.5 48.5t-48.5 111.5q0 69 48.5 114.5t111.5 45.5q69 0 114.5 -45.5t45.5 -114.5q0 -63 -45.5 -111.5t-114.5 -48.5zM1240 2304q-63 0 -111.5 48.5t-48.5 111.5
q0 69 48.5 114.5t111.5 45.5q69 0 114.5 -45.5t45.5 -114.5q0 -63 -45.5 -111.5t-114.5 -48.5z" />
    <glyph glyph-name="uni1F88" unicode="&#x1f88;" horiz-adv-x="1904" 
d="M332 0h-260l752 2048h256l752 -2048h-260l-612 1724h-16zM428 800h1048v-220h-1048v220zM1080 -680q-102 0 -167 60.5t-65 195.5v304h208v-300q0 -60 19 -84t49 -24q15 0 33 2t27 2v-140q-15 -6 -40 -11t-64 -5zM600 2048v-112q0 -80 -29 -151t-85 -130t-138 -103
l-108 84q38 42 63 88t37 100t12 120v104h248z" />
    <glyph glyph-name="uni1F89" unicode="&#x1f89;" horiz-adv-x="1904" 
d="M332 0h-260l752 2048h256l752 -2048h-260l-612 1724h-16zM428 800h1048v-220h-1048v220zM1080 -680q-102 0 -167 60.5t-65 195.5v304h208v-300q0 -60 19 -84t49 -24q15 0 33 2t27 2v-140q-15 -6 -40 -11t-64 -5zM260 1936v112h248v-104q0 -66 12 -120t37 -100t63 -88
l-108 -84q-120 66 -186 165t-66 219z" />
    <glyph glyph-name="uni1F8A" unicode="&#x1f8a;" horiz-adv-x="1904" 
d="M332 0h-260l752 2048h256l752 -2048h-260l-612 1724h-16zM428 800h1048v-220h-1048v220zM1080 -680q-102 0 -167 60.5t-65 195.5v304h208v-300q0 -60 19 -84t49 -24q15 0 33 2t27 2v-140q-15 -6 -40 -11t-64 -5zM556 1604v-20h-128l-316 436v28h288zM48 2048v-112
q0 -80 -29.5 -151t-86 -130t-136.5 -103l-108 84q54 63 83 136t29 172v104h248z" />
    <glyph glyph-name="uni1F8B" unicode="&#x1f8b;" horiz-adv-x="1904" 
d="M332 0h-260l752 2048h256l752 -2048h-260l-612 1724h-16zM428 800h1048v-220h-1048v220zM1080 -680q-102 0 -167 60.5t-65 195.5v304h208v-300q0 -60 19 -84t49 -24q15 0 33 2t27 2v-140q-15 -6 -40 -11t-64 -5zM576 1604v-20h-128l-316 436v28h292zM-208 1936v112h248
v-104q0 -99 27.5 -172t84.5 -136l-108 -84q-120 66 -186 165t-66 219z" />
    <glyph glyph-name="uni1F8C" unicode="&#x1f8c;" horiz-adv-x="1904" 
d="M332 0h-260l752 2048h256l752 -2048h-260l-612 1724h-16zM428 800h1048v-220h-1048v220zM192 1584v20l156 444h288v-28l-316 -436h-128zM172 2048v-112q0 -80 -29.5 -151t-86 -130t-136.5 -103l-108 84q54 63 83 136t29 172v104h248zM1080 -680q-102 0 -167 60.5
t-65 195.5v304h208v-300q0 -60 19 -84t49 -24q15 0 33 2t27 2v-140q-15 -6 -40 -11t-64 -5z" />
    <glyph glyph-name="uni1F8D" unicode="&#x1f8d;" horiz-adv-x="1904" 
d="M332 0h-260l752 2048h256l752 -2048h-260l-612 1724h-16zM428 800h1048v-220h-1048v220zM1080 -680q-102 0 -167 60.5t-65 195.5v304h208v-300q0 -60 19 -84t49 -24q15 0 33 2t27 2v-140q-15 -6 -40 -11t-64 -5zM176 1584v20l152 444h292v-28l-316 -436h-128zM-236 1936
v112h248v-104q0 -99 29 -172t83 -136l-108 -84q-120 66 -186 165t-66 219z" />
    <glyph glyph-name="uni1F8E" unicode="&#x1f8e;" horiz-adv-x="1904" 
d="M332 0h-260l752 2048h256l752 -2048h-260l-612 1724h-16zM428 800h1048v-220h-1048v220zM616 2372l120 -36q0 -99 -65 -173.5t-167 -74.5q-55 0 -93.5 15t-69 35t-63.5 35t-78 15t-76.5 -34.5t-31.5 -85.5l-120 32q0 99 63 177.5t165 78.5q47 0 84 -15.5t71 -36.5
t70 -36.5t79 -15.5q45 0 78.5 34.5t33.5 85.5zM484 2020v-96q0 -78 -42 -167t-126 -149l-120 68q42 57 61 116t19 128v100h208zM1080 -680q-102 0 -167 60.5t-65 195.5v304h208v-300q0 -60 19 -84t49 -24q15 0 33 2t27 2v-140q-15 -6 -40 -11t-64 -5z" />
    <glyph glyph-name="uni1F8F" unicode="&#x1f8f;" horiz-adv-x="1904" 
d="M332 0h-260l752 2048h256l752 -2048h-260l-612 1724h-16zM428 800h1048v-220h-1048v220zM1080 -680q-102 0 -167 60.5t-65 195.5v304h208v-300q0 -60 19 -84t49 -24q15 0 33 2t27 2v-140q-15 -6 -40 -11t-64 -5zM252 1924v96h208v-100q0 -69 19 -128t61 -116l-124 -68
q-84 60 -124 149t-40 167zM604 2372l120 -36q0 -99 -65 -173.5t-167 -74.5q-55 0 -93.5 15t-69 35t-63.5 35t-78 15t-76.5 -34.5t-31.5 -85.5l-120 32q0 99 63 177.5t165 78.5q47 0 84 -15.5t71 -36.5t70 -36.5t79 -15.5q45 0 78.5 34.5t33.5 85.5z" />
    <glyph glyph-name="uni1FBC" unicode="&#x1fbc;" horiz-adv-x="1904" 
d="M332 0h-260l752 2048h256l752 -2048h-260l-612 1724h-16zM428 800h1048v-220h-1048v220zM1080 -680q-102 0 -167 60.5t-65 195.5v304h208v-300q0 -60 19 -84t49 -24q15 0 33 2t27 2v-140q-15 -6 -40 -11t-64 -5z" />
    <glyph glyph-name="uni039B" unicode="&#x39b;" horiz-adv-x="1904" 
d="M332 0h-260l752 2048h256l752 -2048h-260l-612 1724h-16z" />
    <glyph glyph-name="uni00C6" unicode="&#xc6;" horiz-adv-x="2788" 
d="M72 0l992 2048h1524v-220h-988v-692h924v-220h-924v-696h1004v-220h-1252v1828h-148l-860 -1828h-272zM508 580v220h968v-220h-968z" />
    <glyph glyph-name="uni01E2" unicode="&#x1e2;" horiz-adv-x="2788" 
d="M72 0l992 2048h1524v-220h-988v-692h924v-220h-924v-696h1004v-220h-1252v1828h-148l-860 -1828h-272zM508 580v220h968v-220h-968zM2288 2560v-200h-936v200h936z" />
    <glyph glyph-name="uni01FC" unicode="&#x1fc;" horiz-adv-x="2788" 
d="M72 0l992 2048h1524v-220h-988v-692h924v-220h-924v-696h1004v-220h-1252v1828h-148l-860 -1828h-272zM508 580v220h968v-220h-968zM1712 2256l244 464h276l-312 -464h-208z" />
    <glyph glyph-name="uni04D4" unicode="&#x4d4;" horiz-adv-x="2788" 
d="M72 0l992 2048h1524v-220h-988v-692h924v-220h-924v-696h1004v-220h-1252v1828h-148l-860 -1828h-272zM508 580v220h968v-220h-968z" />
    <glyph glyph-name="uni0042" unicode="B" horiz-adv-x="1832" 
d="M248 0v2048h716q214 0 353 -73.5t207 -197t68 -273.5q0 -132 -46.5 -218t-122 -136t-163.5 -74v-20q94 -6 189 -66t159 -172t64 -274q0 -154 -70 -277t-221 -195t-393 -72h-740zM496 220h492q243 0 345.5 94.5t102.5 229.5q0 104 -53 192.5t-151 142t-232 53.5h-504v-712
zM496 1148h460q112 0 202.5 44t144 124t53.5 188q0 135 -94 229.5t-298 94.5h-468v-680z" />
    <glyph glyph-name="uni1E02" unicode="&#x1e02;" horiz-adv-x="1832" 
d="M248 0v2048h716q214 0 353 -73.5t207 -197t68 -273.5q0 -132 -46.5 -218t-122 -136t-163.5 -74v-20q94 -6 189 -66t159 -172t64 -274q0 -154 -70 -277t-221 -195t-393 -72h-740zM496 220h492q243 0 345.5 94.5t102.5 229.5q0 104 -53 192.5t-151 142t-232 53.5h-504v-712
zM496 1148h460q112 0 202.5 44t144 124t53.5 188q0 135 -94 229.5t-298 94.5h-468v-680zM876 2304q-69 0 -118.5 47t-49.5 113t49.5 113t118.5 47t118.5 -47t49.5 -113t-49.5 -113t-118.5 -47z" />
    <glyph glyph-name="uni1E04" unicode="&#x1e04;" horiz-adv-x="1832" 
d="M248 0v2048h716q214 0 353 -73.5t207 -197t68 -273.5q0 -132 -46.5 -218t-122 -136t-163.5 -74v-20q94 -6 189 -66t159 -172t64 -274q0 -154 -70 -277t-221 -195t-393 -72h-740zM496 220h492q243 0 345.5 94.5t102.5 229.5q0 104 -53 192.5t-151 142t-232 53.5h-504v-712
zM496 1148h460q112 0 202.5 44t144 124t53.5 188q0 135 -94 229.5t-298 94.5h-468v-680zM888 -508q-69 0 -118.5 47t-49.5 113t49.5 113t118.5 47t118.5 -47t49.5 -113t-49.5 -113t-118.5 -47z" />
    <glyph glyph-name="uni1E06" unicode="&#x1e06;" horiz-adv-x="1832" 
d="M248 0v2048h716q214 0 353 -73.5t207 -197t68 -273.5q0 -132 -46.5 -218t-122 -136t-163.5 -74v-20q94 -6 189 -66t159 -172t64 -274q0 -154 -70 -277t-221 -195t-393 -72h-740zM496 220h492q243 0 345.5 94.5t102.5 229.5q0 104 -53 192.5t-151 142t-232 53.5h-504v-712
zM496 1148h460q112 0 202.5 44t144 124t53.5 188q0 135 -94 229.5t-298 94.5h-468v-680zM1356 -252v-200h-936v200h936z" />
    <glyph glyph-name="uni0243" unicode="&#x243;" horiz-adv-x="1988" 
d="M404 0v2048h716q214 0 353 -73.5t207 -197t68 -273.5q0 -132 -46.5 -218t-122 -136t-163.5 -74v-20q94 -6 189 -66t159 -172t64 -274q0 -154 -70 -277t-221 -195t-393 -72h-740zM652 220h492q243 0 345.5 94.5t102.5 229.5q0 104 -53 192.5t-151 142t-232 53.5h-504v-712
zM652 1148h460q112 0 202.5 44t144 124t53.5 188q0 135 -94 229.5t-298 94.5h-468v-680zM88 484v184h880v-184h-880z" />
    <glyph glyph-name="uni0181" unicode="&#x181;" horiz-adv-x="2260" 
d="M744 1828h-196q-80 0 -118.5 -35.5t-50 -92t-11.5 -120.5v-76h-232v136q0 112 47 204.5t138 148t223 55.5h200v-220zM676 0v2048h716q214 0 353 -73.5t207 -197t68 -273.5q0 -132 -46.5 -218t-122 -136t-163.5 -74v-20q94 -6 189 -66t159 -172t64 -274q0 -154 -70 -277
t-221 -195t-393 -72h-740zM924 220h492q243 0 345.5 94.5t102.5 229.5q0 104 -53 192.5t-151 142t-232 53.5h-504v-712zM924 1148h460q112 0 202.5 44t144 124t53.5 188q0 135 -94 229.5t-298 94.5h-468v-680z" />
    <glyph glyph-name="uni0412" unicode="&#x412;" horiz-adv-x="1832" 
d="M248 0v2048h716q214 0 353 -73.5t207 -197t68 -273.5q0 -132 -46.5 -218t-122 -136t-163.5 -74v-20q94 -6 189 -66t159 -172t64 -274q0 -154 -70 -277t-221 -195t-393 -72h-740zM496 220h492q243 0 345.5 94.5t102.5 229.5q0 104 -53 192.5t-151 142t-232 53.5h-504v-712
zM496 1148h460q112 0 202.5 44t144 124t53.5 188q0 135 -94 229.5t-298 94.5h-468v-680z" />
    <glyph glyph-name="uni0392" unicode="&#x392;" horiz-adv-x="1832" 
d="M248 0v2048h716q214 0 353 -73.5t207 -197t68 -273.5q0 -132 -46.5 -218t-122 -136t-163.5 -74v-20q94 -6 189 -66t159 -172t64 -274q0 -154 -70 -277t-221 -195t-393 -72h-740zM496 220h492q243 0 345.5 94.5t102.5 229.5q0 104 -53 192.5t-151 142t-232 53.5h-504v-712
zM496 1148h460q112 0 202.5 44t144 124t53.5 188q0 135 -94 229.5t-298 94.5h-468v-680z" />
    <glyph glyph-name="uni0043" unicode="C" horiz-adv-x="2048" 
d="M1896 1408h-248q-22 107 -76.5 188t-132 136.5t-171.5 83.5t-196 28q-186 0 -336.5 -94t-239 -277t-88.5 -449t88.5 -449t239 -277t336.5 -94q102 0 196 28t171.5 83.5t132 137t76.5 187.5h248q-28 -157 -102 -281t-184 -210.5t-246.5 -131.5t-291.5 -45q-262 0 -466 128
t-321 364t-117 560t117 560t321 364t466 128q155 0 291.5 -45t246.5 -131.5t184 -210t102 -281.5z" />
    <glyph glyph-name="uni0187" unicode="&#x187;" horiz-adv-x="2172" 
d="M1896 1408h-236v256q0 132 53.5 224t144 140t202.5 48q36 0 72.5 -1.5t63.5 -10.5v-200q-15 3 -35 5.5t-41 2.5q-64 0 -114.5 -18.5t-80 -64t-29.5 -125.5v-256zM1896 1408h-248q-22 107 -76.5 188t-132 136.5t-171.5 83.5t-196 28q-186 0 -336.5 -94t-239 -277
t-88.5 -449t88.5 -449t239 -277t336.5 -94q102 0 196 28t171.5 83.5t132 137t76.5 187.5h248q-28 -157 -102 -281t-184 -210.5t-246.5 -131.5t-291.5 -45q-262 0 -466 128t-321 364t-117 560t117 560t321 364t466 128q155 0 291.5 -45t246.5 -131.5t184 -210t102 -281.5z
" />
    <glyph glyph-name="uni00C7" unicode="&#xc7;" horiz-adv-x="2048" 
d="M1896 1408h-248q-22 107 -76.5 188t-132 136.5t-171.5 83.5t-196 28q-186 0 -336.5 -94t-239 -277t-88.5 -449t88.5 -449t239 -277t336.5 -94q102 0 196 28t171.5 83.5t132 137t76.5 187.5h248q-28 -157 -102 -281t-184 -210.5t-246.5 -131.5t-291.5 -45q-262 0 -466 128
t-321 364t-117 560t117 560t321 364t466 128q155 0 291.5 -45t246.5 -131.5t184 -210t102 -281.5zM968 -8h196l-16 -80q78 -12 143 -65.5t65 -170.5q0 -129 -106.5 -210.5t-313.5 -81.5l-8 156q93 0 154.5 29.5t61.5 98.5t-51 94t-165 34z" />
    <glyph glyph-name="uni0106" unicode="&#x106;" horiz-adv-x="2048" 
d="M1896 1408h-248q-22 107 -76.5 188t-132 136.5t-171.5 83.5t-196 28q-186 0 -336.5 -94t-239 -277t-88.5 -449t88.5 -449t239 -277t336.5 -94q102 0 196 28t171.5 83.5t132 137t76.5 187.5h248q-28 -157 -102 -281t-184 -210.5t-246.5 -131.5t-291.5 -45q-262 0 -466 128
t-321 364t-117 560t117 560t321 364t466 128q155 0 291.5 -45t246.5 -131.5t184 -210t102 -281.5zM964 2256l244 464h276l-312 -464h-208z" />
    <glyph glyph-name="uni0108" unicode="&#x108;" horiz-adv-x="2048" 
d="M1896 1408h-248q-22 107 -76.5 188t-132 136.5t-171.5 83.5t-196 28q-186 0 -336.5 -94t-239 -277t-88.5 -449t88.5 -449t239 -277t336.5 -94q102 0 196 28t171.5 83.5t132 137t76.5 187.5h248q-28 -157 -102 -281t-184 -210.5t-246.5 -131.5t-291.5 -45q-262 0 -466 128
t-321 364t-117 560t117 560t321 364t466 128q155 0 291.5 -45t246.5 -131.5t184 -210t102 -281.5zM864 2232h-224v16l324 416h216l324 -416v-16h-224l-208 280z" />
    <glyph glyph-name="uni010A" unicode="&#x10a;" horiz-adv-x="2048" 
d="M1896 1408h-248q-22 107 -76.5 188t-132 136.5t-171.5 83.5t-196 28q-186 0 -336.5 -94t-239 -277t-88.5 -449t88.5 -449t239 -277t336.5 -94q102 0 196 28t171.5 83.5t132 137t76.5 187.5h248q-28 -157 -102 -281t-184 -210.5t-246.5 -131.5t-291.5 -45q-262 0 -466 128
t-321 364t-117 560t117 560t321 364t466 128q155 0 291.5 -45t246.5 -131.5t184 -210t102 -281.5zM1072 2304q-69 0 -118.5 47t-49.5 113t49.5 113t118.5 47t118.5 -47t49.5 -113t-49.5 -113t-118.5 -47z" />
    <glyph glyph-name="uni010C" unicode="&#x10c;" horiz-adv-x="2048" 
d="M1896 1408h-248q-22 107 -76.5 188t-132 136.5t-171.5 83.5t-196 28q-186 0 -336.5 -94t-239 -277t-88.5 -449t88.5 -449t239 -277t336.5 -94q102 0 196 28t171.5 83.5t132 137t76.5 187.5h248q-28 -157 -102 -281t-184 -210.5t-246.5 -131.5t-291.5 -45q-262 0 -466 128
t-321 364t-117 560t117 560t321 364t466 128q155 0 291.5 -45t246.5 -131.5t184 -210t102 -281.5zM864 2664l208 -280l208 280h224v-16l-324 -416h-216l-324 416v16h224z" />
    <glyph glyph-name="uni1E08" unicode="&#x1e08;" horiz-adv-x="2048" 
d="M1896 1408h-248q-22 107 -76.5 188t-132 136.5t-171.5 83.5t-196 28q-186 0 -336.5 -94t-239 -277t-88.5 -449t88.5 -449t239 -277t336.5 -94q102 0 196 28t171.5 83.5t132 137t76.5 187.5h248q-28 -157 -102 -281t-184 -210.5t-246.5 -131.5t-291.5 -45q-262 0 -466 128
t-321 364t-117 560t117 560t321 364t466 128q155 0 291.5 -45t246.5 -131.5t184 -210t102 -281.5zM968 -8h196l-16 -80q78 -12 143 -65.5t65 -170.5q0 -129 -106.5 -210.5t-313.5 -81.5l-8 156q93 0 154.5 29.5t61.5 98.5t-51 94t-165 34zM964 2256l244 464h276l-312 -464
h-208z" />
    <glyph glyph-name="uni023B" unicode="&#x23b;" horiz-adv-x="2048" 
d="M464 -260l912 2568h228l-912 -2568h-228zM1896 1408h-248q-22 107 -76.5 188t-132 136.5t-171.5 83.5t-196 28q-186 0 -336.5 -94t-239 -277t-88.5 -449t88.5 -449t239 -277t336.5 -94q102 0 196 28t171.5 83.5t132 137t76.5 187.5h248q-28 -157 -102 -281t-184 -210.5
t-246.5 -131.5t-291.5 -45q-262 0 -466 128t-321 364t-117 560t117 560t321 364t466 128q155 0 291.5 -45t246.5 -131.5t184 -210t102 -281.5z" />
    <glyph glyph-name="uni0186" unicode="&#x186;" horiz-adv-x="2048" 
d="M152 1408q29 158 102.5 281.5t183.5 210t247 131.5t291 45q262 0 466 -128t321 -364t117 -560t-117 -560t-321 -364t-466 -128q-154 0 -291 45t-247 131.5t-183.5 210.5t-102.5 281h248q23 -106 77 -187.5t131.5 -137t171.5 -83.5t196 -28q186 0 336.5 94t239 277
t88.5 449t-88.5 449t-239 277t-336.5 94q-102 0 -196 -28t-171.5 -83.5t-131.5 -136.5t-77 -188h-248z" />
    <glyph glyph-name="uni03F9" unicode="&#x3f9;" horiz-adv-x="2048" 
d="M1896 1408h-248q-22 107 -76.5 188t-132 136.5t-171.5 83.5t-196 28q-186 0 -336.5 -94t-239 -277t-88.5 -449t88.5 -449t239 -277t336.5 -94q102 0 196 28t171.5 83.5t132 137t76.5 187.5h248q-28 -157 -102 -281t-184 -210.5t-246.5 -131.5t-291.5 -45q-262 0 -466 128
t-321 364t-117 560t117 560t321 364t466 128q155 0 291.5 -45t246.5 -131.5t184 -210t102 -281.5z" />
    <glyph glyph-name="uni0044" unicode="D" horiz-adv-x="2024" 
d="M880 0h-632v2048h660q298 0 510 -122.5t325 -351t113 -546.5q0 -320 -114 -550.5t-332 -354t-530 -123.5zM496 220h368q254 0 421 98t249 279t82 431q0 248 -81 427.5t-242 276t-401 96.5h-396v-1608z" />
    <glyph glyph-name="uni018A" unicode="&#x18a;" horiz-adv-x="2468" 
d="M136 1504v136q0 112 47 204.5t138 148t223 55.5h200v-220h-196q-80 0 -118.5 -35.5t-50 -92t-11.5 -120.5v-76h-232zM1324 0h-632v2048h660q298 0 510 -122.5t325 -351t113 -546.5q0 -320 -114 -550.5t-332 -354t-530 -123.5zM940 220h368q254 0 421 98t249 279t82 431
q0 248 -81 427.5t-242 276t-401 96.5h-396v-1608z" />
    <glyph glyph-name="uni010E" unicode="&#x10e;" horiz-adv-x="2024" 
d="M880 0h-632v2048h660q298 0 510 -122.5t325 -351t113 -546.5q0 -320 -114 -550.5t-332 -354t-530 -123.5zM496 220h368q254 0 421 98t249 279t82 431q0 248 -81 427.5t-242 276t-401 96.5h-396v-1608zM640 2664l208 -280l208 280h224v-16l-324 -416h-216l-324 416v16h224
z" />
    <glyph glyph-name="uni1E0A" unicode="&#x1e0a;" horiz-adv-x="2024" 
d="M880 0h-632v2048h660q298 0 510 -122.5t325 -351t113 -546.5q0 -320 -114 -550.5t-332 -354t-530 -123.5zM496 220h368q254 0 421 98t249 279t82 431q0 248 -81 427.5t-242 276t-401 96.5h-396v-1608zM848 2304q-69 0 -118.5 47t-49.5 113t49.5 113t118.5 47t118.5 -47
t49.5 -113t-49.5 -113t-118.5 -47z" />
    <glyph glyph-name="uni1E0C" unicode="&#x1e0c;" horiz-adv-x="2024" 
d="M880 0h-632v2048h660q298 0 510 -122.5t325 -351t113 -546.5q0 -320 -114 -550.5t-332 -354t-530 -123.5zM496 220h368q254 0 421 98t249 279t82 431q0 248 -81 427.5t-242 276t-401 96.5h-396v-1608zM856 -508q-69 0 -118.5 47t-49.5 113t49.5 113t118.5 47t118.5 -47
t49.5 -113t-49.5 -113t-118.5 -47z" />
    <glyph glyph-name="uni1E0E" unicode="&#x1e0e;" horiz-adv-x="2024" 
d="M880 0h-632v2048h660q298 0 510 -122.5t325 -351t113 -546.5q0 -320 -114 -550.5t-332 -354t-530 -123.5zM496 220h368q254 0 421 98t249 279t82 431q0 248 -81 427.5t-242 276t-401 96.5h-396v-1608zM1324 -252v-200h-936v200h936z" />
    <glyph glyph-name="uni1E10" unicode="&#x1e10;" horiz-adv-x="2024" 
d="M880 0h-632v2048h660q298 0 510 -122.5t325 -351t113 -546.5q0 -320 -114 -550.5t-332 -354t-530 -123.5zM496 220h368q254 0 421 98t249 279t82 431q0 248 -81 427.5t-242 276t-401 96.5h-396v-1608zM622 -680l112 518h242l-170 -518h-184z" />
    <glyph glyph-name="uni1E12" unicode="&#x1e12;" horiz-adv-x="2024" 
d="M880 0h-632v2048h660q298 0 510 -122.5t325 -351t113 -546.5q0 -320 -114 -550.5t-332 -354t-530 -123.5zM496 220h368q254 0 421 98t249 279t82 431q0 248 -81 427.5t-242 276t-401 96.5h-396v-1608zM648 -560h-224v16l324 416h216l324 -416v-16h-224l-208 280z" />
    <glyph glyph-name="uni0189" unicode="&#x189;" horiz-adv-x="2024" 
d="M880 0h-632v2048h660q298 0 510 -122.5t325 -351t113 -546.5q0 -320 -114 -550.5t-332 -354t-530 -123.5zM496 220h368q254 0 421 98t249 279t82 431q0 248 -81 427.5t-242 276t-401 96.5h-396v-1608zM-68 964v184h880v-184h-880z" />
    <glyph glyph-name="uni01F2" unicode="&#x1f2;" horiz-adv-x="3548" 
d="M880 0h-632v2048h660q298 0 510 -122.5t325 -351t113 -546.5q0 -320 -114 -550.5t-332 -354t-530 -123.5zM496 220h368q254 0 421 98t249 279t82 431q0 248 -81 427.5t-242 276t-401 96.5h-396v-1608zM2196 0v180l872 1120v16h-844v220h1148v-188l-848 -1112v-16h876
v-220h-1204z" />
    <glyph glyph-name="uni01C5" unicode="&#x1c5;" horiz-adv-x="3548" 
d="M880 0h-632v2048h660q298 0 510 -122.5t325 -351t113 -546.5q0 -320 -114 -550.5t-332 -354t-530 -123.5zM496 220h368q254 0 421 98t249 279t82 431q0 248 -81 427.5t-242 276t-401 96.5h-396v-1608zM2196 0v180l872 1120v16h-844v220h1148v-188l-848 -1112v-16h876
v-220h-1204zM2576 2152l208 -280l208 280h224v-16l-324 -416h-216l-324 416v16h224z" />
    <glyph glyph-name="uni0045" unicode="E" horiz-adv-x="1684" 
d="M248 0v2048h1236v-220h-988v-692h924v-220h-924v-696h1004v-220h-1252z" />
    <glyph glyph-name="uni00C8" unicode="&#xc8;" horiz-adv-x="1684" 
d="M248 0v2048h1236v-220h-988v-692h924v-220h-924v-696h1004v-220h-1252zM764 2256l-312 464h276l244 -464h-208z" />
    <glyph glyph-name="uni00C9" unicode="&#xc9;" horiz-adv-x="1684" 
d="M248 0v2048h1236v-220h-988v-692h924v-220h-924v-696h1004v-220h-1252zM756 2256l244 464h276l-312 -464h-208z" />
    <glyph glyph-name="uni00CA" unicode="&#xca;" horiz-adv-x="1684" 
d="M248 0v2048h1236v-220h-988v-692h924v-220h-924v-696h1004v-220h-1252zM656 2232h-224v16l324 416h216l324 -416v-16h-224l-208 280z" />
    <glyph glyph-name="uni00CB" unicode="&#xcb;" horiz-adv-x="1684" 
d="M248 0v2048h1236v-220h-988v-692h924v-220h-924v-696h1004v-220h-1252zM576 2304q-63 0 -111.5 48.5t-48.5 111.5q0 69 48.5 114.5t111.5 45.5q69 0 114.5 -45.5t45.5 -114.5q0 -63 -45.5 -111.5t-114.5 -48.5zM1152 2304q-63 0 -111.5 48.5t-48.5 111.5q0 69 48.5 114.5
t111.5 45.5q69 0 114.5 -45.5t45.5 -114.5q0 -63 -45.5 -111.5t-114.5 -48.5z" />
    <glyph glyph-name="uni0112" unicode="&#x112;" horiz-adv-x="1684" 
d="M248 0v2048h1236v-220h-988v-692h924v-220h-924v-696h1004v-220h-1252zM1332 2560v-200h-936v200h936z" />
    <glyph glyph-name="uni0114" unicode="&#x114;" horiz-adv-x="1684" 
d="M248 0v2048h1236v-220h-988v-692h924v-220h-924v-696h1004v-220h-1252zM1060 2560h220q0 -162 -112 -265t-304 -103q-189 0 -300.5 103t-111.5 265h220q0 -78 43.5 -137t148.5 -59t150.5 59t45.5 137z" />
    <glyph glyph-name="uni0116" unicode="&#x116;" horiz-adv-x="1684" 
d="M248 0v2048h1236v-220h-988v-692h924v-220h-924v-696h1004v-220h-1252zM864 2304q-69 0 -118.5 47t-49.5 113t49.5 113t118.5 47t118.5 -47t49.5 -113t-49.5 -113t-118.5 -47z" />
    <glyph glyph-name="uni0118" unicode="&#x118;" horiz-adv-x="1684" 
d="M248 0v2048h1236v-220h-988v-692h924v-220h-924v-696h1004v-220h-1252zM1312 -600q-123 0 -203.5 67.5t-80.5 196.5q0 74 36 148t116 143t212 129l108 -84q-90 -66 -161 -140t-71 -164q0 -45 22 -70.5t82 -25.5q45 0 80 12t56 24l16 -176q-33 -21 -86.5 -40.5
t-125.5 -19.5z" />
    <glyph glyph-name="uni011A" unicode="&#x11a;" horiz-adv-x="1684" 
d="M248 0v2048h1236v-220h-988v-692h924v-220h-924v-696h1004v-220h-1252zM656 2664l208 -280l208 280h224v-16l-324 -416h-216l-324 416v16h224z" />
    <glyph glyph-name="uni0204" unicode="&#x204;" horiz-adv-x="1684" 
d="M248 0v2048h1236v-220h-988v-692h924v-220h-924v-696h1004v-220h-1252zM554 2256l-330 464h294l244 -464h-208zM978 2256l-244 464h300l150 -464h-206z" />
    <glyph glyph-name="uni0206" unicode="&#x206;" horiz-adv-x="1684" 
d="M248 0v2048h1236v-220h-988v-692h924v-220h-924v-696h1004v-220h-1252zM448 2304q0 162 112 267t304 105t302 -105t110 -267h-220q0 81 -45 140.5t-147 59.5q-108 0 -152 -61t-44 -139h-220z" />
    <glyph glyph-name="uni0228" unicode="&#x228;" horiz-adv-x="1684" 
d="M248 0v2048h1236v-220h-988v-692h924v-220h-924v-696h1004v-220h-1252zM744 8h196l-16 -80q78 -12 143 -65.5t65 -170.5q0 -129 -106.5 -210.5t-313.5 -81.5l-8 156q93 0 154.5 29.5t61.5 98.5t-51 94t-165 34z" />
    <glyph glyph-name="uni1E14" unicode="&#x1e14;" horiz-adv-x="1684" 
d="M248 0v2048h1236v-220h-988v-692h924v-220h-924v-696h1004v-220h-1252zM762 2640l-340 304h284l300 -304h-244zM1332 2504v-200h-936v200h936z" />
    <glyph glyph-name="uni1E16" unicode="&#x1e16;" horiz-adv-x="1684" 
d="M248 0v2048h1236v-220h-988v-692h924v-220h-924v-696h1004v-220h-1252zM724 2640l300 304h284l-340 -304h-244zM1332 2504v-200h-936v200h936z" />
    <glyph glyph-name="uni1E18" unicode="&#x1e18;" horiz-adv-x="1684" 
d="M248 0v2048h1236v-220h-988v-692h924v-220h-924v-696h1004v-220h-1252zM636 -560h-224v16l324 416h216l324 -416v-16h-224l-208 280z" />
    <glyph glyph-name="uni1E1A" unicode="&#x1e1a;" horiz-adv-x="1684" 
d="M248 0v2048h1236v-220h-988v-692h924v-220h-924v-696h1004v-220h-1252zM616 -508l-184 8q0 153 87.5 250.5t216.5 97.5q57 0 101 -19.5t84 -44.5t82.5 -44.5t96.5 -19.5q57 0 96.5 44.5t39.5 107.5l180 -16q0 -156 -87.5 -248t-216.5 -92q-69 0 -114 19.5t-80 44.5
t-74 44.5t-96 19.5t-94.5 -44.5t-37.5 -107.5z" />
    <glyph glyph-name="uni1E1C" unicode="&#x1e1c;" horiz-adv-x="1684" 
d="M248 0v2048h1236v-220h-988v-692h924v-220h-924v-696h1004v-220h-1252zM744 8h196l-16 -80q78 -12 143 -65.5t65 -170.5q0 -129 -106.5 -210.5t-313.5 -81.5l-8 156q93 0 154.5 29.5t61.5 98.5t-51 94t-165 34zM1060 2560h220q0 -162 -112 -265t-304 -103
q-189 0 -300.5 103t-111.5 265h220q0 -78 43.5 -137t148.5 -59t150.5 59t45.5 137z" />
    <glyph glyph-name="uni1EB8" unicode="&#x1eb8;" horiz-adv-x="1684" 
d="M248 0v2048h1236v-220h-988v-692h924v-220h-924v-696h1004v-220h-1252zM844 -508q-69 0 -118.5 47t-49.5 113t49.5 113t118.5 47t118.5 -47t49.5 -113t-49.5 -113t-118.5 -47z" />
    <glyph glyph-name="uni1EBA" unicode="&#x1eba;" horiz-adv-x="1684" 
d="M248 0v2048h1236v-220h-988v-692h924v-220h-924v-696h1004v-220h-1252zM968 2256h-196v216q105 6 148.5 29t43.5 71q0 54 -63 79t-153 25l8 152q207 0 313.5 -72t106.5 -192q0 -102 -65 -149t-143 -59v-100z" />
    <glyph glyph-name="uni1EBC" unicode="&#x1ebc;" horiz-adv-x="1684" 
d="M248 0v2048h1236v-220h-988v-692h924v-220h-924v-696h1004v-220h-1252zM556 2232l-184 8q0 153 87.5 250.5t216.5 97.5q57 0 101 -19.5t84 -44.5t82.5 -44.5t96.5 -19.5q57 0 96.5 44.5t39.5 107.5l180 -16q0 -156 -87.5 -248t-216.5 -92q-69 0 -114 19.5t-80 44.5
t-74 44.5t-96 19.5t-94.5 -44.5t-37.5 -107.5z" />
    <glyph glyph-name="uni1EBE" unicode="&#x1ebe;" horiz-adv-x="1684" 
d="M248 0v2048h1236v-220h-988v-692h924v-220h-924v-696h1004v-220h-1252zM348 2240l408 364h220l408 -364h-288l-228 212l-228 -212h-292zM1276 2484l196 360h292l-280 -360h-208z" />
    <glyph glyph-name="uni1EC0" unicode="&#x1ec0;" horiz-adv-x="1684" 
d="M248 0v2048h1236v-220h-988v-692h924v-220h-924v-696h1004v-220h-1252zM972 2600l408 -364h-288l-228 212l-228 -212h-288l404 364h220zM260 2844l192 -364h-204l-284 364h296z" />
    <glyph glyph-name="uni1EC2" unicode="&#x1ec2;" horiz-adv-x="1684" 
d="M248 0v2048h1236v-220h-988v-692h924v-220h-924v-696h1004v-220h-1252zM1000 2576l380 -364h-248l-272 252l-268 -252h-248l380 364h276zM1420 2404h-168v184q84 6 124 22.5t40 61.5q0 48 -53.5 68t-134.5 20l8 132q180 0 272 -61t92 -163q0 -90 -55.5 -130.5
t-124.5 -49.5v-84z" />
    <glyph glyph-name="uni1EC4" unicode="&#x1ec4;" horiz-adv-x="1684" 
d="M248 0v2048h1236v-220h-988v-692h924v-220h-924v-696h1004v-220h-1252zM956 2520l420 -336h-248l-268 212l-268 -212h-248l420 336h192zM1108 2872l112 -32q0 -81 -66 -148.5t-162 -67.5q-51 0 -86 14.5t-62.5 33.5t-57 33.5t-70.5 14.5q-42 0 -79 -32t-37 -68l-108 28
q0 81 64 150.5t160 69.5q42 0 76 -14t65 -32t63.5 -32t71.5 -14q42 0 79 30t37 66z" />
    <glyph glyph-name="uni1EC6" unicode="&#x1ec6;" horiz-adv-x="1684" 
d="M248 0v2048h1236v-220h-988v-692h924v-220h-924v-696h1004v-220h-1252zM656 2232h-224v16l324 416h216l324 -416v-16h-224l-208 280zM844 -508q-69 0 -118.5 47t-49.5 113t49.5 113t118.5 47t118.5 -47t49.5 -113t-49.5 -113t-118.5 -47z" />
    <glyph glyph-name="uni0246" unicode="&#x246;" horiz-adv-x="1684" 
d="M1412 2308l-740 -2568h-228l740 2568h228zM248 0v2048h1236v-220h-988v-692h924v-220h-924v-696h1004v-220h-1252z" />
    <glyph glyph-name="uni018E" unicode="&#x18e;" horiz-adv-x="1668" 
d="M1428 2048v-2048h-1236v220h988v692h-924v220h924v696h-1004v220h1252z" />
    <glyph glyph-name="uni0395" unicode="&#x395;" horiz-adv-x="1684" 
d="M248 0v2048h1236v-220h-988v-692h924v-220h-924v-696h1004v-220h-1252z" />
    <glyph glyph-name="uni0388" unicode="&#x388;" horiz-adv-x="1944" 
d="M508 0v2048h1236v-220h-988v-692h924v-220h-924v-696h1004v-220h-1252zM100 1708l68 468h256l-160 -468h-164z" />
    <glyph glyph-name="uni1F18" unicode="&#x1f18;" horiz-adv-x="2040" 
d="M604 0v2048h1236v-220h-988v-692h924v-220h-924v-696h1004v-220h-1252zM460 2048v-112q0 -80 -29 -151t-85 -130t-138 -103l-108 84q38 42 63 88t37 100t12 120v104h248z" />
    <glyph glyph-name="uni1F19" unicode="&#x1f19;" horiz-adv-x="2020" 
d="M584 0v2048h1236v-220h-988v-692h924v-220h-924v-696h1004v-220h-1252zM100 1936v112h248v-104q0 -66 12 -120t37 -100t63 -88l-108 -84q-120 66 -186 165t-66 219z" />
    <glyph glyph-name="uni1F1A" unicode="&#x1f1a;" horiz-adv-x="2592" 
d="M1156 0v2048h1236v-220h-988v-692h924v-220h-924v-696h1004v-220h-1252zM968 1604v-20h-128l-316 436v28h288zM460 2048v-112q0 -80 -29.5 -151t-86 -130t-136.5 -103l-108 84q54 63 83 136t29 172v104h248z" />
    <glyph glyph-name="uni1F1B" unicode="&#x1f1b;" horiz-adv-x="2488" 
d="M1052 0v2048h1236v-220h-988v-692h924v-220h-924v-696h1004v-220h-1252zM884 1604v-20h-128l-316 436v28h292zM100 1936v112h248v-104q0 -99 27.5 -172t84.5 -136l-108 -84q-120 66 -186 165t-66 219z" />
    <glyph glyph-name="uni1F1C" unicode="&#x1f1c;" horiz-adv-x="2468" 
d="M1032 0v2048h1236v-220h-988v-692h924v-220h-924v-696h1004v-220h-1252zM480 1584v20l156 444h288v-28l-316 -436h-128zM460 2048v-112q0 -80 -29.5 -151t-86 -130t-136.5 -103l-108 84q54 63 83 136t29 172v104h248z" />
    <glyph glyph-name="uni1F1D" unicode="&#x1f1d;" horiz-adv-x="2516" 
d="M1080 0v2048h1236v-220h-988v-692h924v-220h-924v-696h1004v-220h-1252zM512 1584v20l152 444h292v-28l-316 -436h-128zM100 1936v112h248v-104q0 -99 29 -172t83 -136l-108 -84q-120 66 -186 165t-66 219z" />
    <glyph glyph-name="uni1FC8" unicode="&#x1fc8;" horiz-adv-x="2164" 
d="M728 0v2048h1236v-220h-988v-692h924v-220h-924v-696h1004v-220h-1252zM544 1580h-128l-316 440v28h288l156 -444v-24z" />
    <glyph glyph-name="uni1FC9" unicode="&#x1fc9;" horiz-adv-x="2084" 
d="M648 0v2048h1236v-220h-988v-692h924v-220h-924v-696h1004v-220h-1252zM244 1728v24l152 444h292v-28l-316 -440h-128z" />
    <glyph glyph-name="uni0415" unicode="&#x415;" horiz-adv-x="1684" 
d="M248 0v2048h1236v-220h-988v-692h924v-220h-924v-696h1004v-220h-1252z" />
    <glyph glyph-name="uni0400" unicode="&#x400;" horiz-adv-x="1684" 
d="M248 0v2048h1236v-220h-988v-692h924v-220h-924v-696h1004v-220h-1252zM764 2256l-312 464h276l244 -464h-208z" />
    <glyph glyph-name="uni0401" unicode="&#x401;" horiz-adv-x="1684" 
d="M248 0v2048h1236v-220h-988v-692h924v-220h-924v-696h1004v-220h-1252zM576 2304q-63 0 -111.5 48.5t-48.5 111.5q0 69 48.5 114.5t111.5 45.5q69 0 114.5 -45.5t45.5 -114.5q0 -63 -45.5 -111.5t-114.5 -48.5zM1152 2304q-63 0 -111.5 48.5t-48.5 111.5q0 69 48.5 114.5
t111.5 45.5q69 0 114.5 -45.5t45.5 -114.5q0 -63 -45.5 -111.5t-114.5 -48.5z" />
    <glyph glyph-name="uni04D6" unicode="&#x4d6;" horiz-adv-x="1684" 
d="M248 0v2048h1236v-220h-988v-692h924v-220h-924v-696h1004v-220h-1252zM1060 2560h220q0 -162 -112 -265t-304 -103q-189 0 -300.5 103t-111.5 265h220q0 -78 43.5 -137t148.5 -59t150.5 59t45.5 137z" />
    <glyph glyph-name="uni0046" unicode="F" horiz-adv-x="1652" 
d="M248 0v2048h1228v-220h-980v-692h888v-220h-888v-916h-248z" />
    <glyph glyph-name="uni0191" unicode="&#x191;" horiz-adv-x="1652" 
d="M248 0h248v-164q0 -99 -30 -175.5t-88.5 -129.5t-146 -80t-203.5 -27q-12 0 -21.5 1.5t-54.5 10.5v204q15 -3 35 -5.5t41 -2.5q96 0 158 44t62 164v160zM248 0v2048h1228v-220h-980v-692h888v-220h-888v-916h-248z" />
    <glyph glyph-name="uni1E1E" unicode="&#x1e1e;" horiz-adv-x="1652" 
d="M248 0v2048h1228v-220h-980v-692h888v-220h-888v-916h-248zM888 2304q-69 0 -118.5 47t-49.5 113t49.5 113t118.5 47t118.5 -47t49.5 -113t-49.5 -113t-118.5 -47z" />
    <glyph glyph-name="uni2132" unicode="&#x2132;" horiz-adv-x="1652" 
d="M1404 2048v-2048h-1228v220h980v692h-888v220h888v916h248z" />
    <glyph glyph-name="uni0047" unicode="G" horiz-adv-x="2092" 
d="M1648 1408q-33 101 -86.5 181.5t-127 137.5t-166.5 87t-204 30q-182 0 -331 -94t-237 -277t-88 -449t89 -449t241 -277t342 -94q176 0 310.5 75.5t210 214t75.5 326.5l76 -16h-616v220h780v-220q0 -253 -107.5 -440t-296 -289.5t-432.5 -102.5q-272 0 -477.5 128
t-320 364t-114.5 560q0 243 65.5 437.5t185.5 331.5t284 210t361 73q162 0 302.5 -48.5t251 -137t184.5 -211t102 -271.5h-256z" />
    <glyph glyph-name="uni01E4" unicode="&#x1e4;" horiz-adv-x="2092" 
d="M2056 624v-200h-920v200h920zM1648 1408q-33 101 -86.5 181.5t-127 137.5t-166.5 87t-204 30q-182 0 -331 -94t-237 -277t-88 -449t89 -449t241 -277t342 -94q176 0 310.5 75.5t210 214t75.5 326.5l76 -16h-616v220h780v-220q0 -253 -107.5 -440t-296 -289.5
t-432.5 -102.5q-272 0 -477.5 128t-320 364t-114.5 560q0 243 65.5 437.5t185.5 331.5t284 210t361 73q162 0 302.5 -48.5t251 -137t184.5 -211t102 -271.5h-256z" />
    <glyph glyph-name="uni0193" unicode="&#x193;" horiz-adv-x="2176" 
d="M1900 1408h-252l12 216q6 99 34 175.5t78 129.5t123 80t169 27q36 0 72.5 -1.5t63.5 -10.5v-200q-15 3 -35 5.5t-41 2.5q-64 0 -114.5 -18.5t-80 -64t-29.5 -125.5v-216zM1648 1408q-33 101 -86.5 181.5t-127 137.5t-166.5 87t-204 30q-182 0 -331 -94t-237 -277
t-88 -449t89 -449t241 -277t342 -94q176 0 310.5 75.5t210 214t75.5 326.5l76 -16h-616v220h780v-220q0 -253 -107.5 -440t-296 -289.5t-432.5 -102.5q-272 0 -477.5 128t-320 364t-114.5 560q0 243 65.5 437.5t185.5 331.5t284 210t361 73q162 0 302.5 -48.5t251 -137
t184.5 -211t102 -271.5h-256z" />
    <glyph glyph-name="uni011C" unicode="&#x11c;" horiz-adv-x="2092" 
d="M1648 1408q-33 101 -86.5 181.5t-127 137.5t-166.5 87t-204 30q-182 0 -331 -94t-237 -277t-88 -449t89 -449t241 -277t342 -94q176 0 310.5 75.5t210 214t75.5 326.5l76 -16h-616v220h780v-220q0 -253 -107.5 -440t-296 -289.5t-432.5 -102.5q-272 0 -477.5 128
t-320 364t-114.5 560q0 243 65.5 437.5t185.5 331.5t284 210t361 73q162 0 302.5 -48.5t251 -137t184.5 -211t102 -271.5h-256zM856 2232h-224v16l324 416h216l324 -416v-16h-224l-208 280z" />
    <glyph glyph-name="uni011E" unicode="&#x11e;" horiz-adv-x="2092" 
d="M1648 1408q-33 101 -86.5 181.5t-127 137.5t-166.5 87t-204 30q-182 0 -331 -94t-237 -277t-88 -449t89 -449t241 -277t342 -94q176 0 310.5 75.5t210 214t75.5 326.5l76 -16h-616v220h780v-220q0 -253 -107.5 -440t-296 -289.5t-432.5 -102.5q-272 0 -477.5 128
t-320 364t-114.5 560q0 243 65.5 437.5t185.5 331.5t284 210t361 73q162 0 302.5 -48.5t251 -137t184.5 -211t102 -271.5h-256zM1260 2560h220q0 -162 -112 -265t-304 -103q-189 0 -300.5 103t-111.5 265h220q0 -78 43.5 -137t148.5 -59t150.5 59t45.5 137z" />
    <glyph glyph-name="uni0120" unicode="&#x120;" horiz-adv-x="2092" 
d="M1648 1408q-33 101 -86.5 181.5t-127 137.5t-166.5 87t-204 30q-182 0 -331 -94t-237 -277t-88 -449t89 -449t241 -277t342 -94q176 0 310.5 75.5t210 214t75.5 326.5l76 -16h-616v220h780v-220q0 -253 -107.5 -440t-296 -289.5t-432.5 -102.5q-272 0 -477.5 128
t-320 364t-114.5 560q0 243 65.5 437.5t185.5 331.5t284 210t361 73q162 0 302.5 -48.5t251 -137t184.5 -211t102 -271.5h-256zM1064 2304q-69 0 -118.5 47t-49.5 113t49.5 113t118.5 47t118.5 -47t49.5 -113t-49.5 -113t-118.5 -47z" />
    <glyph glyph-name="uni0122" unicode="&#x122;" horiz-adv-x="2092" 
d="M1648 1408q-33 101 -86.5 181.5t-127 137.5t-166.5 87t-204 30q-182 0 -331 -94t-237 -277t-88 -449t89 -449t241 -277t342 -94q176 0 310.5 75.5t210 214t75.5 326.5l76 -16h-616v220h780v-220q0 -253 -107.5 -440t-296 -289.5t-432.5 -102.5q-272 0 -477.5 128
t-320 364t-114.5 560q0 243 65.5 437.5t185.5 331.5t284 210t361 73q162 0 302.5 -48.5t251 -137t184.5 -211t102 -271.5h-256zM826 -680l112 518h242l-170 -518h-184z" />
    <glyph glyph-name="uni01E6" unicode="&#x1e6;" horiz-adv-x="2092" 
d="M1648 1408q-33 101 -86.5 181.5t-127 137.5t-166.5 87t-204 30q-182 0 -331 -94t-237 -277t-88 -449t89 -449t241 -277t342 -94q176 0 310.5 75.5t210 214t75.5 326.5l76 -16h-616v220h780v-220q0 -253 -107.5 -440t-296 -289.5t-432.5 -102.5q-272 0 -477.5 128
t-320 364t-114.5 560q0 243 65.5 437.5t185.5 331.5t284 210t361 73q162 0 302.5 -48.5t251 -137t184.5 -211t102 -271.5h-256zM856 2664l208 -280l208 280h224v-16l-324 -416h-216l-324 416v16h224z" />
    <glyph glyph-name="uni01F4" unicode="&#x1f4;" horiz-adv-x="2092" 
d="M1648 1408q-33 101 -86.5 181.5t-127 137.5t-166.5 87t-204 30q-182 0 -331 -94t-237 -277t-88 -449t89 -449t241 -277t342 -94q176 0 310.5 75.5t210 214t75.5 326.5l76 -16h-616v220h780v-220q0 -253 -107.5 -440t-296 -289.5t-432.5 -102.5q-272 0 -477.5 128
t-320 364t-114.5 560q0 243 65.5 437.5t185.5 331.5t284 210t361 73q162 0 302.5 -48.5t251 -137t184.5 -211t102 -271.5h-256zM956 2256l244 464h276l-312 -464h-208z" />
    <glyph glyph-name="uni1E20" unicode="&#x1e20;" horiz-adv-x="2092" 
d="M1648 1408q-33 101 -86.5 181.5t-127 137.5t-166.5 87t-204 30q-182 0 -331 -94t-237 -277t-88 -449t89 -449t241 -277t342 -94q176 0 310.5 75.5t210 214t75.5 326.5l76 -16h-616v220h780v-220q0 -253 -107.5 -440t-296 -289.5t-432.5 -102.5q-272 0 -477.5 128
t-320 364t-114.5 560q0 243 65.5 437.5t185.5 331.5t284 210t361 73q162 0 302.5 -48.5t251 -137t184.5 -211t102 -271.5h-256zM1532 2560v-200h-936v200h936z" />
    <glyph glyph-name="uniE002" unicode="&#xe002;" horiz-adv-x="2112" 
d="M1080 -28q-272 0 -477.5 128t-320 364t-114.5 560q0 243 67 437.5t188.5 331.5t287 210t361.5 73q162 0 304 -48.5t255.5 -137t189 -211t103.5 -271.5h-256q-31 101 -86 181.5t-132 137.5t-172 87t-206 30q-182 0 -333 -94t-241 -277t-90 -449t89 -449t241 -277t342 -94
q183 0 321.5 80.5t216.5 222t78 323.5l32 -26h-592v220h800v-1024h-208l-30 250h-10q-117 -134 -261 -206t-347 -72z" />
    <glyph glyph-name="uniE003" unicode="&#xe003;" horiz-adv-x="2112" 
d="M2076 624v-200h-940v200h940zM1080 -28q-272 0 -477.5 128t-320 364t-114.5 560q0 243 67 437.5t188.5 331.5t287 210t361.5 73q162 0 304 -48.5t255.5 -137t189 -211t103.5 -271.5h-256q-31 101 -86 181.5t-132 137.5t-172 87t-206 30q-182 0 -333 -94t-241 -277
t-90 -449t89 -449t241 -277t342 -94q183 0 321.5 80.5t216.5 222t78 323.5l32 -26h-592v220h800v-1024h-208l-30 250h-10q-117 -134 -261 -206t-347 -72z" />
    <glyph glyph-name="uniE004" unicode="&#xe004;" horiz-adv-x="2176" 
d="M1924 1408h-252l12 216q6 99 33.5 175.5t78 129.5t123.5 80t169 27q36 0 72.5 -1.5t63.5 -10.5v-200q-15 3 -35 5.5t-41 2.5q-64 0 -114.5 -18.5t-80 -64t-29.5 -125.5v-216zM1080 -28q-272 0 -477.5 128t-320 364t-114.5 560q0 243 67 437.5t188.5 331.5t287 210
t361.5 73q162 0 304 -48.5t255.5 -137t189 -211t103.5 -271.5h-256q-31 101 -86 181.5t-132 137.5t-172 87t-206 30q-182 0 -333 -94t-241 -277t-90 -449t89 -449t241 -277t342 -94q183 0 321.5 80.5t216.5 222t78 323.5l32 -26h-592v220h800v-1024h-208l-30 250h-10
q-117 -134 -261 -206t-347 -72z" />
    <glyph glyph-name="uniE005" unicode="&#xe005;" horiz-adv-x="2112" 
d="M1080 -28q-272 0 -477.5 128t-320 364t-114.5 560q0 243 67 437.5t188.5 331.5t287 210t361.5 73q162 0 304 -48.5t255.5 -137t189 -211t103.5 -271.5h-256q-31 101 -86 181.5t-132 137.5t-172 87t-206 30q-182 0 -333 -94t-241 -277t-90 -449t89 -449t241 -277t342 -94
q183 0 321.5 80.5t216.5 222t78 323.5l32 -26h-592v220h800v-1024h-208l-30 250h-10q-117 -134 -261 -206t-347 -72zM856 2232h-224v16l324 416h216l324 -416v-16h-224l-208 280z" />
    <glyph glyph-name="uniE006" unicode="&#xe006;" horiz-adv-x="2112" 
d="M1080 -28q-272 0 -477.5 128t-320 364t-114.5 560q0 243 67 437.5t188.5 331.5t287 210t361.5 73q162 0 304 -48.5t255.5 -137t189 -211t103.5 -271.5h-256q-31 101 -86 181.5t-132 137.5t-172 87t-206 30q-182 0 -333 -94t-241 -277t-90 -449t89 -449t241 -277t342 -94
q183 0 321.5 80.5t216.5 222t78 323.5l32 -26h-592v220h800v-1024h-208l-30 250h-10q-117 -134 -261 -206t-347 -72zM1260 2560h220q0 -162 -112 -265t-304 -103q-189 0 -300.5 103t-111.5 265h220q0 -78 43.5 -137t148.5 -59t150.5 59t45.5 137z" />
    <glyph glyph-name="uniE007" unicode="&#xe007;" horiz-adv-x="2112" 
d="M1080 -28q-272 0 -477.5 128t-320 364t-114.5 560q0 243 67 437.5t188.5 331.5t287 210t361.5 73q162 0 304 -48.5t255.5 -137t189 -211t103.5 -271.5h-256q-31 101 -86 181.5t-132 137.5t-172 87t-206 30q-182 0 -333 -94t-241 -277t-90 -449t89 -449t241 -277t342 -94
q183 0 321.5 80.5t216.5 222t78 323.5l32 -26h-592v220h800v-1024h-208l-30 250h-10q-117 -134 -261 -206t-347 -72zM1064 2304q-69 0 -118.5 47t-49.5 113t49.5 113t118.5 47t118.5 -47t49.5 -113t-49.5 -113t-118.5 -47z" />
    <glyph glyph-name="uniE008" unicode="&#xe008;" horiz-adv-x="2112" 
d="M1080 -28q-272 0 -477.5 128t-320 364t-114.5 560q0 243 67 437.5t188.5 331.5t287 210t361.5 73q162 0 304 -48.5t255.5 -137t189 -211t103.5 -271.5h-256q-31 101 -86 181.5t-132 137.5t-172 87t-206 30q-182 0 -333 -94t-241 -277t-90 -449t89 -449t241 -277t342 -94
q183 0 321.5 80.5t216.5 222t78 323.5l32 -26h-592v220h800v-1024h-208l-30 250h-10q-117 -134 -261 -206t-347 -72zM826 -680l112 518h242l-170 -518h-184z" />
    <glyph glyph-name="uniE009" unicode="&#xe009;" horiz-adv-x="2112" 
d="M1080 -28q-272 0 -477.5 128t-320 364t-114.5 560q0 243 67 437.5t188.5 331.5t287 210t361.5 73q162 0 304 -48.5t255.5 -137t189 -211t103.5 -271.5h-256q-31 101 -86 181.5t-132 137.5t-172 87t-206 30q-182 0 -333 -94t-241 -277t-90 -449t89 -449t241 -277t342 -94
q183 0 321.5 80.5t216.5 222t78 323.5l32 -26h-592v220h800v-1024h-208l-30 250h-10q-117 -134 -261 -206t-347 -72zM856 2664l208 -280l208 280h224v-16l-324 -416h-216l-324 416v16h224z" />
    <glyph glyph-name="uniE00A" unicode="&#xe00a;" horiz-adv-x="2112" 
d="M1080 -28q-272 0 -477.5 128t-320 364t-114.5 560q0 243 67 437.5t188.5 331.5t287 210t361.5 73q162 0 304 -48.5t255.5 -137t189 -211t103.5 -271.5h-256q-31 101 -86 181.5t-132 137.5t-172 87t-206 30q-182 0 -333 -94t-241 -277t-90 -449t89 -449t241 -277t342 -94
q183 0 321.5 80.5t216.5 222t78 323.5l32 -26h-592v220h800v-1024h-208l-30 250h-10q-117 -134 -261 -206t-347 -72zM956 2256l244 464h276l-312 -464h-208z" />
    <glyph glyph-name="uniE00B" unicode="&#xe00b;" horiz-adv-x="2112" 
d="M1080 -28q-272 0 -477.5 128t-320 364t-114.5 560q0 243 67 437.5t188.5 331.5t287 210t361.5 73q162 0 304 -48.5t255.5 -137t189 -211t103.5 -271.5h-256q-31 101 -86 181.5t-132 137.5t-172 87t-206 30q-182 0 -333 -94t-241 -277t-90 -449t89 -449t241 -277t342 -94
q183 0 321.5 80.5t216.5 222t78 323.5l32 -26h-592v220h800v-1024h-208l-30 250h-10q-117 -134 -261 -206t-347 -72zM1532 2560v-200h-936v200h936z" />
    <glyph glyph-name="uni0048" unicode="H" horiz-adv-x="2084" 
d="M248 0v2048h248v-912h1092v912h248v-2048h-248v916h-1092v-916h-248z" />
    <glyph glyph-name="uni1E28" unicode="&#x1e28;" horiz-adv-x="2084" 
d="M248 0v2048h248v-912h1092v912h248v-2048h-248v916h-1092v-916h-248zM300 4h196l-16 -80q78 -12 143 -65.5t65 -170.5q0 -129 -106.5 -210.5t-313.5 -81.5l-8 156q93 0 154.5 29.5t61.5 98.5t-51 94t-165 34z" />
    <glyph glyph-name="uni0124" unicode="&#x124;" horiz-adv-x="2084" 
d="M248 0v2048h248v-912h1092v912h248v-2048h-248v916h-1092v-916h-248zM844 2236h-224v16l324 416h216l324 -416v-16h-224l-208 280z" />
    <glyph glyph-name="uni021E" unicode="&#x21e;" horiz-adv-x="2084" 
d="M248 0v2048h248v-912h1092v912h248v-2048h-248v916h-1092v-916h-248zM844 2668l208 -280l208 280h224v-16l-324 -416h-216l-324 416v16h224z" />
    <glyph glyph-name="uni1E22" unicode="&#x1e22;" horiz-adv-x="2084" 
d="M248 0v2048h248v-912h1092v912h248v-2048h-248v916h-1092v-916h-248zM1052 2308q-69 0 -118.5 47t-49.5 113t49.5 113t118.5 47t118.5 -47t49.5 -113t-49.5 -113t-118.5 -47z" />
    <glyph glyph-name="uni1E24" unicode="&#x1e24;" horiz-adv-x="2084" 
d="M248 0v2048h248v-912h1092v912h248v-2048h-248v916h-1092v-916h-248zM1040 -508q-69 0 -118.5 47t-49.5 113t49.5 113t118.5 47t118.5 -47t49.5 -113t-49.5 -113t-118.5 -47z" />
    <glyph glyph-name="uni1E26" unicode="&#x1e26;" horiz-adv-x="2084" 
d="M248 0v2048h248v-912h1092v912h248v-2048h-248v916h-1092v-916h-248zM764 2308q-63 0 -111.5 48.5t-48.5 111.5q0 69 48.5 114.5t111.5 45.5q69 0 114.5 -45.5t45.5 -114.5q0 -63 -45.5 -111.5t-114.5 -48.5zM1340 2308q-63 0 -111.5 48.5t-48.5 111.5q0 69 48.5 114.5
t111.5 45.5q69 0 114.5 -45.5t45.5 -114.5q0 -63 -45.5 -111.5t-114.5 -48.5z" />
    <glyph glyph-name="uni1E2A" unicode="&#x1e2a;" horiz-adv-x="2084" 
d="M248 0v2048h248v-912h1092v912h248v-2048h-248v916h-1092v-916h-248zM1232 -132h220q0 -110 -50.5 -194t-143 -131t-218.5 -47q-192 0 -304 106.5t-112 265.5h220q0 -81 45 -140.5t147 -59.5q105 0 150.5 61t45.5 139z" />
    <glyph glyph-name="uni0126" unicode="&#x126;" horiz-adv-x="2188" 
d="M2052 1616v-208h-1916v208h1916zM300 0v2048h248v-912h1092v912h248v-2048h-248v916h-1092v-916h-248z" />
    <glyph glyph-name="uni04C7" unicode="&#x4c7;" horiz-adv-x="2084" 
d="M1588 0h248v-164q0 -79 -20.5 -144t-58.5 -115t-89 -84t-112 -51.5t-128 -17.5q-36 0 -72.5 1.5t-63.5 10.5v204q15 -3 35 -5.5t41 -2.5q64 0 113.5 18.5t78 64t28.5 125.5v160zM248 0v2048h248v-912h1092v912h248v-2048h-248v916h-1092v-916h-248z" />
    <glyph glyph-name="uni04A2" unicode="&#x4a2;" horiz-adv-x="2160" 
d="M248 0v2048h248v-912h1092v912h248v-2048h-248v916h-1092v-916h-248zM2048 220v-716h-236v716h236z" />
    <glyph glyph-name="uni04C9" unicode="&#x4c9;" horiz-adv-x="2184" 
d="M248 0v2048h248v-912h1092v912h248v-2048h-248v916h-1092v-916h-248zM2072 156v-188q-2 -88 -19 -172t-51 -165t-86 -159l-200 40q34 80 61 154.5t43 148t16 149.5v192h236z" />
    <glyph glyph-name="uni04A4" unicode="&#x4a4;" horiz-adv-x="2776" 
d="M2640 2048v-220h-804v-1828h-248v916h-1092v-916h-248v2048h248v-912h1092v912h1052z" />
    <glyph glyph-name="uni01F6" unicode="&#x1f6;" horiz-adv-x="3136" 
d="M2260 -28q-200 0 -351.5 76.5t-236 227t-84.5 372.5v268h-1092v-916h-248v2048h248v-912h1092v912h248v-1400q0 -231 111.5 -339.5t312.5 -108.5t306.5 108.5t105.5 339.5v888h248v-888q0 -226 -84 -376t-233 -225t-343 -75z" />
    <glyph glyph-name="uni0397" unicode="&#x397;" horiz-adv-x="2084" 
d="M248 0v2048h248v-912h1092v912h248v-2048h-248v916h-1092v-916h-248z" />
    <glyph glyph-name="uni0389" unicode="&#x389;" horiz-adv-x="2428" 
d="M592 0v2048h248v-912h1092v912h248v-2048h-248v916h-1092v-916h-248zM200 1708l68 468h256l-160 -468h-164z" />
    <glyph glyph-name="uni1F28" unicode="&#x1f28;" horiz-adv-x="2524" 
d="M688 0v2048h248v-912h1092v912h248v-2048h-248v916h-1092v-916h-248zM560 2048v-112q0 -80 -29 -151t-85 -130t-138 -103l-108 84q38 42 63 88t37 100t12 120v104h248z" />
    <glyph glyph-name="uni1F29" unicode="&#x1f29;" horiz-adv-x="2504" 
d="M668 0v2048h248v-912h1092v912h248v-2048h-248v916h-1092v-916h-248zM200 1936v112h248v-104q0 -66 12 -120t37 -100t63 -88l-108 -84q-120 66 -186 165t-66 219z" />
    <glyph glyph-name="uni1F2A" unicode="&#x1f2a;" horiz-adv-x="3076" 
d="M1240 0v2048h248v-912h1092v912h248v-2048h-248v916h-1092v-916h-248zM1068 1604v-20h-128l-316 436v28h288zM560 2048v-112q0 -80 -29.5 -151t-86 -130t-136.5 -103l-108 84q54 63 83 136t29 172v104h248z" />
    <glyph glyph-name="uni1F2B" unicode="&#x1f2b;" horiz-adv-x="2972" 
d="M1136 0v2048h248v-912h1092v912h248v-2048h-248v916h-1092v-916h-248zM984 1604v-20h-128l-316 436v28h292zM200 1936v112h248v-104q0 -99 27.5 -172t84.5 -136l-108 -84q-120 66 -186 165t-66 219z" />
    <glyph glyph-name="uni1F2C" unicode="&#x1f2c;" horiz-adv-x="2952" 
d="M1116 0v2048h248v-912h1092v912h248v-2048h-248v916h-1092v-916h-248zM580 1584v20l156 444h288v-28l-316 -436h-128zM560 2048v-112q0 -80 -29.5 -151t-86 -130t-136.5 -103l-108 84q54 63 83 136t29 172v104h248z" />
    <glyph glyph-name="uni1F2D" unicode="&#x1f2d;" horiz-adv-x="3000" 
d="M1164 0v2048h248v-912h1092v912h248v-2048h-248v916h-1092v-916h-248zM612 1584v20l152 444h292v-28l-316 -436h-128zM200 1936v112h248v-104q0 -99 29 -172t83 -136l-108 -84q-120 66 -186 165t-66 219z" />
    <glyph glyph-name="uni1F2E" unicode="&#x1f2e;" horiz-adv-x="2792" 
d="M956 0v2048h248v-912h1092v912h248v-2048h-248v916h-1092v-916h-248zM844 2372l120 -36q0 -99 -65 -173.5t-167 -74.5q-55 0 -93.5 15t-69 35t-63.5 35t-78 15t-76.5 -34.5t-31.5 -85.5l-120 32q0 99 63 177.5t165 78.5q47 0 84 -15.5t71 -36.5t70 -36.5t79 -15.5
q45 0 78.5 34.5t33.5 85.5zM712 2020v-96q0 -78 -42 -167t-126 -149l-120 68q42 57 61 116t19 128v100h208z" />
    <glyph glyph-name="uni1F2F" unicode="&#x1f2f;" horiz-adv-x="2804" 
d="M968 0v2048h248v-912h1092v912h248v-2048h-248v916h-1092v-916h-248zM492 1924v96h208v-100q0 -69 19 -128t61 -116l-124 -68q-84 60 -124 149t-40 167zM844 2372l120 -36q0 -99 -65 -173.5t-167 -74.5q-55 0 -93.5 15t-69 35t-63.5 35t-78 15t-76.5 -34.5t-31.5 -85.5
l-120 32q0 99 63 177.5t165 78.5q47 0 84 -15.5t71 -36.5t70 -36.5t79 -15.5q45 0 78.5 34.5t33.5 85.5z" />
    <glyph glyph-name="uni1FCA" unicode="&#x1fca;" horiz-adv-x="2648" 
d="M812 0v2048h248v-912h1092v912h248v-2048h-248v916h-1092v-916h-248zM644 1580h-128l-316 440v28h288l156 -444v-24z" />
    <glyph glyph-name="uni1FCB" unicode="&#x1fcb;" horiz-adv-x="2568" 
d="M732 0v2048h248v-912h1092v912h248v-2048h-248v916h-1092v-916h-248zM344 1728v24l152 444h292v-28l-316 -440h-128z" />
    <glyph glyph-name="uni041D" unicode="&#x41d;" horiz-adv-x="2084" 
d="M248 0v2048h248v-912h1092v912h248v-2048h-248v916h-1092v-916h-248z" />
    <glyph glyph-name="uni1F98" unicode="&#x1f98;" horiz-adv-x="2424" 
d="M588 0v2048h248v-912h1092v912h248v-2048h-248v916h-1092v-916h-248zM1508 -680q-102 0 -167 60.5t-65 195.5v304h208v-300q0 -60 19 -84t49 -24q15 0 33 2t27 2v-140q-15 -6 -40 -11t-64 -5zM460 2048v-112q0 -80 -29 -151t-85 -130t-138 -103l-108 84q38 42 63 88
t37 100t12 120v104h248z" />
    <glyph glyph-name="uni1F99" unicode="&#x1f99;" horiz-adv-x="2504" 
d="M668 0v2048h248v-912h1092v912h248v-2048h-248v916h-1092v-916h-248zM1588 -680q-102 0 -167 60.5t-65 195.5v304h208v-300q0 -60 19 -84t49 -24q15 0 33 2t27 2v-140q-15 -6 -40 -11t-64 -5zM200 1936v112h248v-104q0 -66 12 -120t37 -100t63 -88l-108 -84
q-120 66 -186 165t-66 219z" />
    <glyph glyph-name="uni1F9A" unicode="&#x1f9a;" horiz-adv-x="3076" 
d="M1240 0v2048h248v-912h1092v912h248v-2048h-248v916h-1092v-916h-248zM2160 -680q-102 0 -167 60.5t-65 195.5v304h208v-300q0 -60 19 -84t49 -24q15 0 33 2t27 2v-140q-15 -6 -40 -11t-64 -5zM1068 1604v-20h-128l-316 436v28h288zM560 2048v-112q0 -80 -29.5 -151
t-86 -130t-136.5 -103l-108 84q54 63 83 136t29 172v104h248z" />
    <glyph glyph-name="uni1F9B" unicode="&#x1f9b;" horiz-adv-x="2972" 
d="M1136 0v2048h248v-912h1092v912h248v-2048h-248v916h-1092v-916h-248zM2056 -680q-102 0 -167 60.5t-65 195.5v304h208v-300q0 -60 19 -84t49 -24q15 0 33 2t27 2v-140q-15 -6 -40 -11t-64 -5zM984 1604v-20h-128l-316 436v28h292zM200 1936v112h248v-104
q0 -99 27.5 -172t84.5 -136l-108 -84q-120 66 -186 165t-66 219z" />
    <glyph glyph-name="uni1F9C" unicode="&#x1f9c;" horiz-adv-x="2952" 
d="M1116 0v2048h248v-912h1092v912h248v-2048h-248v916h-1092v-916h-248zM2036 -680q-102 0 -167 60.5t-65 195.5v304h208v-300q0 -60 19 -84t49 -24q15 0 33 2t27 2v-140q-15 -6 -40 -11t-64 -5zM580 1584v20l156 444h288v-28l-316 -436h-128zM560 2048v-112
q0 -80 -29.5 -151t-86 -130t-136.5 -103l-108 84q54 63 83 136t29 172v104h248z" />
    <glyph glyph-name="uni1F9D" unicode="&#x1f9d;" horiz-adv-x="3000" 
d="M1164 0v2048h248v-912h1092v912h248v-2048h-248v916h-1092v-916h-248zM2084 -680q-102 0 -167 60.5t-65 195.5v304h208v-300q0 -60 19 -84t49 -24q15 0 33 2t27 2v-140q-15 -6 -40 -11t-64 -5zM612 1584v20l152 444h292v-28l-316 -436h-128zM200 1936v112h248v-104
q0 -99 29 -172t83 -136l-108 -84q-120 66 -186 165t-66 219z" />
    <glyph glyph-name="uni1F9E" unicode="&#x1f9e;" horiz-adv-x="2792" 
d="M956 0v2048h248v-912h1092v912h248v-2048h-248v916h-1092v-916h-248zM1876 -680q-102 0 -167 60.5t-65 195.5v304h208v-300q0 -60 19 -84t49 -24q15 0 33 2t27 2v-140q-15 -6 -40 -11t-64 -5zM844 2372l120 -36q0 -99 -65 -173.5t-167 -74.5q-55 0 -93.5 15t-69 35
t-63.5 35t-78 15t-76.5 -34.5t-31.5 -85.5l-120 32q0 99 63 177.5t165 78.5q47 0 84 -15.5t71 -36.5t70 -36.5t79 -15.5q45 0 78.5 34.5t33.5 85.5zM712 2020v-96q0 -78 -42 -167t-126 -149l-120 68q42 57 61 116t19 128v100h208z" />
    <glyph glyph-name="uni1F9F" unicode="&#x1f9f;" horiz-adv-x="2804" 
d="M968 0v2048h248v-912h1092v912h248v-2048h-248v916h-1092v-916h-248zM1888 -680q-102 0 -167 60.5t-65 195.5v304h208v-300q0 -60 19 -84t49 -24q15 0 33 2t27 2v-140q-15 -6 -40 -11t-64 -5zM492 1924v96h208v-100q0 -69 19 -128t61 -116l-124 -68q-84 60 -124 149
t-40 167zM844 2372l120 -36q0 -99 -65 -173.5t-167 -74.5q-55 0 -93.5 15t-69 35t-63.5 35t-78 15t-76.5 -34.5t-31.5 -85.5l-120 32q0 99 63 177.5t165 78.5q47 0 84 -15.5t71 -36.5t70 -36.5t79 -15.5q45 0 78.5 34.5t33.5 85.5z" />
    <glyph glyph-name="uni1FCC" unicode="&#x1fcc;" horiz-adv-x="2084" 
d="M248 0v2048h248v-912h1092v912h248v-2048h-248v916h-1092v-916h-248zM1168 -680q-102 0 -167 60.5t-65 195.5v304h208v-300q0 -60 19 -84t49 -24q15 0 33 2t27 2v-140q-15 -6 -40 -11t-64 -5z" />
    <glyph glyph-name="uni0049" unicode="I" horiz-adv-x="744" 
d="M496 2048v-2048h-248v2048h248z" />
    <glyph glyph-name="uni00CF" unicode="&#xcf;" horiz-adv-x="744" 
d="M496 2048v-2048h-248v2048h248zM84 2304q-63 0 -111.5 48.5t-48.5 111.5q0 69 48.5 114.5t111.5 45.5q69 0 114.5 -45.5t45.5 -114.5q0 -63 -45.5 -111.5t-114.5 -48.5zM660 2304q-63 0 -111.5 48.5t-48.5 111.5q0 69 48.5 114.5t111.5 45.5q69 0 114.5 -45.5
t45.5 -114.5q0 -63 -45.5 -111.5t-114.5 -48.5z" />
    <glyph glyph-name="uni1E2E" unicode="&#x1e2e;" horiz-adv-x="744" 
d="M496 2048v-2048h-248v2048h248zM268 2672l292 304h276l-360 -304h-208zM84 2208q-63 0 -111.5 48.5t-48.5 111.5q0 69 48.5 114.5t111.5 45.5q69 0 114.5 -45.5t45.5 -114.5q0 -63 -45.5 -111.5t-114.5 -48.5zM660 2208q-63 0 -111.5 48.5t-48.5 111.5q0 69 48.5 114.5
t111.5 45.5q69 0 114.5 -45.5t45.5 -114.5q0 -63 -45.5 -111.5t-114.5 -48.5z" />
    <glyph glyph-name="uni0197" unicode="&#x197;" horiz-adv-x="744" 
d="M496 2048v-2048h-248v2048h248zM-68 964v184h880v-184h-880z" />
    <glyph glyph-name="uni1E2C" unicode="&#x1e2c;" horiz-adv-x="744" 
d="M496 2048v-2048h-248v2048h248zM144 -508l-184 8q0 153 87.5 250.5t216.5 97.5q57 0 101 -19.5t84 -44.5t82.5 -44.5t96.5 -19.5q57 0 96.5 44.5t39.5 107.5l180 -16q0 -156 -87.5 -248t-216.5 -92q-69 0 -114 19.5t-80 44.5t-74 44.5t-96 19.5t-94.5 -44.5t-37.5 -107.5
z" />
    <glyph glyph-name="uni00CC" unicode="&#xcc;" horiz-adv-x="744" 
d="M496 2048v-2048h-248v2048h248zM272 2256l-312 464h276l244 -464h-208z" />
    <glyph glyph-name="uni00CD" unicode="&#xcd;" horiz-adv-x="744" 
d="M496 2048v-2048h-248v2048h248zM264 2256l244 464h276l-312 -464h-208z" />
    <glyph glyph-name="uni00CE" unicode="&#xce;" horiz-adv-x="744" 
d="M496 2048v-2048h-248v2048h248zM164 2232h-224v16l324 416h216l324 -416v-16h-224l-208 280z" />
    <glyph glyph-name="uni0128" unicode="&#x128;" horiz-adv-x="1248" 
d="M748 2048v-2048h-248v2048h248zM316 2232l-184 8q0 153 87.5 250.5t216.5 97.5q57 0 101 -19.5t84 -44.5t82.5 -44.5t96.5 -19.5q57 0 96.5 44.5t39.5 107.5l180 -16q0 -156 -87.5 -248t-216.5 -92q-69 0 -114 19.5t-80 44.5t-74 44.5t-96 19.5t-94.5 -44.5t-37.5 -107.5
z" />
    <glyph glyph-name="uni012A" unicode="&#x12a;" horiz-adv-x="744" 
d="M496 2048v-2048h-248v2048h248zM840 2560v-200h-936v200h936z" />
    <glyph glyph-name="uni012C" unicode="&#x12c;" horiz-adv-x="744" 
d="M496 2048v-2048h-248v2048h248zM568 2560h220q0 -162 -112 -265t-304 -103q-189 0 -300.5 103t-111.5 265h220q0 -78 43.5 -137t148.5 -59t150.5 59t45.5 137z" />
    <glyph glyph-name="uni012E" unicode="&#x12e;" horiz-adv-x="744" 
d="M496 2048v-2048h-248v2048h248zM308 -600q-123 0 -203.5 67.5t-80.5 196.5q0 74 36 148t116 143t212 129l108 -84q-90 -66 -161 -140t-71 -164q0 -45 22 -70.5t82 -25.5q45 0 80 12t56 24l16 -176q-33 -21 -86.5 -40.5t-125.5 -19.5z" />
    <glyph glyph-name="uni0130" unicode="&#x130;" horiz-adv-x="744" 
d="M496 2048v-2048h-248v2048h248zM372 2304q-69 0 -118.5 47t-49.5 113t49.5 113t118.5 47t118.5 -47t49.5 -113t-49.5 -113t-118.5 -47z" />
    <glyph glyph-name="uni01CF" unicode="&#x1cf;" horiz-adv-x="744" 
d="M496 2048v-2048h-248v2048h248zM164 2664l208 -280l208 280h224v-16l-324 -416h-216l-324 416v16h224z" />
    <glyph glyph-name="uni0208" unicode="&#x208;" horiz-adv-x="744" 
d="M496 2048v-2048h-248v2048h248zM62 2256l-330 464h294l244 -464h-208zM486 2256l-244 464h300l150 -464h-206z" />
    <glyph glyph-name="uni020A" unicode="&#x20a;" horiz-adv-x="744" 
d="M496 2048v-2048h-248v2048h248zM-44 2304q0 162 112 267t304 105t302 -105t110 -267h-220q0 81 -45 140.5t-147 59.5q-108 0 -152 -61t-44 -139h-220z" />
    <glyph glyph-name="uni1EC8" unicode="&#x1ec8;" horiz-adv-x="744" 
d="M496 2048v-2048h-248v2048h248zM476 2256h-196v216q105 6 148.5 29t43.5 71q0 54 -63 79t-153 25l8 152q207 0 313.5 -72t106.5 -192q0 -102 -65 -149t-143 -59v-100z" />
    <glyph glyph-name="uni1ECA" unicode="&#x1eca;" horiz-adv-x="744" 
d="M496 2048v-2048h-248v2048h248zM372 -508q-69 0 -118.5 47t-49.5 113t49.5 113t118.5 47t118.5 -47t49.5 -113t-49.5 -113t-118.5 -47z" />
    <glyph glyph-name="uni0399" unicode="&#x399;" horiz-adv-x="744" 
d="M496 2048v-2048h-248v2048h248z" />
    <glyph glyph-name="uni038A" unicode="&#x38a;" horiz-adv-x="856" 
d="M608 2048v-2048h-248v2048h248zM16 1708l68 468h256l-160 -468h-164z" />
    <glyph glyph-name="uni03AA" unicode="&#x3aa;" horiz-adv-x="744" 
d="M496 2048v-2048h-248v2048h248zM84 2304q-63 0 -111.5 48.5t-48.5 111.5q0 69 48.5 114.5t111.5 45.5q69 0 114.5 -45.5t45.5 -114.5q0 -63 -45.5 -111.5t-114.5 -48.5zM660 2304q-63 0 -111.5 48.5t-48.5 111.5q0 69 48.5 114.5t111.5 45.5q69 0 114.5 -45.5
t45.5 -114.5q0 -63 -45.5 -111.5t-114.5 -48.5z" />
    <glyph glyph-name="uni1F38" unicode="&#x1f38;" horiz-adv-x="1136" 
d="M888 2048v-2048h-248v2048h248zM560 2048v-112q0 -80 -29 -151t-85 -130t-138 -103l-108 84q38 42 63 88t37 100t12 120v104h248z" />
    <glyph glyph-name="uni1F39" unicode="&#x1f39;" horiz-adv-x="1116" 
d="M868 2048v-2048h-248v2048h248zM200 1936v112h248v-104q0 -66 12 -120t37 -100t63 -88l-108 -84q-120 66 -186 165t-66 219z" />
    <glyph glyph-name="uni1F3A" unicode="&#x1f3a;" horiz-adv-x="1688" 
d="M1440 2048v-2048h-248v2048h248zM1068 1604v-20h-128l-316 436v28h288zM560 2048v-112q0 -80 -29.5 -151t-86 -130t-136.5 -103l-108 84q54 63 83 136t29 172v104h248z" />
    <glyph glyph-name="uni1F3B" unicode="&#x1f3b;" horiz-adv-x="1584" 
d="M1336 2048v-2048h-248v2048h248zM984 1604v-20h-128l-316 436v28h292zM200 1936v112h248v-104q0 -99 27.5 -172t84.5 -136l-108 -84q-120 66 -186 165t-66 219z" />
    <glyph glyph-name="uni1F3C" unicode="&#x1f3c;" horiz-adv-x="1564" 
d="M1316 2048v-2048h-248v2048h248zM580 1584v20l156 444h288v-28l-316 -436h-128zM560 2048v-112q0 -80 -29.5 -151t-86 -130t-136.5 -103l-108 84q54 63 83 136t29 172v104h248z" />
    <glyph glyph-name="uni1F3D" unicode="&#x1f3d;" horiz-adv-x="1612" 
d="M1364 2048v-2048h-248v2048h248zM612 1584v20l152 444h292v-28l-316 -436h-128zM200 1936v112h248v-104q0 -99 29 -172t83 -136l-108 -84q-120 66 -186 165t-66 219z" />
    <glyph glyph-name="uni1F3E" unicode="&#x1f3e;" horiz-adv-x="1404" 
d="M1156 2048v-2048h-248v2048h248zM844 2372l120 -36q0 -99 -65 -173.5t-167 -74.5q-55 0 -93.5 15t-69 35t-63.5 35t-78 15t-76.5 -34.5t-31.5 -85.5l-120 32q0 99 63 177.5t165 78.5q47 0 84 -15.5t71 -36.5t70 -36.5t79 -15.5q45 0 78.5 34.5t33.5 85.5zM712 2020v-96
q0 -78 -42 -167t-126 -149l-120 68q42 57 61 116t19 128v100h208z" />
    <glyph glyph-name="uni1F3F" unicode="&#x1f3f;" horiz-adv-x="1416" 
d="M1168 2048v-2048h-248v2048h248zM492 1924v96h208v-100q0 -69 19 -128t61 -116l-124 -68q-84 60 -124 149t-40 167zM844 2372l120 -36q0 -99 -65 -173.5t-167 -74.5q-55 0 -93.5 15t-69 35t-63.5 35t-78 15t-76.5 -34.5t-31.5 -85.5l-120 32q0 99 63 177.5t165 78.5
q47 0 84 -15.5t71 -36.5t70 -36.5t79 -15.5q45 0 78.5 34.5t33.5 85.5z" />
    <glyph glyph-name="uni1FD8" unicode="&#x1fd8;" horiz-adv-x="744" 
d="M496 2048v-2048h-248v2048h248zM568 2560h220q0 -162 -112 -265t-304 -103q-189 0 -300.5 103t-111.5 265h220q0 -78 43.5 -137t148.5 -59t150.5 59t45.5 137z" />
    <glyph glyph-name="uni1FD9" unicode="&#x1fd9;" horiz-adv-x="744" 
d="M496 2048v-2048h-248v2048h248zM840 2560v-200h-936v200h936z" />
    <glyph glyph-name="uni1FDA" unicode="&#x1fda;" horiz-adv-x="1260" 
d="M1012 2048v-2048h-248v2048h248zM644 1580h-128l-316 440v28h288l156 -444v-24z" />
    <glyph glyph-name="uni1FDB" unicode="&#x1fdb;" horiz-adv-x="1180" 
d="M932 2048v-2048h-248v2048h248zM344 1728v24l152 444h292v-28l-316 -440h-128z" />
    <glyph glyph-name="uni0406" unicode="&#x406;" horiz-adv-x="744" 
d="M496 2048v-2048h-248v2048h248z" />
    <glyph glyph-name="uni0407" unicode="&#x407;" horiz-adv-x="744" 
d="M496 2048v-2048h-248v2048h248zM84 2304q-63 0 -111.5 48.5t-48.5 111.5q0 69 48.5 114.5t111.5 45.5q69 0 114.5 -45.5t45.5 -114.5q0 -63 -45.5 -111.5t-114.5 -48.5zM660 2304q-63 0 -111.5 48.5t-48.5 111.5q0 69 48.5 114.5t111.5 45.5q69 0 114.5 -45.5
t45.5 -114.5q0 -63 -45.5 -111.5t-114.5 -48.5z" />
    <glyph glyph-name="uniE00C" unicode="&#xe00c;" horiz-adv-x="1248" 
d="M136 1828v220h976v-220h-976zM136 0v220h976v-220h-976zM748 2048v-2048h-248v2048h248z" />
    <glyph glyph-name="uniE00D" unicode="&#xe00d;" horiz-adv-x="1248" 
d="M136 1828v220h976v-220h-976zM136 0v220h976v-220h-976zM748 2048v-2048h-248v2048h248zM336 2304q-63 0 -111.5 48.5t-48.5 111.5q0 69 48.5 114.5t111.5 45.5q69 0 114.5 -45.5t45.5 -114.5q0 -63 -45.5 -111.5t-114.5 -48.5zM912 2304q-63 0 -111.5 48.5t-48.5 111.5
q0 69 48.5 114.5t111.5 45.5q69 0 114.5 -45.5t45.5 -114.5q0 -63 -45.5 -111.5t-114.5 -48.5z" />
    <glyph glyph-name="uniE00E" unicode="&#xe00e;" horiz-adv-x="1248" 
d="M136 1828v220h976v-220h-976zM136 0v220h976v-220h-976zM748 2048v-2048h-248v2048h248zM520 2672l292 304h276l-360 -304h-208zM336 2208q-63 0 -111.5 48.5t-48.5 111.5q0 69 48.5 114.5t111.5 45.5q69 0 114.5 -45.5t45.5 -114.5q0 -63 -45.5 -111.5t-114.5 -48.5z
M912 2208q-63 0 -111.5 48.5t-48.5 111.5q0 69 48.5 114.5t111.5 45.5q69 0 114.5 -45.5t45.5 -114.5q0 -63 -45.5 -111.5t-114.5 -48.5z" />
    <glyph glyph-name="uniE00F" unicode="&#xe00f;" horiz-adv-x="1248" 
d="M136 1828v220h976v-220h-976zM136 0v220h976v-220h-976zM748 2048v-2048h-248v2048h248zM184 964v184h880v-184h-880z" />
    <glyph glyph-name="uniE010" unicode="&#xe010;" horiz-adv-x="1248" 
d="M136 1828v220h976v-220h-976zM136 0v220h976v-220h-976zM748 2048v-2048h-248v2048h248zM396 -508l-184 8q0 153 87.5 250.5t216.5 97.5q57 0 101 -19.5t84 -44.5t82.5 -44.5t96.5 -19.5q57 0 96.5 44.5t39.5 107.5l180 -16q0 -156 -87.5 -248t-216.5 -92
q-69 0 -114 19.5t-80 44.5t-74 44.5t-96 19.5t-94.5 -44.5t-37.5 -107.5z" />
    <glyph glyph-name="uniE011" unicode="&#xe011;" horiz-adv-x="1248" 
d="M136 1828v220h976v-220h-976zM136 0v220h976v-220h-976zM748 2048v-2048h-248v2048h248zM524 2256l-312 464h276l244 -464h-208z" />
    <glyph glyph-name="uniE012" unicode="&#xe012;" horiz-adv-x="1248" 
d="M136 1828v220h976v-220h-976zM136 0v220h976v-220h-976zM748 2048v-2048h-248v2048h248zM516 2256l244 464h276l-312 -464h-208z" />
    <glyph glyph-name="uniE013" unicode="&#xe013;" horiz-adv-x="1248" 
d="M136 1828v220h976v-220h-976zM136 0v220h976v-220h-976zM748 2048v-2048h-248v2048h248zM416 2232h-224v16l324 416h216l324 -416v-16h-224l-208 280z" />
    <glyph glyph-name="uniE014" unicode="&#xe014;" horiz-adv-x="1248" 
d="M136 1828v220h976v-220h-976zM136 0v220h976v-220h-976zM748 2048v-2048h-248v2048h248zM316 2232l-184 8q0 153 87.5 250.5t216.5 97.5q57 0 101 -19.5t84 -44.5t82.5 -44.5t96.5 -19.5q57 0 96.5 44.5t39.5 107.5l180 -16q0 -156 -87.5 -248t-216.5 -92
q-69 0 -114 19.5t-80 44.5t-74 44.5t-96 19.5t-94.5 -44.5t-37.5 -107.5z" />
    <glyph glyph-name="uniE015" unicode="&#xe015;" horiz-adv-x="1248" 
d="M136 1828v220h976v-220h-976zM136 0v220h976v-220h-976zM748 2048v-2048h-248v2048h248zM1092 2560v-200h-936v200h936z" />
    <glyph glyph-name="uniE016" unicode="&#xe016;" horiz-adv-x="1248" 
d="M136 1828v220h976v-220h-976zM136 0v220h976v-220h-976zM748 2048v-2048h-248v2048h248zM820 2560h220q0 -162 -112 -265t-304 -103q-189 0 -300.5 103t-111.5 265h220q0 -78 43.5 -137t148.5 -59t150.5 59t45.5 137z" />
    <glyph glyph-name="uniE017" unicode="&#xe017;" horiz-adv-x="1248" 
d="M136 1828v220h976v-220h-976zM136 0v220h976v-220h-976zM748 2048v-2048h-248v2048h248zM924 -600q-123 0 -203.5 67.5t-80.5 196.5q0 74 36 148t116 143t212 129l108 -84q-90 -66 -161 -140t-71 -164q0 -45 22 -70.5t82 -25.5q45 0 80 12t56 24l16 -176
q-33 -21 -86.5 -40.5t-125.5 -19.5z" />
    <glyph glyph-name="uniE018" unicode="&#xe018;" horiz-adv-x="1248" 
d="M136 1828v220h976v-220h-976zM136 0v220h976v-220h-976zM748 2048v-2048h-248v2048h248zM624 2304q-69 0 -118.5 47t-49.5 113t49.5 113t118.5 47t118.5 -47t49.5 -113t-49.5 -113t-118.5 -47z" />
    <glyph glyph-name="uniE019" unicode="&#xe019;" horiz-adv-x="1248" 
d="M136 1828v220h976v-220h-976zM136 0v220h976v-220h-976zM748 2048v-2048h-248v2048h248zM416 2664l208 -280l208 280h224v-16l-324 -416h-216l-324 416v16h224z" />
    <glyph glyph-name="uniE01A" unicode="&#xe01a;" horiz-adv-x="1248" 
d="M136 1828v220h976v-220h-976zM136 0v220h976v-220h-976zM748 2048v-2048h-248v2048h248zM314 2256l-330 464h294l244 -464h-208zM738 2256l-244 464h300l150 -464h-206z" />
    <glyph glyph-name="uniE01B" unicode="&#xe01b;" horiz-adv-x="1248" 
d="M136 1828v220h976v-220h-976zM136 0v220h976v-220h-976zM748 2048v-2048h-248v2048h248zM208 2304q0 162 112 267t304 105t302 -105t110 -267h-220q0 81 -45 140.5t-147 59.5q-108 0 -152 -61t-44 -139h-220z" />
    <glyph glyph-name="uniE01C" unicode="&#xe01c;" horiz-adv-x="1248" 
d="M136 1828v220h976v-220h-976zM136 0v220h976v-220h-976zM748 2048v-2048h-248v2048h248zM728 2256h-196v216q105 6 148.5 29t43.5 71q0 54 -63 79t-153 25l8 152q207 0 313.5 -72t106.5 -192q0 -102 -65 -149t-143 -59v-100z" />
    <glyph glyph-name="uniE01D" unicode="&#xe01d;" horiz-adv-x="1248" 
d="M136 1828v220h976v-220h-976zM136 0v220h976v-220h-976zM748 2048v-2048h-248v2048h248zM624 -508q-69 0 -118.5 47t-49.5 113t49.5 113t118.5 47t118.5 -47t49.5 -113t-49.5 -113t-118.5 -47z" />
    <glyph glyph-name="uniE01E" unicode="&#xe01e;" horiz-adv-x="1688" 
d="M576 1828v220h976v-220h-976zM576 0v220h976v-220h-976zM1188 2048v-2048h-248v2048h248zM496 2048v-112q0 -80 -29 -151t-85 -130t-138 -103l-108 84q38 42 63 88t37 100t12 120v104h248z" />
    <glyph glyph-name="uniE01F" unicode="&#xe01f;" horiz-adv-x="1668" 
d="M556 1828v220h976v-220h-976zM556 0v220h976v-220h-976zM1168 2048v-2048h-248v2048h248zM136 1936v112h248v-104q0 -66 12 -120t37 -100t63 -88l-108 -84q-120 66 -186 165t-66 219z" />
    <glyph glyph-name="uniE020" unicode="&#xe020;" horiz-adv-x="2240" 
d="M1128 1828v220h976v-220h-976zM1128 0v220h976v-220h-976zM1740 2048v-2048h-248v2048h248zM1004 1604v-20h-128l-316 436v28h288zM496 2048v-112q0 -80 -29.5 -151t-86 -130t-136.5 -103l-108 84q54 63 83 136t29 172v104h248z" />
    <glyph glyph-name="uniE021" unicode="&#xe021;" horiz-adv-x="2136" 
d="M1024 1828v220h976v-220h-976zM1024 0v220h976v-220h-976zM1636 2048v-2048h-248v2048h248zM920 1604v-20h-128l-316 436v28h292zM136 1936v112h248v-104q0 -99 27.5 -172t84.5 -136l-108 -84q-120 66 -186 165t-66 219z" />
    <glyph glyph-name="uniE022" unicode="&#xe022;" horiz-adv-x="2116" 
d="M1004 1828v220h976v-220h-976zM1004 0v220h976v-220h-976zM1616 2048v-2048h-248v2048h248zM516 1584v20l156 444h288v-28l-316 -436h-128zM496 2048v-112q0 -80 -29.5 -151t-86 -130t-136.5 -103l-108 84q54 63 83 136t29 172v104h248z" />
    <glyph glyph-name="uniE023" unicode="&#xe023;" horiz-adv-x="2164" 
d="M1052 1828v220h976v-220h-976zM1052 0v220h976v-220h-976zM1664 2048v-2048h-248v2048h248zM548 1584v20l152 444h292v-28l-316 -436h-128zM136 1936v112h248v-104q0 -99 29 -172t83 -136l-108 -84q-120 66 -186 165t-66 219z" />
    <glyph glyph-name="uniE024" unicode="&#xe024;" horiz-adv-x="1956" 
d="M844 1828v220h976v-220h-976zM844 0v220h976v-220h-976zM1456 2048v-2048h-248v2048h248zM780 2372l120 -36q0 -99 -65 -173.5t-167 -74.5q-55 0 -93.5 15t-69 35t-63.5 35t-78 15t-76.5 -34.5t-31.5 -85.5l-120 32q0 99 63 177.5t165 78.5q47 0 84 -15.5t71 -36.5
t70 -36.5t79 -15.5q45 0 78.5 34.5t33.5 85.5zM648 2020v-96q0 -78 -42 -167t-126 -149l-120 68q42 57 61 116t19 128v100h208z" />
    <glyph glyph-name="uniE025" unicode="&#xe025;" horiz-adv-x="1968" 
d="M856 1828v220h976v-220h-976zM856 0v220h976v-220h-976zM1468 2048v-2048h-248v2048h248zM428 1924v96h208v-100q0 -69 19 -128t61 -116l-124 -68q-84 60 -124 149t-40 167zM780 2372l120 -36q0 -99 -65 -173.5t-167 -74.5q-55 0 -93.5 15t-69 35t-63.5 35t-78 15
t-76.5 -34.5t-31.5 -85.5l-120 32q0 99 63 177.5t165 78.5q47 0 84 -15.5t71 -36.5t70 -36.5t79 -15.5q45 0 78.5 34.5t33.5 85.5z" />
    <glyph glyph-name="uniE026" unicode="&#xe026;" horiz-adv-x="1248" 
d="M136 1828v220h976v-220h-976zM136 0v220h976v-220h-976zM748 2048v-2048h-248v2048h248zM820 2560h220q0 -162 -112 -265t-304 -103q-189 0 -300.5 103t-111.5 265h220q0 -78 43.5 -137t148.5 -59t150.5 59t45.5 137z" />
    <glyph glyph-name="uniE027" unicode="&#xe027;" horiz-adv-x="1248" 
d="M136 1828v220h976v-220h-976zM136 0v220h976v-220h-976zM748 2048v-2048h-248v2048h248zM1092 2560v-200h-936v200h936z" />
    <glyph glyph-name="uniE028" unicode="&#xe028;" horiz-adv-x="1812" 
d="M700 1828v220h976v-220h-976zM700 0v220h976v-220h-976zM1312 2048v-2048h-248v2048h248zM580 1580h-128l-316 440v28h288l156 -444v-24z" />
    <glyph glyph-name="uniE029" unicode="&#xe029;" horiz-adv-x="1732" 
d="M620 1828v220h976v-220h-976zM620 0v220h976v-220h-976zM1232 2048v-2048h-248v2048h248zM280 1728v24l152 444h292v-28l-316 -440h-128z" />
    <glyph glyph-name="uniE02A" unicode="&#xe02a;" horiz-adv-x="1248" 
d="M136 1828v220h976v-220h-976zM136 0v220h976v-220h-976zM748 2048v-2048h-248v2048h248z" />
    <glyph glyph-name="uniE02B" unicode="&#xe02b;" horiz-adv-x="1248" 
d="M136 1828v220h976v-220h-976zM136 0v220h976v-220h-976zM748 2048v-2048h-248v2048h248zM336 2304q-63 0 -111.5 48.5t-48.5 111.5q0 69 48.5 114.5t111.5 45.5q69 0 114.5 -45.5t45.5 -114.5q0 -63 -45.5 -111.5t-114.5 -48.5zM912 2304q-63 0 -111.5 48.5t-48.5 111.5
q0 69 48.5 114.5t111.5 45.5q69 0 114.5 -45.5t45.5 -114.5q0 -63 -45.5 -111.5t-114.5 -48.5z" />
    <glyph glyph-name="uni004A" unicode="J" horiz-adv-x="1528" 
d="M1032 2048h248v-1464q0 -196 -72 -333t-203 -208t-309 -71q-168 0 -299 61.5t-206 175.5t-75 271h244q0 -87 43.5 -151.5t119.5 -100.5t173 -36q107 0 182 45t114.5 132.5t39.5 214.5v1464z" />
    <glyph glyph-name="uni0134" unicode="&#x134;" horiz-adv-x="1528" 
d="M1032 2048h248v-1464q0 -196 -72 -333t-203 -208t-309 -71q-168 0 -299 61.5t-206 175.5t-75 271h244q0 -87 43.5 -151.5t119.5 -100.5t173 -36q107 0 182 45t114.5 132.5t39.5 214.5v1464zM948 2232h-224v16l324 416h216l324 -416v-16h-224l-208 280z" />
    <glyph glyph-name="uni0248" unicode="&#x248;" horiz-adv-x="1528" 
d="M1032 2048h248v-1464q0 -196 -72 -333t-203 -208t-309 -71q-168 0 -299 61.5t-206 175.5t-75 271h244q0 -87 43.5 -151.5t119.5 -100.5t173 -36q107 0 182 45t114.5 132.5t39.5 214.5v1464zM716 1124v184h880v-184h-880z" />
    <glyph glyph-name="uni037F" unicode="&#x37f;" horiz-adv-x="1528" 
d="M1032 2048h248v-1464q0 -196 -72 -333t-203 -208t-309 -71q-168 0 -299 61.5t-206 175.5t-75 271h244q0 -87 43.5 -151.5t119.5 -100.5t173 -36q107 0 182 45t114.5 132.5t39.5 214.5v1464z" />
    <glyph glyph-name="uni0408" unicode="&#x408;" horiz-adv-x="1528" 
d="M1032 2048h248v-1464q0 -196 -72 -333t-203 -208t-309 -71q-168 0 -299 61.5t-206 175.5t-75 271h244q0 -87 43.5 -151.5t119.5 -100.5t173 -36q107 0 182 45t114.5 132.5t39.5 214.5v1464z" />
    <glyph glyph-name="uni004B" unicode="K" horiz-adv-x="1836" 
d="M248 0v2048h248v-1016h24l920 1016h324l-860 -924l860 -1124h-300l-712 952l-256 -288v-664h-248z" />
    <glyph glyph-name="uni0136" unicode="&#x136;" horiz-adv-x="1836" 
d="M248 0v2048h248v-1016h24l920 1016h324l-860 -924l860 -1124h-300l-712 952l-256 -288v-664h-248zM686 -680l112 518h242l-170 -518h-184z" />
    <glyph glyph-name="uni01E8" unicode="&#x1e8;" horiz-adv-x="1836" 
d="M248 0v2048h248v-1016h24l920 1016h324l-860 -924l860 -1124h-300l-712 952l-256 -288v-664h-248zM720 2664l208 -280l208 280h224v-16l-324 -416h-216l-324 416v16h224z" />
    <glyph glyph-name="uni1E30" unicode="&#x1e30;" horiz-adv-x="1836" 
d="M248 0v2048h248v-1016h24l920 1016h324l-860 -924l860 -1124h-300l-712 952l-256 -288v-664h-248zM820 2256l244 464h276l-312 -464h-208z" />
    <glyph glyph-name="uni1E32" unicode="&#x1e32;" horiz-adv-x="1836" 
d="M248 0v2048h248v-1016h24l920 1016h324l-860 -924l860 -1124h-300l-712 952l-256 -288v-664h-248zM920 -508q-69 0 -118.5 47t-49.5 113t49.5 113t118.5 47t118.5 -47t49.5 -113t-49.5 -113t-118.5 -47z" />
    <glyph glyph-name="uni1E34" unicode="&#x1e34;" horiz-adv-x="1836" 
d="M248 0v2048h248v-1016h24l920 1016h324l-860 -924l860 -1124h-300l-712 952l-256 -288v-664h-248zM1388 -252v-200h-936v200h936z" />
    <glyph glyph-name="uni04A0" unicode="&#x4a0;" horiz-adv-x="2100" 
d="M1732 0l-704 940h-252v-940h-248v1828h-504v220h752v-888h108l820 888h296l-828 -900l856 -1148h-296z" />
    <glyph glyph-name="uni049A" unicode="&#x49a;" horiz-adv-x="2008" 
d="M1452 0l-704 940h-252v-940h-248v2048h248v-888h108l820 888h296l-828 -900l856 -1148h-296zM1808 220v-716h-236v716h236z" />
    <glyph glyph-name="uni0198" unicode="&#x198;" horiz-adv-x="1892" 
d="M248 0v2048h248v-1016h24l812 896q80 88 173 122t187 19t176 -73l-100 -184q-66 42 -134.5 32.5t-145.5 -92.5l-584 -628l860 -1124h-300l-712 952l-256 -288v-664h-248z" />
    <glyph glyph-name="uni039A" unicode="&#x39a;" horiz-adv-x="1836" 
d="M248 0v2048h248v-1016h24l920 1016h324l-860 -924l860 -1124h-300l-712 952l-256 -288v-664h-248z" />
    <glyph glyph-name="uni004C" unicode="L" horiz-adv-x="1584" 
d="M248 0v2048h248v-1828h952v-220h-1200z" />
    <glyph glyph-name="uni0139" unicode="&#x139;" horiz-adv-x="1584" 
d="M248 0v2048h248v-1828h952v-220h-1200zM264 2256l244 464h276l-312 -464h-208z" />
    <glyph glyph-name="uni013B" unicode="&#x13b;" horiz-adv-x="1584" 
d="M248 0v2048h248v-1828h952v-220h-1200zM614 -680l112 518h242l-170 -518h-184z" />
    <glyph glyph-name="uni013D" unicode="&#x13d;" horiz-adv-x="1584" 
d="M248 0v2048h248v-1828h952v-220h-1200zM844 1626v518h242l-70 -518h-172z" />
    <glyph glyph-name="uni1E36" unicode="&#x1e36;" horiz-adv-x="1584" 
d="M248 0v2048h248v-1828h952v-220h-1200zM848 -508q-69 0 -118.5 47t-49.5 113t49.5 113t118.5 47t118.5 -47t49.5 -113t-49.5 -113t-118.5 -47z" />
    <glyph glyph-name="uni1E38" unicode="&#x1e38;" horiz-adv-x="1584" 
d="M248 0v2048h248v-1828h952v-220h-1200zM848 -508q-69 0 -118.5 47t-49.5 113t49.5 113t118.5 47t118.5 -47t49.5 -113t-49.5 -113t-118.5 -47zM840 2560v-200h-936v200h936z" />
    <glyph glyph-name="uni1E3A" unicode="&#x1e3a;" horiz-adv-x="1584" 
d="M248 0v2048h248v-1828h952v-220h-1200zM1316 -252v-200h-936v200h936z" />
    <glyph glyph-name="uni1E3C" unicode="&#x1e3c;" horiz-adv-x="1584" 
d="M248 0v2048h248v-1828h952v-220h-1200zM640 -560h-224v16l324 416h216l324 -416v-16h-224l-208 280z" />
    <glyph glyph-name="uni0141" unicode="&#x141;" horiz-adv-x="1584" 
d="M872 1280v-180l-812 -256v180zM248 0v2048h248v-1828h952v-220h-1200z" />
    <glyph glyph-name="uni023D" unicode="&#x23d;" horiz-adv-x="1584" 
d="M248 0v2048h248v-1828h952v-220h-1200zM-68 964v184h880v-184h-880z" />
    <glyph glyph-name="uni01C8" unicode="&#x1c8;" horiz-adv-x="2252" 
d="M248 0v2048h248v-1828h952v-220h-1200zM1800 1536h236v-1648q0 -142 -48.5 -246t-146 -161t-245.5 -57h-24h-24v220h22h22q108 0 158 63.5t50 180.5v1648zM1916 1792q-69 0 -118.5 47t-49.5 113t49.5 113t118.5 47t118.5 -47t49.5 -113t-49.5 -113t-118.5 -47z" />
    <glyph glyph-name="uni004D" unicode="M" horiz-adv-x="2504" 
d="M248 2048h296l696 -1700h24l696 1700h296v-2048h-232v1556h-20l-640 -1556h-224l-640 1556h-20v-1556h-232v2048z" />
    <glyph glyph-name="uni1E3E" unicode="&#x1e3e;" horiz-adv-x="2504" 
d="M248 2048h296l696 -1700h24l696 1700h296v-2048h-232v1556h-20l-640 -1556h-224l-640 1556h-20v-1556h-232v2048zM1144 2256l244 464h276l-312 -464h-208z" />
    <glyph glyph-name="uni1E40" unicode="&#x1e40;" horiz-adv-x="2504" 
d="M248 2048h296l696 -1700h24l696 1700h296v-2048h-232v1556h-20l-640 -1556h-224l-640 1556h-20v-1556h-232v2048zM1252 2304q-69 0 -118.5 47t-49.5 113t49.5 113t118.5 47t118.5 -47t49.5 -113t-49.5 -113t-118.5 -47z" />
    <glyph glyph-name="uni1E42" unicode="&#x1e42;" horiz-adv-x="2504" 
d="M248 2048h296l696 -1700h24l696 1700h296v-2048h-232v1556h-20l-640 -1556h-224l-640 1556h-20v-1556h-232v2048zM1252 -508q-69 0 -118.5 47t-49.5 113t49.5 113t118.5 47t118.5 -47t49.5 -113t-49.5 -113t-118.5 -47z" />
    <glyph glyph-name="uni04CD" unicode="&#x4cd;" horiz-adv-x="2504" 
d="M248 2048h296l696 -1700h24l696 1700h296v-2048h-232v1556h-20l-640 -1556h-224l-640 1556h-20v-1556h-232v2048zM2492 156v-188q-2 -88 -19 -172t-51 -165t-86 -159l-200 40q34 80 61 154.5t43 148t16 149.5v192h236z" />
    <glyph glyph-name="uni039C" unicode="&#x39c;" horiz-adv-x="2504" 
d="M248 2048h296l696 -1700h24l696 1700h296v-2048h-232v1556h-20l-640 -1556h-224l-640 1556h-20v-1556h-232v2048z" />
    <glyph glyph-name="uni03FA" unicode="&#x3fa;" horiz-adv-x="2504" 
d="M248 2048h296l696 -1700h24l696 1700h296v-2048h-232v1556h-20l-640 -1556h-224l-640 1556h-20v-1556h-232v2048z" />
    <glyph glyph-name="uni041C" unicode="&#x41c;" horiz-adv-x="2504" 
d="M248 2048h296l696 -1700h24l696 1700h296v-2048h-232v1556h-20l-640 -1556h-224l-640 1556h-20v-1556h-232v2048z" />
    <glyph glyph-name="uni004E" unicode="N" horiz-adv-x="2120" 
d="M1872 2048v-2048h-240l-1116 1608h-20v-1608h-248v2048h240l1120 -1612h20v1612h244z" />
    <glyph glyph-name="uni00D1" unicode="&#xd1;" horiz-adv-x="2120" 
d="M1872 2048v-2048h-240l-1116 1608h-20v-1608h-248v2048h240l1120 -1612h20v1612h244zM752 2232l-184 8q0 153 87.5 250.5t216.5 97.5q57 0 101 -19.5t84 -44.5t82.5 -44.5t96.5 -19.5q57 0 96.5 44.5t39.5 107.5l180 -16q0 -156 -87.5 -248t-216.5 -92q-69 0 -114 19.5
t-80 44.5t-74 44.5t-96 19.5t-94.5 -44.5t-37.5 -107.5z" />
    <glyph glyph-name="uni0143" unicode="&#x143;" horiz-adv-x="2120" 
d="M1872 2048v-2048h-240l-1116 1608h-20v-1608h-248v2048h240l1120 -1612h20v1612h244zM952 2256l244 464h276l-312 -464h-208z" />
    <glyph glyph-name="uni0145" unicode="&#x145;" horiz-adv-x="2120" 
d="M1872 2048v-2048h-240l-1116 1608h-20v-1608h-248v2048h240l1120 -1612h20v1612h244zM826 -680l112 518h242l-170 -518h-184z" />
    <glyph glyph-name="uni0147" unicode="&#x147;" horiz-adv-x="2120" 
d="M1872 2048v-2048h-240l-1116 1608h-20v-1608h-248v2048h240l1120 -1612h20v1612h244zM852 2664l208 -280l208 280h224v-16l-324 -416h-216l-324 416v16h224z" />
    <glyph glyph-name="uni01F8" unicode="&#x1f8;" horiz-adv-x="2120" 
d="M1872 2048v-2048h-240l-1116 1608h-20v-1608h-248v2048h240l1120 -1612h20v1612h244zM960 2256l-312 464h276l244 -464h-208z" />
    <glyph glyph-name="uni1E44" unicode="&#x1e44;" horiz-adv-x="2120" 
d="M1872 2048v-2048h-240l-1116 1608h-20v-1608h-248v2048h240l1120 -1612h20v1612h244zM1060 2304q-69 0 -118.5 47t-49.5 113t49.5 113t118.5 47t118.5 -47t49.5 -113t-49.5 -113t-118.5 -47z" />
    <glyph glyph-name="uni1E46" unicode="&#x1e46;" horiz-adv-x="2120" 
d="M1872 2048v-2048h-240l-1116 1608h-20v-1608h-248v2048h240l1120 -1612h20v1612h244zM1060 -508q-69 0 -118.5 47t-49.5 113t49.5 113t118.5 47t118.5 -47t49.5 -113t-49.5 -113t-118.5 -47z" />
    <glyph glyph-name="uni1E48" unicode="&#x1e48;" horiz-adv-x="2120" 
d="M1872 2048v-2048h-240l-1116 1608h-20v-1608h-248v2048h240l1120 -1612h20v1612h244zM1528 -252v-200h-936v200h936z" />
    <glyph glyph-name="uni1E4A" unicode="&#x1e4a;" horiz-adv-x="2120" 
d="M1872 2048v-2048h-240l-1116 1608h-20v-1608h-248v2048h240l1120 -1612h20v1612h244zM852 -560h-224v16l324 416h216l324 -416v-16h-224l-208 280z" />
    <glyph glyph-name="uni019D" unicode="&#x19d;" horiz-adv-x="2132" 
d="M260 0h248v-164q0 -99 -32 -175.5t-88 -129.5t-130 -80t-158 -27q-36 0 -72.5 1.5t-63.5 10.5v204q15 -3 35 -5.5t41 -2.5q96 0 158 44t62 164v160zM1884 2048v-2048h-240l-1116 1608h-20v-1608h-248v2048h240l1120 -1612h20v1612h244z" />
    <glyph glyph-name="uni014A" unicode="&#x14a;" horiz-adv-x="2120" 
d="M1632 0h240v-164q0 -132 -55.5 -224t-148 -140t-204.5 -48q-36 0 -72.5 1.5t-63.5 10.5v204q15 -3 35 -5.5t41 -2.5q96 0 162 44t66 164v160zM1872 2048v-2048h-240l-1116 1608h-20v-1608h-248v2048h240l1120 -1612h20v1612h244z" />
    <glyph glyph-name="uni0418" unicode="&#x418;" horiz-adv-x="2120" 
d="M248 2048h244v-1612h20l1120 1612h240v-2048h-248v1608h-20l-1116 -1608h-240v2048z" />
    <glyph glyph-name="uni040D" unicode="&#x40d;" horiz-adv-x="2120" 
d="M248 2048h244v-1612h20l1120 1612h240v-2048h-248v1608h-20l-1116 -1608h-240v2048zM960 2256l-312 464h276l244 -464h-208z" />
    <glyph glyph-name="uni0419" unicode="&#x419;" horiz-adv-x="2120" 
d="M248 2048h244v-1612h20l1120 1612h240v-2048h-248v1608h-20l-1116 -1608h-240v2048zM1256 2560h220q0 -162 -112 -265t-304 -103q-189 0 -300.5 103t-111.5 265h220q0 -78 43.5 -137t148.5 -59t150.5 59t45.5 137z" />
    <glyph glyph-name="uni04E2" unicode="&#x4e2;" horiz-adv-x="2120" 
d="M248 2048h244v-1612h20l1120 1612h240v-2048h-248v1608h-20l-1116 -1608h-240v2048zM1528 2560v-200h-936v200h936z" />
    <glyph glyph-name="uni04E4" unicode="&#x4e4;" horiz-adv-x="2120" 
d="M248 2048h244v-1612h20l1120 1612h240v-2048h-248v1608h-20l-1116 -1608h-240v2048zM772 2304q-63 0 -111.5 48.5t-48.5 111.5q0 69 48.5 114.5t111.5 45.5q69 0 114.5 -45.5t45.5 -114.5q0 -63 -45.5 -111.5t-114.5 -48.5zM1348 2304q-63 0 -111.5 48.5t-48.5 111.5
q0 69 48.5 114.5t111.5 45.5q69 0 114.5 -45.5t45.5 -114.5q0 -63 -45.5 -111.5t-114.5 -48.5z" />
    <glyph glyph-name="uni048A" unicode="&#x48a;" horiz-adv-x="2120" 
d="M248 2048h244v-1612h20l1120 1612h240v-2048h-248v1608h-20l-1116 -1608h-240v2048zM1256 2560h220q0 -162 -112 -265t-304 -103q-189 0 -300.5 103t-111.5 265h220q0 -78 43.5 -137t148.5 -59t150.5 59t45.5 137zM2108 156v-188q-2 -88 -19 -172t-51 -165t-86 -159
l-200 40q34 80 61 154.5t43 148t16 149.5v192h236z" />
    <glyph glyph-name="uni0376" unicode="&#x376;" horiz-adv-x="2120" 
d="M248 2048h244v-1612h20l1120 1612h240v-2048h-248v1608h-20l-1116 -1608h-240v2048z" />
    <glyph glyph-name="uni039D" unicode="&#x39d;" horiz-adv-x="2120" 
d="M1872 2048v-2048h-240l-1116 1608h-20v-1608h-248v2048h240l1120 -1612h20v1612h244z" />
    <glyph glyph-name="uni01CB" unicode="&#x1cb;" horiz-adv-x="2748" 
d="M1872 2048v-2048h-240l-1116 1608h-20v-1608h-248v2048h240l1120 -1612h20v1612h244zM2296 1536h236v-1648q0 -142 -48.5 -246t-146 -161t-245.5 -57h-24h-24v220h22h22q108 0 158 63.5t50 180.5v1648zM2412 1792q-69 0 -118.5 47t-49.5 113t49.5 113t118.5 47t118.5 -47
t49.5 -113t-49.5 -113t-118.5 -47z" />
    <glyph glyph-name="uni004F" unicode="O" horiz-adv-x="2144" 
d="M1976 1024q0 -324 -117 -560t-321 -364t-466 -128t-466 128t-321 364t-117 560t117 560t321 364t466 128t466 -128t321 -364t117 -560zM1736 1024q0 266 -88.5 449t-239 277t-336.5 94t-336.5 -94t-239 -277t-88.5 -449t88.5 -449t239 -277t336.5 -94t336.5 94t239 277
t88.5 449z" />
    <glyph glyph-name="uni00D6" unicode="&#xd6;" horiz-adv-x="2144" 
d="M1976 1024q0 -324 -117 -560t-321 -364t-466 -128t-466 128t-321 364t-117 560t117 560t321 364t466 128t466 -128t321 -364t117 -560zM1736 1024q0 266 -88.5 449t-239 277t-336.5 94t-336.5 -94t-239 -277t-88.5 -449t88.5 -449t239 -277t336.5 -94t336.5 94t239 277
t88.5 449zM784 2304q-63 0 -111.5 48.5t-48.5 111.5q0 69 48.5 114.5t111.5 45.5q69 0 114.5 -45.5t45.5 -114.5q0 -63 -45.5 -111.5t-114.5 -48.5zM1360 2304q-63 0 -111.5 48.5t-48.5 111.5q0 69 48.5 114.5t111.5 45.5q69 0 114.5 -45.5t45.5 -114.5q0 -63 -45.5 -111.5
t-114.5 -48.5z" />
    <glyph glyph-name="uni00D5" unicode="&#xd5;" horiz-adv-x="2144" 
d="M1976 1024q0 -324 -117 -560t-321 -364t-466 -128t-466 128t-321 364t-117 560t117 560t321 364t466 128t466 -128t321 -364t117 -560zM1736 1024q0 266 -88.5 449t-239 277t-336.5 94t-336.5 -94t-239 -277t-88.5 -449t88.5 -449t239 -277t336.5 -94t336.5 94t239 277
t88.5 449zM764 2252l-184 8q0 153 87.5 250.5t216.5 97.5q57 0 101 -19.5t84 -44.5t82.5 -44.5t96.5 -19.5q57 0 96.5 44.5t39.5 107.5l180 -16q0 -156 -87.5 -248t-216.5 -92q-69 0 -114 19.5t-80 44.5t-74 44.5t-96 19.5t-94.5 -44.5t-37.5 -107.5z" />
    <glyph glyph-name="uni00D8" unicode="&#xd8;" horiz-adv-x="2144" 
d="M432 -84l-152 104l1424 2108l152 -104zM1976 1024q0 -324 -117 -560t-321 -364t-466 -128t-466 128t-321 364t-117 560t117 560t321 364t466 128t466 -128t321 -364t117 -560zM1736 1024q0 266 -88.5 449t-239 277t-336.5 94t-336.5 -94t-239 -277t-88.5 -449t88.5 -449
t239 -277t336.5 -94t336.5 94t239 277t88.5 449z" />
    <glyph glyph-name="uni01A0" unicode="&#x1a0;" horiz-adv-x="2180" 
d="M1904 2196h236q0 -270 -134.5 -417t-401.5 -147v196q156 0 228 97t72 271zM1976 1024q0 -324 -117 -560t-321 -364t-466 -128t-466 128t-321 364t-117 560t117 560t321 364t466 128t466 -128t321 -364t117 -560zM1736 1024q0 266 -88.5 449t-239 277t-336.5 94
t-336.5 -94t-239 -277t-88.5 -449t88.5 -449t239 -277t336.5 -94t336.5 94t239 277t88.5 449z" />
    <glyph glyph-name="uni00D2" unicode="&#xd2;" horiz-adv-x="2144" 
d="M1976 1024q0 -324 -117 -560t-321 -364t-466 -128t-466 128t-321 364t-117 560t117 560t321 364t466 128t466 -128t321 -364t117 -560zM1736 1024q0 266 -88.5 449t-239 277t-336.5 94t-336.5 -94t-239 -277t-88.5 -449t88.5 -449t239 -277t336.5 -94t336.5 94t239 277
t88.5 449zM972 2256l-312 464h276l244 -464h-208z" />
    <glyph glyph-name="uni00D3" unicode="&#xd3;" horiz-adv-x="2144" 
d="M1976 1024q0 -324 -117 -560t-321 -364t-466 -128t-466 128t-321 364t-117 560t117 560t321 364t466 128t466 -128t321 -364t117 -560zM1736 1024q0 266 -88.5 449t-239 277t-336.5 94t-336.5 -94t-239 -277t-88.5 -449t88.5 -449t239 -277t336.5 -94t336.5 94t239 277
t88.5 449zM964 2256l244 464h276l-312 -464h-208z" />
    <glyph glyph-name="uni00D4" unicode="&#xd4;" horiz-adv-x="2144" 
d="M1976 1024q0 -324 -117 -560t-321 -364t-466 -128t-466 128t-321 364t-117 560t117 560t321 364t466 128t466 -128t321 -364t117 -560zM1736 1024q0 266 -88.5 449t-239 277t-336.5 94t-336.5 -94t-239 -277t-88.5 -449t88.5 -449t239 -277t336.5 -94t336.5 94t239 277
t88.5 449zM864 2232h-224v16l324 416h216l324 -416v-16h-224l-208 280z" />
    <glyph glyph-name="uni014C" unicode="&#x14c;" horiz-adv-x="2144" 
d="M1976 1024q0 -324 -117 -560t-321 -364t-466 -128t-466 128t-321 364t-117 560t117 560t321 364t466 128t466 -128t321 -364t117 -560zM1736 1024q0 266 -88.5 449t-239 277t-336.5 94t-336.5 -94t-239 -277t-88.5 -449t88.5 -449t239 -277t336.5 -94t336.5 94t239 277
t88.5 449zM1540 2560v-200h-936v200h936z" />
    <glyph glyph-name="uni014E" unicode="&#x14e;" horiz-adv-x="2144" 
d="M1976 1024q0 -324 -117 -560t-321 -364t-466 -128t-466 128t-321 364t-117 560t117 560t321 364t466 128t466 -128t321 -364t117 -560zM1736 1024q0 266 -88.5 449t-239 277t-336.5 94t-336.5 -94t-239 -277t-88.5 -449t88.5 -449t239 -277t336.5 -94t336.5 94t239 277
t88.5 449zM1268 2560h220q0 -162 -112 -265t-304 -103q-189 0 -300.5 103t-111.5 265h220q0 -78 43.5 -137t148.5 -59t150.5 59t45.5 137z" />
    <glyph glyph-name="uni0150" unicode="&#x150;" horiz-adv-x="2144" 
d="M1976 1024q0 -324 -117 -560t-321 -364t-466 -128t-466 128t-321 364t-117 560t117 560t321 364t466 128t466 -128t321 -364t117 -560zM1736 1024q0 266 -88.5 449t-239 277t-336.5 94t-336.5 -94t-239 -277t-88.5 -449t88.5 -449t239 -277t336.5 -94t336.5 94t239 277
t88.5 449zM1132 2216l308 424h264l-364 -424h-208zM720 2216l224 424h260l-296 -424h-188z" />
    <glyph glyph-name="uni01D1" unicode="&#x1d1;" horiz-adv-x="2144" 
d="M1976 1024q0 -324 -117 -560t-321 -364t-466 -128t-466 128t-321 364t-117 560t117 560t321 364t466 128t466 -128t321 -364t117 -560zM1736 1024q0 266 -88.5 449t-239 277t-336.5 94t-336.5 -94t-239 -277t-88.5 -449t88.5 -449t239 -277t336.5 -94t336.5 94t239 277
t88.5 449zM864 2664l208 -280l208 280h224v-16l-324 -416h-216l-324 416v16h224z" />
    <glyph glyph-name="uni01EA" unicode="&#x1ea;" horiz-adv-x="2144" 
d="M1976 1024q0 -324 -117 -560t-321 -364t-466 -128t-466 128t-321 364t-117 560t117 560t321 364t466 128t466 -128t321 -364t117 -560zM1736 1024q0 266 -88.5 449t-239 277t-336.5 94t-336.5 -94t-239 -277t-88.5 -449t88.5 -449t239 -277t336.5 -94t336.5 94t239 277
t88.5 449zM1080 -608q-123 0 -203.5 67.5t-80.5 196.5q0 74 36 148t116 143t212 129l108 -84q-90 -66 -161 -140t-71 -164q0 -45 22 -70.5t82 -25.5q45 0 80 12t56 24l16 -176q-33 -21 -86.5 -40.5t-125.5 -19.5z" />
    <glyph glyph-name="uni01EC" unicode="&#x1ec;" horiz-adv-x="2144" 
d="M1976 1024q0 -324 -117 -560t-321 -364t-466 -128t-466 128t-321 364t-117 560t117 560t321 364t466 128t466 -128t321 -364t117 -560zM1736 1024q0 266 -88.5 449t-239 277t-336.5 94t-336.5 -94t-239 -277t-88.5 -449t88.5 -449t239 -277t336.5 -94t336.5 94t239 277
t88.5 449zM1080 -608q-123 0 -203.5 67.5t-80.5 196.5q0 74 36 148t116 143t212 129l108 -84q-90 -66 -161 -140t-71 -164q0 -45 22 -70.5t82 -25.5q45 0 80 12t56 24l16 -176q-33 -21 -86.5 -40.5t-125.5 -19.5zM1540 2560v-200h-936v200h936z" />
    <glyph glyph-name="uni020C" unicode="&#x20c;" horiz-adv-x="2144" 
d="M1976 1024q0 -324 -117 -560t-321 -364t-466 -128t-466 128t-321 364t-117 560t117 560t321 364t466 128t466 -128t321 -364t117 -560zM1736 1024q0 266 -88.5 449t-239 277t-336.5 94t-336.5 -94t-239 -277t-88.5 -449t88.5 -449t239 -277t336.5 -94t336.5 94t239 277
t88.5 449zM762 2256l-330 464h294l244 -464h-208zM1186 2256l-244 464h300l150 -464h-206z" />
    <glyph glyph-name="uni020E" unicode="&#x20e;" horiz-adv-x="2144" 
d="M1976 1024q0 -324 -117 -560t-321 -364t-466 -128t-466 128t-321 364t-117 560t117 560t321 364t466 128t466 -128t321 -364t117 -560zM1736 1024q0 266 -88.5 449t-239 277t-336.5 94t-336.5 -94t-239 -277t-88.5 -449t88.5 -449t239 -277t336.5 -94t336.5 94t239 277
t88.5 449zM656 2304q0 162 112 267t304 105t302 -105t110 -267h-220q0 81 -45 140.5t-147 59.5q-108 0 -152 -61t-44 -139h-220z" />
    <glyph glyph-name="uni022A" unicode="&#x22a;" horiz-adv-x="2144" 
d="M1976 1024q0 -324 -117 -560t-321 -364t-466 -128t-466 128t-321 364t-117 560t117 560t321 364t466 128t466 -128t321 -364t117 -560zM1736 1024q0 266 -88.5 449t-239 277t-336.5 94t-336.5 -94t-239 -277t-88.5 -449t88.5 -449t239 -277t336.5 -94t336.5 94t239 277
t88.5 449zM784 2304q-63 0 -111.5 48.5t-48.5 111.5q0 69 48.5 114.5t111.5 45.5q69 0 114.5 -45.5t45.5 -114.5q0 -63 -45.5 -111.5t-114.5 -48.5zM1360 2304q-63 0 -111.5 48.5t-48.5 111.5q0 69 48.5 114.5t111.5 45.5q69 0 114.5 -45.5t45.5 -114.5q0 -63 -45.5 -111.5
t-114.5 -48.5zM1540 3072v-200h-936v200h936z" />
    <glyph glyph-name="uni022C" unicode="&#x22c;" horiz-adv-x="2144" 
d="M1976 1024q0 -324 -117 -560t-321 -364t-466 -128t-466 128t-321 364t-117 560t117 560t321 364t466 128t466 -128t321 -364t117 -560zM1736 1024q0 266 -88.5 449t-239 277t-336.5 94t-336.5 -94t-239 -277t-88.5 -449t88.5 -449t239 -277t336.5 -94t336.5 94t239 277
t88.5 449zM1336 2540l120 -32q0 -102 -65 -177t-167 -75q-74 0 -119 26t-85 52t-100 26q-45 0 -76.5 -38t-31.5 -86l-120 32q0 99 64.5 177.5t163.5 78.5q62 0 108.5 -25t92 -50t103.5 -25q45 0 78.5 32.5t33.5 83.5zM1544 2888v-208h-940v208h940z" />
    <glyph glyph-name="uni022E" unicode="&#x22e;" horiz-adv-x="2144" 
d="M1976 1024q0 -324 -117 -560t-321 -364t-466 -128t-466 128t-321 364t-117 560t117 560t321 364t466 128t466 -128t321 -364t117 -560zM1736 1024q0 266 -88.5 449t-239 277t-336.5 94t-336.5 -94t-239 -277t-88.5 -449t88.5 -449t239 -277t336.5 -94t336.5 94t239 277
t88.5 449zM1072 2304q-69 0 -118.5 47t-49.5 113t49.5 113t118.5 47t118.5 -47t49.5 -113t-49.5 -113t-118.5 -47z" />
    <glyph glyph-name="uni0230" unicode="&#x230;" horiz-adv-x="2144" 
d="M1976 1024q0 -324 -117 -560t-321 -364t-466 -128t-466 128t-321 364t-117 560t117 560t321 364t466 128t466 -128t321 -364t117 -560zM1736 1024q0 266 -88.5 449t-239 277t-336.5 94t-336.5 -94t-239 -277t-88.5 -449t88.5 -449t239 -277t336.5 -94t336.5 94t239 277
t88.5 449zM1072 2224q-69 0 -118.5 47t-49.5 113t49.5 113t118.5 47t118.5 -47t49.5 -113t-49.5 -113t-118.5 -47zM1504 2960v-200h-936v200h936z" />
    <glyph glyph-name="uni1E4C" unicode="&#x1e4c;" horiz-adv-x="2144" 
d="M1976 1024q0 -324 -117 -560t-321 -364t-466 -128t-466 128t-321 364t-117 560t117 560t321 364t466 128t466 -128t321 -364t117 -560zM1736 1024q0 266 -88.5 449t-239 277t-336.5 94t-336.5 -94t-239 -277t-88.5 -449t88.5 -449t239 -277t336.5 -94t336.5 94t239 277
t88.5 449zM940 2672l292 304h276l-360 -304h-208zM764 2232l-184 8q0 153 87.5 250.5t216.5 97.5q57 0 101 -19.5t84 -44.5t82.5 -44.5t96.5 -19.5q57 0 96.5 44.5t39.5 107.5l180 -16q0 -156 -87.5 -248t-216.5 -92q-69 0 -114 19.5t-80 44.5t-74 44.5t-96 19.5
t-94.5 -44.5t-37.5 -107.5z" />
    <glyph glyph-name="uni1E4E" unicode="&#x1e4e;" horiz-adv-x="2144" 
d="M1976 1024q0 -324 -117 -560t-321 -364t-466 -128t-466 128t-321 364t-117 560t117 560t321 364t466 128t466 -128t321 -364t117 -560zM1736 1024q0 266 -88.5 449t-239 277t-336.5 94t-336.5 -94t-239 -277t-88.5 -449t88.5 -449t239 -277t336.5 -94t336.5 94t239 277
t88.5 449zM1336 2540l120 -32q0 -102 -65 -177t-167 -75q-74 0 -119 26t-85 52t-100 26q-45 0 -76.5 -36.5t-31.5 -87.5l-120 32q0 99 63 177.5t165 78.5q62 0 108.5 -25t92 -50t103.5 -25q45 0 78.5 34t33.5 82zM592 2776q0 63 39 107.5t117 44.5t119 -43t41 -109
q0 -63 -41 -105.5t-119 -42.5q-75 0 -115.5 42.5t-40.5 105.5zM1236 2774q0 65 41 109.5t119 44.5q75 0 115.5 -44.5t40.5 -107.5t-39 -107.5t-118 -44.5q-77 0 -118 43t-41 107z" />
    <glyph glyph-name="uni1E50" unicode="&#x1e50;" horiz-adv-x="2144" 
d="M1976 1024q0 -324 -117 -560t-321 -364t-466 -128t-466 128t-321 364t-117 560t117 560t321 364t466 128t466 -128t321 -364t117 -560zM1736 1024q0 266 -88.5 449t-239 277t-336.5 94t-336.5 -94t-239 -277t-88.5 -449t88.5 -449t239 -277t336.5 -94t336.5 94t239 277
t88.5 449zM970 2640l-340 304h284l300 -304h-244zM1540 2504v-200h-936v200h936z" />
    <glyph glyph-name="uni1E52" unicode="&#x1e52;" horiz-adv-x="2144" 
d="M1976 1024q0 -324 -117 -560t-321 -364t-466 -128t-466 128t-321 364t-117 560t117 560t321 364t466 128t466 -128t321 -364t117 -560zM1736 1024q0 266 -88.5 449t-239 277t-336.5 94t-336.5 -94t-239 -277t-88.5 -449t88.5 -449t239 -277t336.5 -94t336.5 94t239 277
t88.5 449zM932 2640l300 304h284l-340 -304h-244zM1540 2504v-200h-936v200h936z" />
    <glyph glyph-name="uni1ECC" unicode="&#x1ecc;" horiz-adv-x="2144" 
d="M1976 1024q0 -324 -117 -560t-321 -364t-466 -128t-466 128t-321 364t-117 560t117 560t321 364t466 128t466 -128t321 -364t117 -560zM1736 1024q0 266 -88.5 449t-239 277t-336.5 94t-336.5 -94t-239 -277t-88.5 -449t88.5 -449t239 -277t336.5 -94t336.5 94t239 277
t88.5 449zM1072 -508q-69 0 -118.5 47t-49.5 113t49.5 113t118.5 47t118.5 -47t49.5 -113t-49.5 -113t-118.5 -47z" />
    <glyph glyph-name="uni1ECE" unicode="&#x1ece;" horiz-adv-x="2144" 
d="M1976 1024q0 -324 -117 -560t-321 -364t-466 -128t-466 128t-321 364t-117 560t117 560t321 364t466 128t466 -128t321 -364t117 -560zM1736 1024q0 266 -88.5 449t-239 277t-336.5 94t-336.5 -94t-239 -277t-88.5 -449t88.5 -449t239 -277t336.5 -94t336.5 94t239 277
t88.5 449zM1176 2256h-196v216q105 6 148.5 29t43.5 71q0 54 -63 79t-153 25l8 152q207 0 313.5 -72t106.5 -192q0 -102 -65 -149t-143 -59v-100z" />
    <glyph glyph-name="uni1ED0" unicode="&#x1ed0;" horiz-adv-x="2144" 
d="M1976 1024q0 -324 -117 -560t-321 -364t-466 -128t-466 128t-321 364t-117 560t117 560t321 364t466 128t466 -128t321 -364t117 -560zM1736 1024q0 266 -88.5 449t-239 277t-336.5 94t-336.5 -94t-239 -277t-88.5 -449t88.5 -449t239 -277t336.5 -94t336.5 94t239 277
t88.5 449zM556 2240l408 364h220l408 -364h-288l-228 212l-228 -212h-292zM1484 2484l196 360h292l-280 -360h-208z" />
    <glyph glyph-name="uni1ED2" unicode="&#x1ed2;" horiz-adv-x="2144" 
d="M1976 1024q0 -324 -117 -560t-321 -364t-466 -128t-466 128t-321 364t-117 560t117 560t321 364t466 128t466 -128t321 -364t117 -560zM1736 1024q0 266 -88.5 449t-239 277t-336.5 94t-336.5 -94t-239 -277t-88.5 -449t88.5 -449t239 -277t336.5 -94t336.5 94t239 277
t88.5 449zM1180 2600l408 -364h-288l-228 212l-228 -212h-288l404 364h220zM468 2844l192 -364h-204l-284 364h296z" />
    <glyph glyph-name="uni1ED4" unicode="&#x1ed4;" horiz-adv-x="2144" 
d="M1976 1024q0 -324 -117 -560t-321 -364t-466 -128t-466 128t-321 364t-117 560t117 560t321 364t466 128t466 -128t321 -364t117 -560zM1736 1024q0 266 -88.5 449t-239 277t-336.5 94t-336.5 -94t-239 -277t-88.5 -449t88.5 -449t239 -277t336.5 -94t336.5 94t239 277
t88.5 449zM1208 2576l380 -364h-248l-272 252l-268 -252h-248l380 364h276zM1628 2404h-168v184q84 6 124 22.5t40 61.5q0 48 -53.5 68t-134.5 20l8 132q180 0 272 -61t92 -163q0 -90 -55.5 -130.5t-124.5 -49.5v-84z" />
    <glyph glyph-name="uni1ED6" unicode="&#x1ed6;" horiz-adv-x="2144" 
d="M1976 1024q0 -324 -117 -560t-321 -364t-466 -128t-466 128t-321 364t-117 560t117 560t321 364t466 128t466 -128t321 -364t117 -560zM1736 1024q0 266 -88.5 449t-239 277t-336.5 94t-336.5 -94t-239 -277t-88.5 -449t88.5 -449t239 -277t336.5 -94t336.5 94t239 277
t88.5 449zM1164 2520l420 -336h-248l-268 212l-268 -212h-248l420 336h192zM1316 2872l112 -32q0 -81 -66 -148.5t-162 -67.5q-51 0 -86 14.5t-62.5 33.5t-57 33.5t-70.5 14.5q-42 0 -79 -32t-37 -68l-108 28q0 81 64 150.5t160 69.5q42 0 76 -14t65 -32t63.5 -32t71.5 -14
q42 0 79 30t37 66z" />
    <glyph glyph-name="uni1ED8" unicode="&#x1ed8;" horiz-adv-x="2144" 
d="M1976 1024q0 -324 -117 -560t-321 -364t-466 -128t-466 128t-321 364t-117 560t117 560t321 364t466 128t466 -128t321 -364t117 -560zM1736 1024q0 266 -88.5 449t-239 277t-336.5 94t-336.5 -94t-239 -277t-88.5 -449t88.5 -449t239 -277t336.5 -94t336.5 94t239 277
t88.5 449zM864 2232h-224v16l324 416h216l324 -416v-16h-224l-208 280zM1072 -508q-69 0 -118.5 47t-49.5 113t49.5 113t118.5 47t118.5 -47t49.5 -113t-49.5 -113t-118.5 -47z" />
    <glyph glyph-name="uni1EDA" unicode="&#x1eda;" horiz-adv-x="2180" 
d="M1904 2196h236q0 -270 -134.5 -417t-401.5 -147v196q156 0 228 97t72 271zM1976 1024q0 -324 -117 -560t-321 -364t-466 -128t-466 128t-321 364t-117 560t117 560t321 364t466 128t466 -128t321 -364t117 -560zM1736 1024q0 266 -88.5 449t-239 277t-336.5 94
t-336.5 -94t-239 -277t-88.5 -449t88.5 -449t239 -277t336.5 -94t336.5 94t239 277t88.5 449zM964 2256l244 464h276l-312 -464h-208z" />
    <glyph glyph-name="uni1EDC" unicode="&#x1edc;" horiz-adv-x="2180" 
d="M1904 2196h236q0 -270 -134.5 -417t-401.5 -147v196q156 0 228 97t72 271zM1976 1024q0 -324 -117 -560t-321 -364t-466 -128t-466 128t-321 364t-117 560t117 560t321 364t466 128t466 -128t321 -364t117 -560zM1736 1024q0 266 -88.5 449t-239 277t-336.5 94
t-336.5 -94t-239 -277t-88.5 -449t88.5 -449t239 -277t336.5 -94t336.5 94t239 277t88.5 449zM972 2256l-312 464h276l244 -464h-208z" />
    <glyph glyph-name="uni1EDE" unicode="&#x1ede;" horiz-adv-x="2180" 
d="M1904 2196h236q0 -270 -134.5 -417t-401.5 -147v196q156 0 228 97t72 271zM1976 1024q0 -324 -117 -560t-321 -364t-466 -128t-466 128t-321 364t-117 560t117 560t321 364t466 128t466 -128t321 -364t117 -560zM1736 1024q0 266 -88.5 449t-239 277t-336.5 94
t-336.5 -94t-239 -277t-88.5 -449t88.5 -449t239 -277t336.5 -94t336.5 94t239 277t88.5 449zM1176 2256h-196v216q105 6 148.5 29t43.5 71q0 54 -63 79t-153 25l8 152q207 0 313.5 -72t106.5 -192q0 -102 -65 -149t-143 -59v-100z" />
    <glyph glyph-name="uni1EE0" unicode="&#x1ee0;" horiz-adv-x="2180" 
d="M1904 2196h236q0 -270 -134.5 -417t-401.5 -147v196q156 0 228 97t72 271zM1976 1024q0 -324 -117 -560t-321 -364t-466 -128t-466 128t-321 364t-117 560t117 560t321 364t466 128t466 -128t321 -364t117 -560zM1736 1024q0 266 -88.5 449t-239 277t-336.5 94
t-336.5 -94t-239 -277t-88.5 -449t88.5 -449t239 -277t336.5 -94t336.5 94t239 277t88.5 449zM764 2232l-184 8q0 153 87.5 250.5t216.5 97.5q57 0 101 -19.5t84 -44.5t82.5 -44.5t96.5 -19.5q57 0 96.5 44.5t39.5 107.5l180 -16q0 -156 -87.5 -248t-216.5 -92
q-69 0 -114 19.5t-80 44.5t-74 44.5t-96 19.5t-94.5 -44.5t-37.5 -107.5z" />
    <glyph glyph-name="uni1EE2" unicode="&#x1ee2;" horiz-adv-x="2180" 
d="M1904 2196h236q0 -270 -134.5 -417t-401.5 -147v196q156 0 228 97t72 271zM1976 1024q0 -324 -117 -560t-321 -364t-466 -128t-466 128t-321 364t-117 560t117 560t321 364t466 128t466 -128t321 -364t117 -560zM1736 1024q0 266 -88.5 449t-239 277t-336.5 94
t-336.5 -94t-239 -277t-88.5 -449t88.5 -449t239 -277t336.5 -94t336.5 94t239 277t88.5 449zM1072 -508q-69 0 -118.5 47t-49.5 113t49.5 113t118.5 47t118.5 -47t49.5 -113t-49.5 -113t-118.5 -47z" />
    <glyph glyph-name="uni01FE" unicode="&#x1fe;" horiz-adv-x="2144" 
d="M432 -84l-152 104l1424 2108l152 -104zM1976 1024q0 -324 -117 -560t-321 -364t-466 -128t-466 128t-321 364t-117 560t117 560t321 364t466 128t466 -128t321 -364t117 -560zM1736 1024q0 266 -88.5 449t-239 277t-336.5 94t-336.5 -94t-239 -277t-88.5 -449t88.5 -449
t239 -277t336.5 -94t336.5 94t239 277t88.5 449zM964 2256l244 464h276l-312 -464h-208z" />
    <glyph glyph-name="uni039F" unicode="&#x39f;" horiz-adv-x="2144" 
d="M1976 1024q0 -324 -117 -560t-321 -364t-466 -128t-466 128t-321 364t-117 560t117 560t321 364t466 128t466 -128t321 -364t117 -560zM1736 1024q0 266 -88.5 449t-239 277t-336.5 94t-336.5 -94t-239 -277t-88.5 -449t88.5 -449t239 -277t336.5 -94t336.5 94t239 277
t88.5 449z" />
    <glyph glyph-name="uni038C" unicode="&#x38c;" horiz-adv-x="2200" 
d="M2032 1024q0 -324 -117 -560t-321 -364t-466 -128t-466 128t-321 364t-117 560t117 560t321 364t466 128t466 -128t321 -364t117 -560zM1792 1024q0 266 -88.5 449t-239 277t-336.5 94t-336.5 -94t-239 -277t-88.5 -449t88.5 -449t239 -277t336.5 -94t336.5 94t239 277
t88.5 449zM-16 1708l68 468h256l-160 -468h-164z" />
    <glyph glyph-name="uni1F48" unicode="&#x1f48;" horiz-adv-x="2296" 
d="M2128 1024q0 -324 -117 -560t-321 -364t-466 -128t-466 128t-321 364t-117 560t117 560t321 364t466 128t466 -128t321 -364t117 -560zM1888 1024q0 266 -88.5 449t-239 277t-336.5 94t-336.5 -94t-239 -277t-88.5 -449t88.5 -449t239 -277t336.5 -94t336.5 94t239 277
t88.5 449zM344 2048v-112q0 -80 -29 -151t-85 -130t-138 -103l-108 84q38 42 63 88t37 100t12 120v104h248z" />
    <glyph glyph-name="uni1F49" unicode="&#x1f49;" horiz-adv-x="2392" 
d="M2224 1024q0 -324 -117 -560t-321 -364t-466 -128t-466 128t-321 364t-117 560t117 560t321 364t466 128t466 -128t321 -364t117 -560zM1984 1024q0 266 -88.5 449t-239 277t-336.5 94t-336.5 -94t-239 -277t-88.5 -449t88.5 -449t239 -277t336.5 -94t336.5 94t239 277
t88.5 449zM100 1936v112h248v-104q0 -66 12 -120t37 -100t63 -88l-108 -84q-120 66 -186 165t-66 219z" />
    <glyph glyph-name="uni1F4A" unicode="&#x1f4a;" horiz-adv-x="2848" 
d="M2680 1024q0 -324 -117 -560t-321 -364t-466 -128t-466 128t-321 364t-117 560t117 560t321 364t466 128t466 -128t321 -364t117 -560zM2440 1024q0 266 -88.5 449t-239 277t-336.5 94t-336.5 -94t-239 -277t-88.5 -449t88.5 -449t239 -277t336.5 -94t336.5 94t239 277
t88.5 449zM852 1604v-20h-128l-316 436v28h288zM344 2048v-112q0 -80 -29.5 -151t-86 -130t-136.5 -103l-108 84q54 63 83 136t29 172v104h248z" />
    <glyph glyph-name="uni1F4B" unicode="&#x1f4b;" horiz-adv-x="2704" 
d="M2536 1024q0 -324 -117 -560t-321 -364t-466 -128t-466 128t-321 364t-117 560t117 560t321 364t466 128t466 -128t321 -364t117 -560zM2296 1024q0 266 -88.5 449t-239 277t-336.5 94t-336.5 -94t-239 -277t-88.5 -449t88.5 -449t239 -277t336.5 -94t336.5 94t239 277
t88.5 449zM728 1604v-20h-128l-316 436v28h292zM-56 1936v112h248v-104q0 -99 27.5 -172t84.5 -136l-108 -84q-120 66 -186 165t-66 219z" />
    <glyph glyph-name="uni1F4C" unicode="&#x1f4c;" horiz-adv-x="2604" 
d="M2436 1024q0 -324 -117 -560t-321 -364t-466 -128t-466 128t-321 364t-117 560t117 560t321 364t466 128t466 -128t321 -364t117 -560zM2196 1024q0 266 -88.5 449t-239 277t-336.5 94t-336.5 -94t-239 -277t-88.5 -449t88.5 -449t239 -277t336.5 -94t336.5 94t239 277
t88.5 449zM364 1584v20l156 444h288v-28l-316 -436h-128zM344 2048v-112q0 -80 -29.5 -151t-86 -130t-136.5 -103l-108 84q54 63 83 136t29 172v104h248z" />
    <glyph glyph-name="uni1F4D" unicode="&#x1f4d;" horiz-adv-x="2636" 
d="M2468 1024q0 -324 -117 -560t-321 -364t-466 -128t-466 128t-321 364t-117 560t117 560t321 364t466 128t466 -128t321 -364t117 -560zM2228 1024q0 266 -88.5 449t-239 277t-336.5 94t-336.5 -94t-239 -277t-88.5 -449t88.5 -449t239 -277t336.5 -94t336.5 94t239 277
t88.5 449zM396 1584v20l152 444h292v-28l-316 -436h-128zM-16 1936v112h248v-104q0 -99 29 -172t83 -136l-108 -84q-120 66 -186 165t-66 219z" />
    <glyph glyph-name="uni1FF8" unicode="&#x1ff8;" horiz-adv-x="2420" 
d="M2252 1024q0 -324 -117 -560t-321 -364t-466 -128t-466 128t-321 364t-117 560t117 560t321 364t466 128t466 -128t321 -364t117 -560zM2012 1024q0 266 -88.5 449t-239 277t-336.5 94t-336.5 -94t-239 -277t-88.5 -449t88.5 -449t239 -277t336.5 -94t336.5 94t239 277
t88.5 449zM428 1580h-128l-316 440v28h288l156 -444v-24z" />
    <glyph glyph-name="uni03F4" unicode="&#x3f4;" horiz-adv-x="2144" 
d="M1776 1136v-220q-144 -67 -265 -78.5t-228.5 9.5t-210.5 54t-210.5 57.5t-228.5 19.5t-265 -62v220q144 66 265 77t228.5 -10.5t210.5 -54.5t210.5 -57t228.5 -18.5t265 63.5zM1976 1024q0 -324 -117 -560t-321 -364t-466 -128t-466 128t-321 364t-117 560t117 560
t321 364t466 128t466 -128t321 -364t117 -560zM1736 1024q0 266 -88.5 449t-239 277t-336.5 94t-336.5 -94t-239 -277t-88.5 -449t88.5 -449t239 -277t336.5 -94t336.5 94t239 277t88.5 449z" />
    <glyph glyph-name="uni1FF9" unicode="&#x1ff9;" horiz-adv-x="2220" 
d="M2052 1024q0 -324 -117 -560t-321 -364t-466 -128t-466 128t-321 364t-117 560t117 560t321 364t466 128t466 -128t321 -364t117 -560zM1812 1024q0 266 -88.5 449t-239 277t-336.5 94t-336.5 -94t-239 -277t-88.5 -449t88.5 -449t239 -277t336.5 -94t336.5 94t239 277
t88.5 449zM128 1728v24l152 444h292v-28l-316 -440h-128z" />
    <glyph glyph-name="uni041E" unicode="&#x41e;" horiz-adv-x="2144" 
d="M1976 1024q0 -324 -117 -560t-321 -364t-466 -128t-466 128t-321 364t-117 560t117 560t321 364t466 128t466 -128t321 -364t117 -560zM1736 1024q0 266 -88.5 449t-239 277t-336.5 94t-336.5 -94t-239 -277t-88.5 -449t88.5 -449t239 -277t336.5 -94t336.5 94t239 277
t88.5 449z" />
    <glyph glyph-name="uni04E6" unicode="&#x4e6;" horiz-adv-x="2144" 
d="M1976 1024q0 -324 -117 -560t-321 -364t-466 -128t-466 128t-321 364t-117 560t117 560t321 364t466 128t466 -128t321 -364t117 -560zM1736 1024q0 266 -88.5 449t-239 277t-336.5 94t-336.5 -94t-239 -277t-88.5 -449t88.5 -449t239 -277t336.5 -94t336.5 94t239 277
t88.5 449zM784 2304q-63 0 -111.5 48.5t-48.5 111.5q0 69 48.5 114.5t111.5 45.5q69 0 114.5 -45.5t45.5 -114.5q0 -63 -45.5 -111.5t-114.5 -48.5zM1360 2304q-63 0 -111.5 48.5t-48.5 111.5q0 69 48.5 114.5t111.5 45.5q69 0 114.5 -45.5t45.5 -114.5q0 -63 -45.5 -111.5
t-114.5 -48.5z" />
    <glyph glyph-name="uni019F" unicode="&#x19f;" horiz-adv-x="2144" 
d="M1776 1136v-220q-144 -67 -265 -78.5t-228.5 9.5t-210.5 54t-210.5 57.5t-228.5 19.5t-265 -62v220q144 66 265 77t228.5 -10.5t210.5 -54.5t210.5 -57t228.5 -18.5t265 63.5zM1976 1024q0 -324 -117 -560t-321 -364t-466 -128t-466 128t-321 364t-117 560t117 560
t321 364t466 128t466 -128t321 -364t117 -560zM1736 1024q0 266 -88.5 449t-239 277t-336.5 94t-336.5 -94t-239 -277t-88.5 -449t88.5 -449t239 -277t336.5 -94t336.5 94t239 277t88.5 449z" />
    <glyph glyph-name="uni04E8" unicode="&#x4e8;" horiz-adv-x="2144" 
d="M1776 1136v-220q-144 -67 -265 -78.5t-228.5 9.5t-210.5 54t-210.5 57.5t-228.5 19.5t-265 -62v220q144 66 265 77t228.5 -10.5t210.5 -54.5t210.5 -57t228.5 -18.5t265 63.5zM1976 1024q0 -324 -117 -560t-321 -364t-466 -128t-466 128t-321 364t-117 560t117 560
t321 364t466 128t466 -128t321 -364t117 -560zM1736 1024q0 266 -88.5 449t-239 277t-336.5 94t-336.5 -94t-239 -277t-88.5 -449t88.5 -449t239 -277t336.5 -94t336.5 94t239 277t88.5 449z" />
    <glyph glyph-name="uni04EA" unicode="&#x4ea;" horiz-adv-x="2144" 
d="M1776 1136v-220q-144 -67 -265 -78.5t-228.5 9.5t-210.5 54t-210.5 57.5t-228.5 19.5t-265 -62v220q144 66 265 77t228.5 -10.5t210.5 -54.5t210.5 -57t228.5 -18.5t265 63.5zM1976 1024q0 -324 -117 -560t-321 -364t-466 -128t-466 128t-321 364t-117 560t117 560
t321 364t466 128t466 -128t321 -364t117 -560zM1736 1024q0 266 -88.5 449t-239 277t-336.5 94t-336.5 -94t-239 -277t-88.5 -449t88.5 -449t239 -277t336.5 -94t336.5 94t239 277t88.5 449zM784 2304q-63 0 -111.5 48.5t-48.5 111.5q0 69 48.5 114.5t111.5 45.5
q69 0 114.5 -45.5t45.5 -114.5q0 -63 -45.5 -111.5t-114.5 -48.5zM1360 2304q-63 0 -111.5 48.5t-48.5 111.5q0 69 48.5 114.5t111.5 45.5q69 0 114.5 -45.5t45.5 -114.5q0 -63 -45.5 -111.5t-114.5 -48.5z" />
    <glyph glyph-name="uni0152" unicode="&#x152;" horiz-adv-x="2684" 
d="M1072 0q-270 0 -473.5 128.5t-317 359t-113.5 536.5q0 308 113.5 538.5t317 358t473.5 127.5h1412v-220h-988v-692h924v-220h-924v-696h1004v-220h-1428zM1248 220v1608h-176q-198 0 -347.5 -100t-233 -281t-83.5 -423q0 -240 83.5 -421t233 -282t347.5 -101h176z" />
    <glyph glyph-name="uni0050" unicode="P" horiz-adv-x="1788" 
d="M248 0v2048h692q241 0 394.5 -86.5t227.5 -233.5t74 -328t-73.5 -329t-226.5 -235.5t-392 -87.5h-496v220h488q165 0 265 57t145.5 154.5t45.5 220.5t-45.5 220t-146.5 152.5t-268 55.5h-436v-1828h-248z" />
    <glyph glyph-name="uni1E54" unicode="&#x1e54;" horiz-adv-x="1788" 
d="M248 0v2048h692q241 0 394.5 -86.5t227.5 -233.5t74 -328t-73.5 -329t-226.5 -235.5t-392 -87.5h-496v220h488q165 0 265 57t145.5 154.5t45.5 220.5t-45.5 220t-146.5 152.5t-268 55.5h-436v-1828h-248zM784 2256l244 464h276l-312 -464h-208z" />
    <glyph glyph-name="uni1E56" unicode="&#x1e56;" horiz-adv-x="1788" 
d="M248 0v2048h692q241 0 394.5 -86.5t227.5 -233.5t74 -328t-73.5 -329t-226.5 -235.5t-392 -87.5h-496v220h488q165 0 265 57t145.5 154.5t45.5 220.5t-45.5 220t-146.5 152.5t-268 55.5h-436v-1828h-248zM892 2304q-69 0 -118.5 47t-49.5 113t49.5 113t118.5 47
t118.5 -47t49.5 -113t-49.5 -113t-118.5 -47z" />
    <glyph glyph-name="uni048E" unicode="&#x48e;" horiz-adv-x="1788" 
d="M1136 1316l416 -636l-184 -120l-416 640zM248 0v2048h692q241 0 394.5 -86.5t227.5 -233.5t74 -328t-73.5 -329t-226.5 -235.5t-392 -87.5h-496v220h488q165 0 265 57t145.5 154.5t45.5 220.5t-45.5 220t-146.5 152.5t-268 55.5h-436v-1828h-248z" />
    <glyph glyph-name="uni01A4" unicode="&#x1a4;" horiz-adv-x="2216" 
d="M368 1504h-232v136q0 112 47 204.5t138 148t223 55.5h824q241 0 394.5 -86.5t227.5 -233.5t74 -328t-73.5 -329t-226.5 -235.5t-392 -87.5h-448v-748h-248v1828h-128q-80 0 -118.5 -35.5t-50 -92t-11.5 -120.5v-76zM924 968h440q165 0 265 57t145.5 154.5t45.5 220.5
t-45.5 220t-146.5 152.5t-268 55.5h-436v-860z" />
    <glyph glyph-name="uni03A1" unicode="&#x3a1;" horiz-adv-x="1788" 
d="M248 0v2048h692q241 0 394.5 -86.5t227.5 -233.5t74 -328t-73.5 -329t-226.5 -235.5t-392 -87.5h-496v220h488q165 0 265 57t145.5 154.5t45.5 220.5t-45.5 220t-146.5 152.5t-268 55.5h-436v-1828h-248z" />
    <glyph glyph-name="uni1FEC" unicode="&#x1fec;" horiz-adv-x="2136" 
d="M600 0v2048h692q241 0 394.5 -86.5t227.5 -233.5t74 -328t-73.5 -329t-226.5 -235.5t-392 -87.5h-496v220h488q165 0 265 57t145.5 154.5t45.5 220.5t-45.5 220t-146.5 152.5t-268 55.5h-436v-1828h-248zM132 1936v112h248v-104q0 -66 12 -120t37 -100t63 -88l-108 -84
q-120 66 -186 165t-66 219z" />
    <glyph glyph-name="uni0051" unicode="Q" horiz-adv-x="2144" 
d="M992 640h272l228 -300l60 -80l340 -452h-272l-224 300l-56 76zM1976 1024q0 -324 -117 -560t-321 -364t-466 -128t-466 128t-321 364t-117 560t117 560t321 364t466 128t466 -128t321 -364t117 -560zM1736 1024q0 266 -88.5 449t-239 277t-336.5 94t-336.5 -94t-239 -277
t-88.5 -449t88.5 -449t239 -277t336.5 -94t336.5 94t239 277t88.5 449z" />
    <glyph glyph-name="uni0052" unicode="R" horiz-adv-x="1800" 
d="M248 0v2048h692q240 0 394 -81.5t228 -223.5t74 -323t-74 -321t-227 -219.5t-391 -79.5h-560v224h552q164 0 264.5 48t146 136.5t45.5 211.5t-46 215t-147 142.5t-267 50.5h-436v-1828h-248zM1212 920l504 -920h-288l-496 920h280z" />
    <glyph glyph-name="uni0154" unicode="&#x154;" horiz-adv-x="1800" 
d="M248 0v2048h692q240 0 394 -81.5t228 -223.5t74 -323t-74 -321t-227 -219.5t-391 -79.5h-560v224h552q164 0 264.5 48t146 136.5t45.5 211.5t-46 215t-147 142.5t-267 50.5h-436v-1828h-248zM1212 920l504 -920h-288l-496 920h280zM780 2256l244 464h276l-312 -464h-208z
" />
    <glyph glyph-name="uni0156" unicode="&#x156;" horiz-adv-x="1800" 
d="M248 0v2048h692q240 0 394 -81.5t228 -223.5t74 -323t-74 -321t-227 -219.5t-391 -79.5h-560v224h552q164 0 264.5 48t146 136.5t45.5 211.5t-46 215t-147 142.5t-267 50.5h-436v-1828h-248zM1212 920l504 -920h-288l-496 920h280zM690 -680l112 518h242l-170 -518h-184z
" />
    <glyph glyph-name="uni0158" unicode="&#x158;" horiz-adv-x="1800" 
d="M248 0v2048h692q240 0 394 -81.5t228 -223.5t74 -323t-74 -321t-227 -219.5t-391 -79.5h-560v224h552q164 0 264.5 48t146 136.5t45.5 211.5t-46 215t-147 142.5t-267 50.5h-436v-1828h-248zM1212 920l504 -920h-288l-496 920h280zM680 2664l208 -280l208 280h224v-16
l-324 -416h-216l-324 416v16h224z" />
    <glyph glyph-name="uni0210" unicode="&#x210;" horiz-adv-x="1800" 
d="M248 0v2048h692q240 0 394 -81.5t228 -223.5t74 -323t-74 -321t-227 -219.5t-391 -79.5h-560v224h552q164 0 264.5 48t146 136.5t45.5 211.5t-46 215t-147 142.5t-267 50.5h-436v-1828h-248zM1212 920l504 -920h-288l-496 920h280zM578 2256l-330 464h294l244 -464h-208z
M1002 2256l-244 464h300l150 -464h-206z" />
    <glyph glyph-name="uni0212" unicode="&#x212;" horiz-adv-x="1800" 
d="M248 0v2048h692q240 0 394 -81.5t228 -223.5t74 -323t-74 -321t-227 -219.5t-391 -79.5h-560v224h552q164 0 264.5 48t146 136.5t45.5 211.5t-46 215t-147 142.5t-267 50.5h-436v-1828h-248zM1212 920l504 -920h-288l-496 920h280zM472 2304q0 162 112 267t304 105
t302 -105t110 -267h-220q0 81 -45 140.5t-147 59.5q-108 0 -152 -61t-44 -139h-220z" />
    <glyph glyph-name="uni1E58" unicode="&#x1e58;" horiz-adv-x="1800" 
d="M248 0v2048h692q240 0 394 -81.5t228 -223.5t74 -323t-74 -321t-227 -219.5t-391 -79.5h-560v224h552q164 0 264.5 48t146 136.5t45.5 211.5t-46 215t-147 142.5t-267 50.5h-436v-1828h-248zM1212 920l504 -920h-288l-496 920h280zM888 2304q-69 0 -118.5 47t-49.5 113
t49.5 113t118.5 47t118.5 -47t49.5 -113t-49.5 -113t-118.5 -47z" />
    <glyph glyph-name="uni1E5A" unicode="&#x1e5a;" horiz-adv-x="1800" 
d="M248 0v2048h692q240 0 394 -81.5t228 -223.5t74 -323t-74 -321t-227 -219.5t-391 -79.5h-560v224h552q164 0 264.5 48t146 136.5t45.5 211.5t-46 215t-147 142.5t-267 50.5h-436v-1828h-248zM1212 920l504 -920h-288l-496 920h280zM924 -508q-69 0 -118.5 47t-49.5 113
t49.5 113t118.5 47t118.5 -47t49.5 -113t-49.5 -113t-118.5 -47z" />
    <glyph glyph-name="uni1E5C" unicode="&#x1e5c;" horiz-adv-x="1800" 
d="M248 0v2048h692q240 0 394 -81.5t228 -223.5t74 -323t-74 -321t-227 -219.5t-391 -79.5h-560v224h552q164 0 264.5 48t146 136.5t45.5 211.5t-46 215t-147 142.5t-267 50.5h-436v-1828h-248zM1212 920l504 -920h-288l-496 920h280zM924 -508q-69 0 -118.5 47t-49.5 113
t49.5 113t118.5 47t118.5 -47t49.5 -113t-49.5 -113t-118.5 -47zM1356 2560v-200h-936v200h936z" />
    <glyph glyph-name="uni1E5E" unicode="&#x1e5e;" horiz-adv-x="1800" 
d="M248 0v2048h692q240 0 394 -81.5t228 -223.5t74 -323t-74 -321t-227 -219.5t-391 -79.5h-560v224h552q164 0 264.5 48t146 136.5t45.5 211.5t-46 215t-147 142.5t-267 50.5h-436v-1828h-248zM1212 920l504 -920h-288l-496 920h280zM1392 -252v-200h-936v200h936z" />
    <glyph glyph-name="uni211F" unicode="&#x211f;" horiz-adv-x="1800" 
d="M1360 2316l-792 -2800l-156 32l760 2672l-436 128l56 148zM248 0v2048h692q240 0 394 -81.5t228 -223.5t74 -323t-74 -321t-227 -219.5t-391 -79.5h-560v224h552q164 0 264.5 48t146 136.5t45.5 211.5t-46 215t-147 142.5t-267 50.5h-436v-1828h-248zM1212 920l504 -920
h-288l-496 920h280z" />
    <glyph glyph-name="uni211E" unicode="&#x211e;" horiz-adv-x="1924" 
d="M248 2048h684q244 0 395.5 -86t222 -229t70.5 -313q0 -160 -55.5 -281t-162 -202t-258.5 -121l-76 -20h-628v228h464q180 0 283 51.5t146 141t43 203.5q0 96 -35 190t-131 156t-278 62h-436v-1828h-248v2048zM1532 0l-652 900h280l660 -900h-288zM1168 0h-288l660 900
h280z" />
    <glyph glyph-name="uni024C" unicode="&#x24c;" horiz-adv-x="1824" 
d="M412 800h-380v224h380v-224zM272 0v2048h692q240 0 394 -81.5t228 -223.5t74 -323t-74 -321t-227 -219.5t-391 -79.5h-560v224h552q164 0 264.5 48t146 136.5t45.5 211.5t-46 215t-147 142.5t-267 50.5h-436v-1828h-248zM1236 920l504 -920h-288l-496 920h280z" />
    <glyph glyph-name="uni0053" unicode="S" horiz-adv-x="1796" 
d="M1368 1536q-18 152 -146 236t-314 84q-136 0 -237.5 -44t-158 -121t-56.5 -175q0 -82 39.5 -140.5t101.5 -97t130 -63t125 -39.5l208 -56q80 -21 178.5 -58t189 -100.5t149.5 -162.5t59 -243q0 -166 -86.5 -300t-252 -213t-401.5 -79q-220 0 -380.5 71t-252 198
t-103.5 295h256q10 -116 78.5 -191.5t174 -112t227.5 -36.5q142 0 255 46.5t179 130t66 195.5q0 102 -57 166t-150 104t-201 70l-252 72q-240 69 -380 197t-140 335q0 172 93.5 300.5t252 200t354.5 71.5q198 0 352 -70.5t244.5 -192.5t95.5 -277h-240z" />
    <glyph glyph-name="uni015A" unicode="&#x15a;" horiz-adv-x="1796" 
d="M1368 1536q-18 152 -146 236t-314 84q-136 0 -237.5 -44t-158 -121t-56.5 -175q0 -82 39.5 -140.5t101.5 -97t130 -63t125 -39.5l208 -56q80 -21 178.5 -58t189 -100.5t149.5 -162.5t59 -243q0 -166 -86.5 -300t-252 -213t-401.5 -79q-220 0 -380.5 71t-252 198
t-103.5 295h256q10 -116 78.5 -191.5t174 -112t227.5 -36.5q142 0 255 46.5t179 130t66 195.5q0 102 -57 166t-150 104t-201 70l-252 72q-240 69 -380 197t-140 335q0 172 93.5 300.5t252 200t354.5 71.5q198 0 352 -70.5t244.5 -192.5t95.5 -277h-240zM788 2256l244 464
h276l-312 -464h-208z" />
    </font>
</defs>
</svg>
