<?xml version="1.0" standalone="no"?>
<!DOCTYPE svg PUBLIC "-//W3C//DTD SVG 1.1//EN" "http://www.w3.org/Graphics/SVG/1.1/DTD/svg11.dtd" >
<svg xmlns="http://www.w3.org/2000/svg" xmlns:xlink="http://www.w3.org/1999/xlink" version="1.1">
<metadata>
Created by FontForge 20190801 at Thu Jan 23 23:42:53 2020
 By Jimmy Wärting
Copyright 2020 The Inter Project Authors (https://github.com/rsms/inter)
</metadata>
<defs>
<font id="Inter-Light" horiz-adv-x="0" >
  <font-face 
    font-family="Inter Light"
    font-weight="300"
    font-stretch="normal"
    units-per-em="2816"
    panose-1="2 11 5 2 3 0 0 0 0 4"
    ascent="2252"
    descent="-564"
    x-height="1536"
    cap-height="2048"
    bbox="-2037 -900 7274 3017"
    underline-thickness="192"
    underline-position="-560"
    unicode-range="U+0020-1F852"
  />
<missing-glyph horiz-adv-x="2748" 
d="M233 -640v512h2282v-512h-2282zM233 1472v512h2282v-512h-2282zM233 2176v512h2282v-512h-2282zM233 64v512h2282v-512h-2282zM233 768v512h2282v-512h-2282z" />
    <glyph glyph-name="uni24B6" unicode="A&#x20dd;" horiz-adv-x="3912" 
d="M1307 0h-196l745 2048h200l745 -2048h-196l-642 1805h-14zM1448 785h1016v-168h-1016v168zM1956 -900q-319 0 -607.5 97t-529 273.5t-417 417t-273.5 529t-97 607.5t97 607.5t273.5 529t417 417t529 273.5t607.5 97t607.5 -97t529 -273.5t417 -417t273.5 -529t97 -607.5
t-97 -607.5t-273.5 -529t-417 -417t-529 -273.5t-607.5 -97zM1956 -724q290 0 552 88.5t480.5 249t379 379t248.5 480.5t88 551q0 290 -88 552t-248.5 480.5t-379 379t-480.5 248.5t-552 88t-552 -88t-480.5 -248.5t-379 -379t-248.5 -480.5t-88 -552q0 -289 88 -551
t248.5 -480.5t379 -379t480.5 -249t552 -88.5z" />
    <glyph glyph-name="uni24B7" unicode="B&#x20dd;" horiz-adv-x="3912" 
d="M1347 0v2048h691q200 0 333.5 -70t200.5 -191t67 -275q0 -128 -43 -219t-117 -147t-165 -81v-16q99 -7 192 -69.5t153 -174.5t60 -268q0 -155 -69 -276.5t-211.5 -191t-362.5 -69.5h-729zM1534 168h542q237 0 350.5 105t113.5 264q0 117 -56.5 212.5t-159 151.5
t-240.5 56h-550v-789zM1534 1123h521q121 0 212 50t142 138t51 201q0 163 -106 265.5t-316 102.5h-504v-757zM1956 -900q-319 0 -607.5 97t-529 273.5t-417 417t-273.5 529t-97 607.5t97 607.5t273.5 529t417 417t529 273.5t607.5 97t607.5 -97t529 -273.5t417 -417
t273.5 -529t97 -607.5t-97 -607.5t-273.5 -529t-417 -417t-529 -273.5t-607.5 -97zM1956 -724q290 0 552 88.5t480.5 249t379 379t248.5 480.5t88 551q0 290 -88 552t-248.5 480.5t-379 379t-480.5 248.5t-552 88t-552 -88t-480.5 -248.5t-379 -379t-248.5 -480.5t-88 -552
q0 -289 88 -551t248.5 -480.5t379 -379t480.5 -249t552 -88.5z" />
    <glyph glyph-name="uni24B8" unicode="C&#x20dd;" horiz-adv-x="3912" 
d="M2804 1408h-188q-21 105 -75.5 194.5t-136.5 156.5t-186 104t-225 37q-194 0 -353.5 -101t-255 -296.5t-95.5 -478.5q0 -285 95.5 -480t255 -295.5t353.5 -100.5q121 0 225 37t186 103.5t136.5 156.5t75.5 195h188q-25 -141 -93.5 -262.5t-174 -212.5t-242.5 -142
t-301 -51q-258 0 -458 129.5t-313.5 365.5t-113.5 557t113.5 557t313.5 365.5t458 129.5q164 0 301 -50.5t242.5 -142t174 -212.5t93.5 -263zM1956 -900q-319 0 -607.5 97t-529 273.5t-417 417t-273.5 529t-97 607.5t97 607.5t273.5 529t417 417t529 273.5t607.5 97
t607.5 -97t529 -273.5t417 -417t273.5 -529t97 -607.5t-97 -607.5t-273.5 -529t-417 -417t-529 -273.5t-607.5 -97zM1956 -724q290 0 552 88.5t480.5 249t379 379t248.5 480.5t88 551q0 290 -88 552t-248.5 480.5t-379 379t-480.5 248.5t-552 88t-552 -88t-480.5 -248.5
t-379 -379t-248.5 -480.5t-88 -552q0 -289 88 -551t248.5 -480.5t379 -379t480.5 -249t552 -88.5z" />
    <glyph glyph-name="uni24B9" unicode="D&#x20dd;" horiz-adv-x="3912" 
d="M1904 0h-600v2048h636q293 0 501.5 -122t319.5 -350t111 -547q0 -322 -113.5 -552.5t-330 -353.5t-524.5 -123zM1491 168h402q264 0 442 104t267 297t89 460q-1 265 -87.5 456t-256 293t-418.5 102h-438v-1712zM1956 -900q-319 0 -607.5 97t-529 273.5t-417 417
t-273.5 529t-97 607.5t97 607.5t273.5 529t417 417t529 273.5t607.5 97t607.5 -97t529 -273.5t417 -417t273.5 -529t97 -607.5t-97 -607.5t-273.5 -529t-417 -417t-529 -273.5t-607.5 -97zM1956 -724q290 0 552 88.5t480.5 249t379 379t248.5 480.5t88 551q0 290 -88 552
t-248.5 480.5t-379 379t-480.5 248.5t-552 88t-552 -88t-480.5 -248.5t-379 -379t-248.5 -480.5t-88 -552q0 -289 88 -551t248.5 -480.5t379 -379t480.5 -249t552 -88.5z" />
    <glyph glyph-name="uni24BA" unicode="E&#x20dd;" horiz-adv-x="3912" 
d="M1352 0v2048h1188v-168h-1001v-771h938v-168h-938v-773h1021v-168h-1208zM1956 -900q-319 0 -607.5 97t-529 273.5t-417 417t-273.5 529t-97 607.5t97 607.5t273.5 529t417 417t529 273.5t607.5 97t607.5 -97t529 -273.5t417 -417t273.5 -529t97 -607.5t-97 -607.5
t-273.5 -529t-417 -417t-529 -273.5t-607.5 -97zM1956 -724q290 0 552 88.5t480.5 249t379 379t248.5 480.5t88 551q0 290 -88 552t-248.5 480.5t-379 379t-480.5 248.5t-552 88t-552 -88t-480.5 -248.5t-379 -379t-248.5 -480.5t-88 -552q0 -289 88 -551t248.5 -480.5
t379 -379t480.5 -249t552 -88.5z" />
    <glyph glyph-name="uni24BB" unicode="F&#x20dd;" horiz-adv-x="3912" 
d="M1363 0v2048h1185v-168h-998v-771h905v-168h-905v-941h-187zM1956 -900q-319 0 -607.5 97t-529 273.5t-417 417t-273.5 529t-97 607.5t97 607.5t273.5 529t417 417t529 273.5t607.5 97t607.5 -97t529 -273.5t417 -417t273.5 -529t97 -607.5t-97 -607.5t-273.5 -529
t-417 -417t-529 -273.5t-607.5 -97zM1956 -724q290 0 552 88.5t480.5 249t379 379t248.5 480.5t88 551q0 290 -88 552t-248.5 480.5t-379 379t-480.5 248.5t-552 88t-552 -88t-480.5 -248.5t-379 -379t-248.5 -480.5t-88 -552q0 -289 88 -551t248.5 -480.5t379 -379
t480.5 -249t552 -88.5z" />
    <glyph glyph-name="uni24BC" unicode="G&#x20dd;" horiz-adv-x="3912" 
d="M2608 1408q-28 102 -82 191.5t-133.5 157t-183 105.5t-230.5 38q-200 0 -358 -104t-249.5 -300t-91.5 -472q0 -275 92 -471t252.5 -300.5t367.5 -104.5q189 0 334 84t226.5 240t79.5 371l60 -19h-656v168h778v-168q0 -262 -106 -453t-291 -295t-425 -104
q-268 0 -469 129.5t-312.5 366t-111.5 556.5q0 241 64 435t181.5 332t278.5 211.5t356 73.5q168 0 307.5 -53t246 -145.5t175 -213t92.5 -256.5h-192zM1956 -900q-319 0 -607.5 97t-529 273.5t-417 417t-273.5 529t-97 607.5t97 607.5t273.5 529t417 417t529 273.5t607.5 97
t607.5 -97t529 -273.5t417 -417t273.5 -529t97 -607.5t-97 -607.5t-273.5 -529t-417 -417t-529 -273.5t-607.5 -97zM1956 -724q290 0 552 88.5t480.5 249t379 379t248.5 480.5t88 551q0 290 -88 552t-248.5 480.5t-379 379t-480.5 248.5t-552 88t-552 -88t-480.5 -248.5
t-379 -379t-248.5 -480.5t-88 -552q0 -289 88 -551t248.5 -480.5t379 -379t480.5 -249t552 -88.5z" />
    <glyph glyph-name="uni24BD" unicode="H&#x20dd;" horiz-adv-x="3912" 
d="M1188 0v2048h187v-939h1162v939h187v-2048h-187v941h-1162v-941h-187zM1956 -900q-319 0 -607.5 97t-529 273.5t-417 417t-273.5 529t-97 607.5t97 607.5t273.5 529t417 417t529 273.5t607.5 97t607.5 -97t529 -273.5t417 -417t273.5 -529t97 -607.5t-97 -607.5
t-273.5 -529t-417 -417t-529 -273.5t-607.5 -97zM1956 -724q290 0 552 88.5t480.5 249t379 379t248.5 480.5t88 551q0 290 -88 552t-248.5 480.5t-379 379t-480.5 248.5t-552 88t-552 -88t-480.5 -248.5t-379 -379t-248.5 -480.5t-88 -552q0 -289 88 -551t248.5 -480.5
t379 -379t480.5 -249t552 -88.5z" />
    <glyph glyph-name="uni24BE" unicode="I&#x20dd;" horiz-adv-x="3912" 
d="M2050 2048v-2048h-187v2048h187zM1956 -900q-319 0 -607.5 97t-529 273.5t-417 417t-273.5 529t-97 607.5t97 607.5t273.5 529t417 417t529 273.5t607.5 97t607.5 -97t529 -273.5t417 -417t273.5 -529t97 -607.5t-97 -607.5t-273.5 -529t-417 -417t-529 -273.5
t-607.5 -97zM1956 -724q290 0 552 88.5t480.5 249t379 379t248.5 480.5t88 551q0 290 -88 552t-248.5 480.5t-379 379t-480.5 248.5t-552 88t-552 -88t-480.5 -248.5t-379 -379t-248.5 -480.5t-88 -552q0 -289 88 -551t248.5 -480.5t379 -379t480.5 -249t552 -88.5z" />
    <glyph glyph-name="uni24BF" unicode="J&#x20dd;" horiz-adv-x="3912" 
d="M2243 2048h187v-1477q-1 -200 -72 -333.5t-196 -199.5t-287 -66q-159 0 -284 59t-196.5 166t-71.5 251h184q0 -91 48 -160.5t131.5 -108.5t188.5 -39q109 0 191.5 46t129.5 141.5t47 243.5v1477zM1956 -900q-319 0 -607.5 97t-529 273.5t-417 417t-273.5 529t-97 607.5
t97 607.5t273.5 529t417 417t529 273.5t607.5 97t607.5 -97t529 -273.5t417 -417t273.5 -529t97 -607.5t-97 -607.5t-273.5 -529t-417 -417t-529 -273.5t-607.5 -97zM1956 -724q290 0 552 88.5t480.5 249t379 379t248.5 480.5t88 551q0 290 -88 552t-248.5 480.5t-379 379
t-480.5 248.5t-552 88t-552 -88t-480.5 -248.5t-379 -379t-248.5 -480.5t-88 -552q0 -289 88 -551t248.5 -480.5t379 -379t480.5 -249t552 -88.5z" />
    <glyph glyph-name="uni24C0" unicode="K&#x20dd;" horiz-adv-x="3912" 
d="M1312 0v2048h187v-1103h18l1000 1103h246l-875 -947l871 -1101h-228l-759 971l-273 -306v-665h-187zM1956 -900q-319 0 -607.5 97t-529 273.5t-417 417t-273.5 529t-97 607.5t97 607.5t273.5 529t417 417t529 273.5t607.5 97t607.5 -97t529 -273.5t417 -417t273.5 -529
t97 -607.5t-97 -607.5t-273.5 -529t-417 -417t-529 -273.5t-607.5 -97zM1956 -724q290 0 552 88.5t480.5 249t379 379t248.5 480.5t88 551q0 290 -88 552t-248.5 480.5t-379 379t-480.5 248.5t-552 88t-552 -88t-480.5 -248.5t-379 -379t-248.5 -480.5t-88 -552
q0 -289 88 -551t248.5 -480.5t379 -379t480.5 -249t552 -88.5z" />
    <glyph glyph-name="uni24C1" unicode="L&#x20dd;" horiz-adv-x="3912" 
d="M1428 0v2048h187v-1880h976v-168h-1163zM1956 -900q-319 0 -607.5 97t-529 273.5t-417 417t-273.5 529t-97 607.5t97 607.5t273.5 529t417 417t529 273.5t607.5 97t607.5 -97t529 -273.5t417 -417t273.5 -529t97 -607.5t-97 -607.5t-273.5 -529t-417 -417t-529 -273.5
t-607.5 -97zM1956 -724q290 0 552 88.5t480.5 249t379 379t248.5 480.5t88 551q0 290 -88 552t-248.5 480.5t-379 379t-480.5 248.5t-552 88t-552 -88t-480.5 -248.5t-379 -379t-248.5 -480.5t-88 -552q0 -289 88 -551t248.5 -480.5t379 -379t480.5 -249t552 -88.5z" />
    <glyph glyph-name="uni24C2" unicode="M&#x20dd;" horiz-adv-x="3912" 
d="M988 2048h216l743 -1784h18l743 1784h216v-2048h-176v1653h-16l-691 -1653h-170l-691 1653h-16v-1653h-176v2048zM1956 -900q-319 0 -607.5 97t-529 273.5t-417 417t-273.5 529t-97 607.5t97 607.5t273.5 529t417 417t529 273.5t607.5 97t607.5 -97t529 -273.5t417 -417
t273.5 -529t97 -607.5t-97 -607.5t-273.5 -529t-417 -417t-529 -273.5t-607.5 -97zM1956 -724q290 0 552 88.5t480.5 249t379 379t248.5 480.5t88 551q0 290 -88 552t-248.5 480.5t-379 379t-480.5 248.5t-552 88t-552 -88t-480.5 -248.5t-379 -379t-248.5 -480.5t-88 -552
q0 -289 88 -551t248.5 -480.5t379 -379t480.5 -249t552 -88.5z" />
    <glyph glyph-name="uni24C3" unicode="N&#x20dd;" horiz-adv-x="3912" 
d="M2754 2048v-2048h-182l-1210 1715h-16v-1715h-187v2048h181l1214 -1717h16v1717h184zM1956 -900q-319 0 -607.5 97t-529 273.5t-417 417t-273.5 529t-97 607.5t97 607.5t273.5 529t417 417t529 273.5t607.5 97t607.5 -97t529 -273.5t417 -417t273.5 -529t97 -607.5
t-97 -607.5t-273.5 -529t-417 -417t-529 -273.5t-607.5 -97zM1956 -724q290 0 552 88.5t480.5 249t379 379t248.5 480.5t88 551q0 290 -88 552t-248.5 480.5t-379 379t-480.5 248.5t-552 88t-552 -88t-480.5 -248.5t-379 -379t-248.5 -480.5t-88 -552q0 -289 88 -551
t248.5 -480.5t379 -379t480.5 -249t552 -88.5z" />
    <glyph glyph-name="uni24C4" unicode="O&#x20dd;" horiz-adv-x="3912" 
d="M2842 1024q0 -320 -114 -556.5t-313.5 -366t-458.5 -129.5t-458.5 129.5t-313 366t-113.5 556.5t113.5 556.5t313.5 366t458 129.5q259 0 458.5 -129.5t313.5 -366t114 -556.5zM2660 1024q0 275 -92 471.5t-251 300.5t-361 104q-201 0 -360 -104t-251.5 -300t-92.5 -472
q0 -275 92 -471t251 -300.5t361 -104.5t361.5 104t251.5 300.5t91 471.5zM1956 -900q-319 0 -607.5 97t-529 273.5t-417 417t-273.5 529t-97 607.5t97 607.5t273.5 529t417 417t529 273.5t607.5 97t607.5 -97t529 -273.5t417 -417t273.5 -529t97 -607.5t-97 -607.5
t-273.5 -529t-417 -417t-529 -273.5t-607.5 -97zM1956 -724q290 0 552 88.5t480.5 249t379 379t248.5 480.5t88 551q0 290 -88 552t-248.5 480.5t-379 379t-480.5 248.5t-552 88t-552 -88t-480.5 -248.5t-379 -379t-248.5 -480.5t-88 -552q0 -289 88 -551t248.5 -480.5
t379 -379t480.5 -249t552 -88.5z" />
    <glyph glyph-name="uni24C5" unicode="P&#x20dd;" horiz-adv-x="3912" 
d="M1389 0v2048h661q218 0 364.5 -83.5t221 -226.5t74.5 -322t-74 -322.5t-220 -227t-363 -83.5h-520v168h515q161 0 267 60.5t158.5 165.5t52.5 239t-52.5 239t-159 165t-269.5 60h-469v-1880h-187zM1956 -900q-319 0 -607.5 97t-529 273.5t-417 417t-273.5 529t-97 607.5
t97 607.5t273.5 529t417 417t529 273.5t607.5 97t607.5 -97t529 -273.5t417 -417t273.5 -529t97 -607.5t-97 -607.5t-273.5 -529t-417 -417t-529 -273.5t-607.5 -97zM1956 -724q290 0 552 88.5t480.5 249t379 379t248.5 480.5t88 551q0 290 -88 552t-248.5 480.5t-379 379
t-480.5 248.5t-552 88t-552 -88t-480.5 -248.5t-379 -379t-248.5 -480.5t-88 -552q0 -289 88 -551t248.5 -480.5t379 -379t480.5 -249t552 -88.5z" />
    <glyph glyph-name="uni24C6" unicode="Q&#x20dd;" horiz-adv-x="3912" 
d="M1930 640h208l262 -347l44 -58l322 -427h-208l-236 315l-42 56zM2842 1024q0 -320 -114 -556.5t-313.5 -366t-458.5 -129.5t-458.5 129.5t-313 366t-113.5 556.5t113.5 556.5t313.5 366t458 129.5q259 0 458.5 -129.5t313.5 -366t114 -556.5zM2660 1024q0 275 -92 471.5
t-251 300.5t-361 104q-201 0 -360 -104t-251.5 -300t-92.5 -472q0 -275 92 -471t251 -300.5t361 -104.5t361.5 104t251.5 300.5t91 471.5zM1956 -900q-319 0 -607.5 97t-529 273.5t-417 417t-273.5 529t-97 607.5t97 607.5t273.5 529t417 417t529 273.5t607.5 97t607.5 -97
t529 -273.5t417 -417t273.5 -529t97 -607.5t-97 -607.5t-273.5 -529t-417 -417t-529 -273.5t-607.5 -97zM1956 -724q290 0 552 88.5t480.5 249t379 379t248.5 480.5t88 551q0 290 -88 552t-248.5 480.5t-379 379t-480.5 248.5t-552 88t-552 -88t-480.5 -248.5t-379 -379
t-248.5 -480.5t-88 -552q0 -289 88 -551t248.5 -480.5t379 -379t480.5 -249t552 -88.5z" />
    <glyph glyph-name="uni24C7" unicode="R&#x20dd;" horiz-adv-x="3912" 
d="M1326 0v2048h661q218 0 364.5 -78.5t221 -217t74.5 -317.5t-74.5 -316t-220.5 -214t-362 -77h-563v171h558q160 0 266.5 53t159 151t52.5 232t-53 234.5t-159.5 155.5t-268.5 55h-469v-1880h-187zM2229 924l504 -924h-216l-499 924h211zM1956 -900q-319 0 -607.5 97
t-529 273.5t-417 417t-273.5 529t-97 607.5t97 607.5t273.5 529t417 417t529 273.5t607.5 97t607.5 -97t529 -273.5t417 -417t273.5 -529t97 -607.5t-97 -607.5t-273.5 -529t-417 -417t-529 -273.5t-607.5 -97zM1956 -724q290 0 552 88.5t480.5 249t379 379t248.5 480.5
t88 551q0 290 -88 552t-248.5 480.5t-379 379t-480.5 248.5t-552 88t-552 -88t-480.5 -248.5t-379 -379t-248.5 -480.5t-88 -552q0 -289 88 -551t248.5 -480.5t379 -379t480.5 -249t552 -88.5z" />
    <glyph glyph-name="uni24C8" unicode="S&#x20dd;" horiz-adv-x="3912" 
d="M2454 1536q-17 171 -151 272t-337 101q-143 0 -251.5 -49t-170 -135.5t-61.5 -196.5q0 -81 35 -142t94.5 -104.5t132 -74.5t146.5 -52l216 -62q98 -27 196 -69t179.5 -105.5t131 -155t49.5 -219.5q0 -164 -85 -295t-244 -207.5t-381 -76.5q-209 0 -363 69.5t-242 192.5
t-99 285h192q10 -121 80 -205t182 -127.5t250 -43.5q153 0 272.5 51.5t188 144t68.5 215.5q0 104 -54 174.5t-150.5 118.5t-223.5 85l-245 72q-241 72 -374 199t-133 324q0 165 88.5 290.5t240 196t340.5 70.5q191 0 338 -70t233.5 -192.5t92.5 -278.5h-181zM1956 -900
q-319 0 -607.5 97t-529 273.5t-417 417t-273.5 529t-97 607.5t97 607.5t273.5 529t417 417t529 273.5t607.5 97t607.5 -97t529 -273.5t417 -417t273.5 -529t97 -607.5t-97 -607.5t-273.5 -529t-417 -417t-529 -273.5t-607.5 -97zM1956 -724q290 0 552 88.5t480.5 249
t379 379t248.5 480.5t88 551q0 290 -88 552t-248.5 480.5t-379 379t-480.5 248.5t-552 88t-552 -88t-480.5 -248.5t-379 -379t-248.5 -480.5t-88 -552q0 -289 88 -551t248.5 -480.5t379 -379t480.5 -249t552 -88.5z" />
    <glyph glyph-name="uni24C9" unicode="T&#x20dd;" horiz-adv-x="3912" 
d="M1213 1880v168h1485v-168h-649v-1880h-187v1880h-649zM1956 -900q-319 0 -607.5 97t-529 273.5t-417 417t-273.5 529t-97 607.5t97 607.5t273.5 529t417 417t529 273.5t607.5 97t607.5 -97t529 -273.5t417 -417t273.5 -529t97 -607.5t-97 -607.5t-273.5 -529t-417 -417
t-529 -273.5t-607.5 -97zM1956 -724q290 0 552 88.5t480.5 249t379 379t248.5 480.5t88 551q0 290 -88 552t-248.5 480.5t-379 379t-480.5 248.5t-552 88t-552 -88t-480.5 -248.5t-379 -379t-248.5 -480.5t-88 -552q0 -289 88 -551t248.5 -480.5t379 -379t480.5 -249
t552 -88.5z" />
    <glyph glyph-name="uni24CA" unicode="U&#x20dd;" horiz-adv-x="3912" 
d="M2545 2048h187v-1356q0 -209 -98 -373.5t-272.5 -259t-405.5 -94.5q-230 0 -405 95t-273 259t-98 373v1356h187v-1343q0 -163 73 -290.5t205.5 -200.5t310.5 -73t311 73t205.5 200.5t72.5 290.5v1343zM1956 -900q-319 0 -607.5 97t-529 273.5t-417 417t-273.5 529
t-97 607.5t97 607.5t273.5 529t417 417t529 273.5t607.5 97t607.5 -97t529 -273.5t417 -417t273.5 -529t97 -607.5t-97 -607.5t-273.5 -529t-417 -417t-529 -273.5t-607.5 -97zM1956 -724q290 0 552 88.5t480.5 249t379 379t248.5 480.5t88 551q0 290 -88 552t-248.5 480.5
t-379 379t-480.5 248.5t-552 88t-552 -88t-480.5 -248.5t-379 -379t-248.5 -480.5t-88 -552q0 -289 88 -551t248.5 -480.5t379 -379t480.5 -249t552 -88.5z" />
    <glyph glyph-name="uni24CB" unicode="V&#x20dd;" horiz-adv-x="3912" 
d="M1307 2048l640 -1805h18l640 1805h196l-745 -2048h-200l-745 2048h196zM1956 -900q-319 0 -607.5 97t-529 273.5t-417 417t-273.5 529t-97 607.5t97 607.5t273.5 529t417 417t529 273.5t607.5 97t607.5 -97t529 -273.5t417 -417t273.5 -529t97 -607.5t-97 -607.5
t-273.5 -529t-417 -417t-529 -273.5t-607.5 -97zM1956 -724q290 0 552 88.5t480.5 249t379 379t248.5 480.5t88 551q0 290 -88 552t-248.5 480.5t-379 379t-480.5 248.5t-552 88t-552 -88t-480.5 -248.5t-379 -379t-248.5 -480.5t-88 -552q0 -289 88 -551t248.5 -480.5
t379 -379t480.5 -249t552 -88.5z" />
    <glyph glyph-name="uni24CC" unicode="W&#x20dd;" horiz-adv-x="3912" 
d="M1275 0l-561 2048h190l464 -1761h16l464 1761h216l464 -1761h16l464 1761h191l-561 -2048h-200l-475 1737h-13l-475 -1737h-200zM1956 -900q-319 0 -607.5 97t-529 273.5t-417 417t-273.5 529t-97 607.5t97 607.5t273.5 529t417 417t529 273.5t607.5 97t607.5 -97
t529 -273.5t417 -417t273.5 -529t97 -607.5t-97 -607.5t-273.5 -529t-417 -417t-529 -273.5t-607.5 -97zM1956 -724q290 0 552 88.5t480.5 249t379 379t248.5 480.5t88 551q0 290 -88 552t-248.5 480.5t-379 379t-480.5 248.5t-552 88t-552 -88t-480.5 -248.5t-379 -379
t-248.5 -480.5t-88 -552q0 -289 88 -551t248.5 -480.5t379 -379t480.5 -249t552 -88.5z" />
    <glyph glyph-name="uni24CD" unicode="X&#x20dd;" horiz-adv-x="3912" 
d="M1383 2048l567 -889h13l567 889h221l-659 -1024l659 -1024h-221l-567 879h-13l-567 -879h-221l669 1024l-669 1024h221zM1956 -900q-319 0 -607.5 97t-529 273.5t-417 417t-273.5 529t-97 607.5t97 607.5t273.5 529t417 417t529 273.5t607.5 97t607.5 -97t529 -273.5
t417 -417t273.5 -529t97 -607.5t-97 -607.5t-273.5 -529t-417 -417t-529 -273.5t-607.5 -97zM1956 -724q290 0 552 88.5t480.5 249t379 379t248.5 480.5t88 551q0 290 -88 552t-248.5 480.5t-379 379t-480.5 248.5t-552 88t-552 -88t-480.5 -248.5t-379 -379t-248.5 -480.5
t-88 -552q0 -289 88 -551t248.5 -480.5t379 -379t480.5 -249t552 -88.5z" />
    <glyph glyph-name="uni24CE" unicode="Y&#x20dd;" horiz-adv-x="3912" 
d="M1124 2048h216l607 -972h18l607 972h216l-739 -1161v-887h-186v887zM1956 -900q-319 0 -607.5 97t-529 273.5t-417 417t-273.5 529t-97 607.5t97 607.5t273.5 529t417 417t529 273.5t607.5 97t607.5 -97t529 -273.5t417 -417t273.5 -529t97 -607.5t-97 -607.5
t-273.5 -529t-417 -417t-529 -273.5t-607.5 -97zM1956 -724q290 0 552 88.5t480.5 249t379 379t248.5 480.5t88 551q0 290 -88 552t-248.5 480.5t-379 379t-480.5 248.5t-552 88t-552 -88t-480.5 -248.5t-379 -379t-248.5 -480.5t-88 -552q0 -289 88 -551t248.5 -480.5
t379 -379t480.5 -249t552 -88.5z" />
    <glyph glyph-name="uni24CF" unicode="Z&#x20dd;" horiz-adv-x="3912" 
d="M1275 0v141l1137 1739h-1143v168h1366v-141l-1138 -1739h1148v-168h-1370zM1956 -900q-319 0 -607.5 97t-529 273.5t-417 417t-273.5 529t-97 607.5t97 607.5t273.5 529t417 417t529 273.5t607.5 97t607.5 -97t529 -273.5t417 -417t273.5 -529t97 -607.5t-97 -607.5
t-273.5 -529t-417 -417t-529 -273.5t-607.5 -97zM1956 -724q290 0 552 88.5t480.5 249t379 379t248.5 480.5t88 551q0 290 -88 552t-248.5 480.5t-379 379t-480.5 248.5t-552 88t-552 -88t-480.5 -248.5t-379 -379t-248.5 -480.5t-88 -552q0 -289 88 -551t248.5 -480.5
t379 -379t480.5 -249t552 -88.5z" />
    <glyph glyph-name="uni24EA" unicode="&#x30;&#x20dd;" horiz-adv-x="3912" 
d="M1956 -28q-216 0 -368.5 124.5t-234 360.5t-81.5 567q0 330 81.5 565.5t235 361t367.5 125.5t367.5 -125.5t235 -361t81.5 -565.5q0 -331 -81.5 -567t-234 -360.5t-368.5 -124.5zM1956 140q237 0 370 231.5t133 652.5q0 280 -60.5 478.5t-173 303.5t-269.5 105
q-235 0 -369 -233.5t-134 -653.5q0 -280 60.5 -478t173 -302t269.5 -104zM1956 -900q-319 0 -607.5 97t-529 273.5t-417 417t-273.5 529t-97 607.5t97 607.5t273.5 529t417 417t529 273.5t607.5 97t607.5 -97t529 -273.5t417 -417t273.5 -529t97 -607.5t-97 -607.5
t-273.5 -529t-417 -417t-529 -273.5t-607.5 -97zM1956 -724q290 0 552 88.5t480.5 249t379 379t248.5 480.5t88 551q0 290 -88 552t-248.5 480.5t-379 379t-480.5 248.5t-552 88t-552 -88t-480.5 -248.5t-379 -379t-248.5 -480.5t-88 -552q0 -289 88 -551t248.5 -480.5
t379 -379t480.5 -249t552 -88.5z" />
    <glyph glyph-name="uni2460" unicode="&#x31;&#x20dd;" horiz-adv-x="3912" 
d="M2098 2048v-2048h-187v1852h-12l-480 -319v194l484 321h195zM1956 -900q-319 0 -607.5 97t-529 273.5t-417 417t-273.5 529t-97 607.5t97 607.5t273.5 529t417 417t529 273.5t607.5 97t607.5 -97t529 -273.5t417 -417t273.5 -529t97 -607.5t-97 -607.5t-273.5 -529
t-417 -417t-529 -273.5t-607.5 -97zM1956 -724q290 0 552 88.5t480.5 249t379 379t248.5 480.5t88 551q0 290 -88 552t-248.5 480.5t-379 379t-480.5 248.5t-552 88t-552 -88t-480.5 -248.5t-379 -379t-248.5 -480.5t-88 -552q0 -289 88 -551t248.5 -480.5t379 -379
t480.5 -249t552 -88.5z" />
    <glyph glyph-name="uni2461" unicode="&#x32;&#x20dd;" horiz-adv-x="3912" 
d="M1319 0v137l669 752q131 148 211 253t116.5 194t36.5 185q0 117 -54.5 204.5t-149.5 136.5t-214 49q-126 0 -220.5 -54t-146.5 -148t-52 -216h-179q0 170 78.5 301.5t215 206.5t309.5 75q171 0 304 -73.5t209 -199.5t76 -282q0 -113 -39.5 -219t-135.5 -236t-266 -318
l-508 -567v-13h1013v-168h-1273zM1956 -900q-319 0 -607.5 97t-529 273.5t-417 417t-273.5 529t-97 607.5t97 607.5t273.5 529t417 417t529 273.5t607.5 97t607.5 -97t529 -273.5t417 -417t273.5 -529t97 -607.5t-97 -607.5t-273.5 -529t-417 -417t-529 -273.5t-607.5 -97z
M1956 -724q290 0 552 88.5t480.5 249t379 379t248.5 480.5t88 551q0 290 -88 552t-248.5 480.5t-379 379t-480.5 248.5t-552 88t-552 -88t-480.5 -248.5t-379 -379t-248.5 -480.5t-88 -552q0 -289 88 -551t248.5 -480.5t379 -379t480.5 -249t552 -88.5z" />
    <glyph glyph-name="uni2462" unicode="&#x33;&#x20dd;" horiz-adv-x="3912" 
d="M1964 -28q-189 0 -338 68.5t-236 190.5t-92 281h189q5 -112 69 -195.5t170 -130t236 -46.5q142 0 250.5 53t170 145.5t61.5 209.5q0 124 -63 219t-180.5 148t-280.5 53h-120v168h120q133 0 235.5 48.5t161.5 136.5t59 207q0 113 -51 199t-143.5 135t-215.5 49
q-119 0 -218 -46t-159.5 -130t-64.5 -199h-181q4 160 88.5 281.5t225 190t311.5 68.5q181 0 313 -74t204.5 -196.5t72.5 -269.5q0 -175 -95 -299.5t-256 -172.5v-13q196 -39 308.5 -173.5t112.5 -329.5q0 -164 -86 -294.5t-235.5 -206t-342.5 -75.5zM1956 -900
q-319 0 -607.5 97t-529 273.5t-417 417t-273.5 529t-97 607.5t97 607.5t273.5 529t417 417t529 273.5t607.5 97t607.5 -97t529 -273.5t417 -417t273.5 -529t97 -607.5t-97 -607.5t-273.5 -529t-417 -417t-529 -273.5t-607.5 -97zM1956 -724q290 0 552 88.5t480.5 249
t379 379t248.5 480.5t88 551q0 290 -88 552t-248.5 480.5t-379 379t-480.5 248.5t-552 88t-552 -88t-480.5 -248.5t-379 -379t-248.5 -480.5t-88 -552q0 -289 88 -551t248.5 -480.5t379 -379t480.5 -249t552 -88.5z" />
    <glyph glyph-name="uni2463" unicode="&#x34;&#x20dd;" horiz-adv-x="3912" 
d="M1126 440v152l913 1456h112v-255h-83l-733 -1172v-13h1197v-168h-1406zM2082 0v488v70v1490h178v-2048h-178zM1956 -900q-319 0 -607.5 97t-529 273.5t-417 417t-273.5 529t-97 607.5t97 607.5t273.5 529t417 417t529 273.5t607.5 97t607.5 -97t529 -273.5t417 -417
t273.5 -529t97 -607.5t-97 -607.5t-273.5 -529t-417 -417t-529 -273.5t-607.5 -97zM1956 -724q290 0 552 88.5t480.5 249t379 379t248.5 480.5t88 551q0 290 -88 552t-248.5 480.5t-379 379t-480.5 248.5t-552 88t-552 -88t-480.5 -248.5t-379 -379t-248.5 -480.5t-88 -552
q0 -289 88 -551t248.5 -480.5t379 -379t480.5 -249t552 -88.5z" />
    <glyph glyph-name="uni2464" unicode="&#x35;&#x20dd;" horiz-adv-x="3912" 
d="M1932 -28q-171 0 -305.5 69.5t-214 191.5t-84.5 279h181q9 -163 128 -267.5t295 -104.5q137 0 244 65.5t167.5 180t60.5 258.5q-1 150 -65 264.5t-173.5 179.5t-245.5 65q-103 1 -202 -34t-165 -90l-187 24l123 995h1012v-168h-855l-82 -685h10q68 57 165.5 93t206.5 36
q181 0 325.5 -87t229 -239.5t84.5 -350.5q0 -194 -84.5 -346.5t-232 -240.5t-336.5 -88zM1956 -900q-319 0 -607.5 97t-529 273.5t-417 417t-273.5 529t-97 607.5t97 607.5t273.5 529t417 417t529 273.5t607.5 97t607.5 -97t529 -273.5t417 -417t273.5 -529t97 -607.5
t-97 -607.5t-273.5 -529t-417 -417t-529 -273.5t-607.5 -97zM1956 -724q290 0 552 88.5t480.5 249t379 379t248.5 480.5t88 551q0 290 -88 552t-248.5 480.5t-379 379t-480.5 248.5t-552 88t-552 -88t-480.5 -248.5t-379 -379t-248.5 -480.5t-88 -552q0 -289 88 -551
t248.5 -480.5t379 -379t480.5 -249t552 -88.5z" />
    <glyph glyph-name="uni2465" unicode="&#x36;&#x20dd;" horiz-adv-x="3912" 
d="M1970 -28q-127 1 -248 51.5t-218 163t-154 297.5t-57 455q0 251 44 459.5t132 361t220 236t309 83.5q166 0 293 -69t206 -191t99 -283h-184q-28 164 -133 269.5t-281 105.5q-252 0 -390 -234t-139 -665h13q49 91 126.5 157.5t176.5 104t208 37.5q171 0 313 -86.5
t227 -237t85 -343.5q0 -183 -80.5 -337t-226 -245t-341.5 -90zM1970 140q134 0 239.5 68t166.5 182.5t61 253.5t-61 252t-166.5 180t-239.5 67q-102 0 -190 -41.5t-152.5 -113t-98 -163.5t-25.5 -193q11 -141 73.5 -252.5t164 -175.5t228.5 -64zM1956 -900q-319 0 -607.5 97
t-529 273.5t-417 417t-273.5 529t-97 607.5t97 607.5t273.5 529t417 417t529 273.5t607.5 97t607.5 -97t529 -273.5t417 -417t273.5 -529t97 -607.5t-97 -607.5t-273.5 -529t-417 -417t-529 -273.5t-607.5 -97zM1956 -724q290 0 552 88.5t480.5 249t379 379t248.5 480.5
t88 551q0 290 -88 552t-248.5 480.5t-379 379t-480.5 248.5t-552 88t-552 -88t-480.5 -248.5t-379 -379t-248.5 -480.5t-88 -552q0 -289 88 -551t248.5 -480.5t379 -379t480.5 -249t552 -88.5z" />
    <glyph glyph-name="uni2466" unicode="&#x37;&#x20dd;" horiz-adv-x="3912" 
d="M1520 0l933 1867v13h-1075v168h1271v-176l-932 -1872h-197zM1956 -900q-319 0 -607.5 97t-529 273.5t-417 417t-273.5 529t-97 607.5t97 607.5t273.5 529t417 417t529 273.5t607.5 97t607.5 -97t529 -273.5t417 -417t273.5 -529t97 -607.5t-97 -607.5t-273.5 -529
t-417 -417t-529 -273.5t-607.5 -97zM1956 -724q290 0 552 88.5t480.5 249t379 379t248.5 480.5t88 551q0 290 -88 552t-248.5 480.5t-379 379t-480.5 248.5t-552 88t-552 -88t-480.5 -248.5t-379 -379t-248.5 -480.5t-88 -552q0 -289 88 -551t248.5 -480.5t379 -379
t480.5 -249t552 -88.5z" />
    <glyph glyph-name="uni2467" unicode="&#x38;&#x20dd;" horiz-adv-x="3912" 
d="M1956 -28q-196 0 -349 74t-240 202.5t-87 290.5q0 127 53 237.5t146 186t209 98.5v11q-151 44 -243 173.5t-91 294.5q-1 153 78 274t215.5 191.5t308.5 70.5q171 0 307 -70.5t215.5 -191.5t80.5 -274q-1 -164 -93 -294.5t-242 -173.5v-11q116 -22 208 -98t146 -186.5
t54 -237.5q0 -162 -87.5 -290.5t-240 -202.5t-348.5 -74zM1956 140q146 0 256.5 52.5t173 144.5t62.5 211q0 123 -65 219.5t-176 153t-251 56.5t-251.5 -56.5t-176 -153t-64.5 -219.5q0 -119 61.5 -211t173 -144.5t257.5 -52.5zM1956 1137q120 0 215 51t150.5 139.5
t56.5 201.5q-1 112 -56 198.5t-149.5 135t-216.5 48.5t-217.5 -48.5t-150 -135t-53.5 -198.5q-1 -113 54.5 -201.5t151 -139.5t215.5 -51zM1956 -900q-319 0 -607.5 97t-529 273.5t-417 417t-273.5 529t-97 607.5t97 607.5t273.5 529t417 417t529 273.5t607.5 97t607.5 -97
t529 -273.5t417 -417t273.5 -529t97 -607.5t-97 -607.5t-273.5 -529t-417 -417t-529 -273.5t-607.5 -97zM1956 -724q290 0 552 88.5t480.5 249t379 379t248.5 480.5t88 551q0 290 -88 552t-248.5 480.5t-379 379t-480.5 248.5t-552 88t-552 -88t-480.5 -248.5t-379 -379
t-248.5 -480.5t-88 -552q0 -289 88 -551t248.5 -480.5t379 -379t480.5 -249t552 -88.5z" />
    <glyph glyph-name="uni2468" unicode="&#x39;&#x20dd;" horiz-adv-x="3912" 
d="M1941 2080q128 -1 248.5 -52t217.5 -163t154 -297t57 -455q0 -251 -44 -460t-131.5 -361.5t-220 -236t-309.5 -83.5q-165 0 -292.5 69t-206.5 191.5t-98 283.5h184q27 -164 132.5 -270t280.5 -106q251 0 390 234t139 666h-13q-48 -90 -125.5 -157t-176.5 -104.5
t-209 -37.5q-171 0 -313 86.5t-227 237t-85 343.5q0 183 80.5 336.5t226 245t341.5 90.5zM1941 1912q-133 0 -238.5 -68t-167 -182.5t-61.5 -253.5t61.5 -252.5t167 -180t238.5 -66.5q102 0 190 41.5t152.5 113.5t98 163.5t26.5 192.5q-12 141 -74.5 252.5t-164 175.5
t-228.5 64zM1956 -900q-319 0 -607.5 97t-529 273.5t-417 417t-273.5 529t-97 607.5t97 607.5t273.5 529t417 417t529 273.5t607.5 97t607.5 -97t529 -273.5t417 -417t273.5 -529t97 -607.5t-97 -607.5t-273.5 -529t-417 -417t-529 -273.5t-607.5 -97zM1956 -724
q290 0 552 88.5t480.5 249t379 379t248.5 480.5t88 551q0 290 -88 552t-248.5 480.5t-379 379t-480.5 248.5t-552 88t-552 -88t-480.5 -248.5t-379 -379t-248.5 -480.5t-88 -552q0 -289 88 -551t248.5 -480.5t379 -379t480.5 -249t552 -88.5z" />
    <glyph glyph-name="uniE12B" unicode="&#xe06b;&#x20dd;" horiz-adv-x="3912" 
d="M2279 1852l100 -87l-768 -1550l-94 98zM1956 -29q-216 0 -368.5 124.5t-234 360t-81.5 567.5q0 330 81.5 565.5t235 361t367.5 125.5t367.5 -125.5t235 -361t81.5 -565.5q0 -332 -81.5 -567.5t-234 -360t-368.5 -124.5zM1956 139q237 0 370 231.5t133 652.5
q0 280 -60.5 478.5t-173 303t-269.5 104.5q-235 0 -369 -233t-134 -653q0 -280 60.5 -478t173 -302t269.5 -104zM1956 -900q-319 0 -607.5 97t-529 273.5t-417 417t-273.5 529t-97 607.5t97 607.5t273.5 529t417 417t529 273.5t607.5 97t607.5 -97t529 -273.5t417 -417
t273.5 -529t97 -607.5t-97 -607.5t-273.5 -529t-417 -417t-529 -273.5t-607.5 -97zM1956 -724q290 0 552 88.5t480.5 249t379 379t248.5 480.5t88 551q0 290 -88 552t-248.5 480.5t-379 379t-480.5 248.5t-552 88t-552 -88t-480.5 -248.5t-379 -379t-248.5 -480.5t-88 -552
q0 -289 88 -551t248.5 -480.5t379 -379t480.5 -249t552 -88.5z" />
    <glyph glyph-name="uniE12C" unicode="&#xe06c;&#x20dd;" horiz-adv-x="3912" 
d="M2132 2048v-2048h-186v1760h-16q-15 -26 -72 -68.5t-148.5 -77t-209.5 -35.5v160q114 1 199 45t143 103t89 106t36 55h165zM1956 -900q-319 0 -607.5 97t-529 273.5t-417 417t-273.5 529t-97 607.5t97 607.5t273.5 529t417 417t529 273.5t607.5 97t607.5 -97t529 -273.5
t417 -417t273.5 -529t97 -607.5t-97 -607.5t-273.5 -529t-417 -417t-529 -273.5t-607.5 -97zM1956 -724q290 0 552 88.5t480.5 249t379 379t248.5 480.5t88 551q0 290 -88 552t-248.5 480.5t-379 379t-480.5 248.5t-552 88t-552 -88t-480.5 -248.5t-379 -379t-248.5 -480.5
t-88 -552q0 -289 88 -551t248.5 -480.5t379 -379t480.5 -249t552 -88.5z" />
    <glyph glyph-name="uniE12D" unicode="&#xe06d;&#x20dd;" horiz-adv-x="3912" 
d="M1290 512h189q7 -115 71.5 -198.5t170 -128.5t235.5 -45q143 0 251.5 53.5t170 151t61.5 228.5q0 127 -62 231t-192.5 166t-336.5 62h-110v155l556 680v13h-910v168h1168v-137l-584 -718v-13q141 -6 261 -52.5t208 -126.5t137 -188.5t49 -239.5q0 -170 -84 -306.5
t-234.5 -215.5t-350.5 -79q-179 0 -327 66t-238.5 187.5t-98.5 286.5zM1956 -900q-319 0 -607.5 97t-529 273.5t-417 417t-273.5 529t-97 607.5t97 607.5t273.5 529t417 417t529 273.5t607.5 97t607.5 -97t529 -273.5t417 -417t273.5 -529t97 -607.5t-97 -607.5t-273.5 -529
t-417 -417t-529 -273.5t-607.5 -97zM1956 -724q290 0 552 88.5t480.5 249t379 379t248.5 480.5t88 551q0 290 -88 552t-248.5 480.5t-379 379t-480.5 248.5t-552 88t-552 -88t-480.5 -248.5t-379 -379t-248.5 -480.5t-88 -552q0 -289 88 -551t248.5 -480.5t379 -379
t480.5 -249t552 -88.5z" />
    <glyph glyph-name="uniE12E" unicode="&#xe06e;&#x20dd;" horiz-adv-x="3912" 
d="M1180 440v152l858 1456h188l-840 -1427v-13h1200v-168h-1406zM2136 0v487v71v722h178v-1280h-178zM1956 -900q-319 0 -607.5 97t-529 273.5t-417 417t-273.5 529t-97 607.5t97 607.5t273.5 529t417 417t529 273.5t607.5 97t607.5 -97t529 -273.5t417 -417t273.5 -529
t97 -607.5t-97 -607.5t-273.5 -529t-417 -417t-529 -273.5t-607.5 -97zM1956 -724q290 0 552 88.5t480.5 249t379 379t248.5 480.5t88 551q0 290 -88 552t-248.5 480.5t-379 379t-480.5 248.5t-552 88t-552 -88t-480.5 -248.5t-379 -379t-248.5 -480.5t-88 -552
q0 -289 88 -551t248.5 -480.5t379 -379t480.5 -249t552 -88.5z" />
    <glyph glyph-name="uniE12F" unicode="&#xe06f;&#x20dd;" horiz-adv-x="3912" 
d="M1330 636q1 90 25 182.5t77 198t140 235.5l543 796h207l-559 -813q44 18 92 29.5t99 11.5q178 0 320.5 -86t225.5 -234t83 -333q0 -186 -82.5 -333t-224 -232.5t-320.5 -85.5t-321.5 87t-224.5 237.5t-80 339.5zM1508 625q0 -139 58.5 -249.5t160 -174.5t229.5 -64
q129 0 230 64t159.5 173.5t58.5 248.5t-58.5 249t-159.5 173t-230 63q-128 0 -229.5 -63t-160 -172t-58.5 -248zM1956 -900q-319 0 -607.5 97t-529 273.5t-417 417t-273.5 529t-97 607.5t97 607.5t273.5 529t417 417t529 273.5t607.5 97t607.5 -97t529 -273.5t417 -417
t273.5 -529t97 -607.5t-97 -607.5t-273.5 -529t-417 -417t-529 -273.5t-607.5 -97zM1956 -724q290 0 552 88.5t480.5 249t379 379t248.5 480.5t88 551q0 290 -88 552t-248.5 480.5t-379 379t-480.5 248.5t-552 88t-552 -88t-480.5 -248.5t-379 -379t-248.5 -480.5t-88 -552
q0 -289 88 -551t248.5 -480.5t379 -379t480.5 -249t552 -88.5z" />
    <glyph glyph-name="uniE130" unicode="&#xe070;&#x20dd;" horiz-adv-x="3912" 
d="M1330 1425q0 186 82 333t224 232.5t320 85.5q180 0 322.5 -87t224 -237.5t80.5 -339.5q-1 -90 -25 -182.5t-77 -198t-141 -235.5l-542 -796h-207l559 813q-44 -19 -92.5 -30t-98.5 -11q-179 0 -321.5 86t-225 234t-82.5 333zM1508 1425q0 -140 58.5 -249.5t160 -172.5
t229.5 -63q129 0 230.5 63t159.5 172t58 248t-58 249.5t-159.5 174.5t-230.5 64q-128 0 -229.5 -64t-160 -174t-58.5 -248zM1956 -900q-319 0 -607.5 97t-529 273.5t-417 417t-273.5 529t-97 607.5t97 607.5t273.5 529t417 417t529 273.5t607.5 97t607.5 -97t529 -273.5
t417 -417t273.5 -529t97 -607.5t-97 -607.5t-273.5 -529t-417 -417t-529 -273.5t-607.5 -97zM1956 -724q290 0 552 88.5t480.5 249t379 379t248.5 480.5t88 551q0 290 -88 552t-248.5 480.5t-379 379t-480.5 248.5t-552 88t-552 -88t-480.5 -248.5t-379 -379t-248.5 -480.5
t-88 -552q0 -289 88 -551t248.5 -480.5t379 -379t480.5 -249t552 -88.5z" />
    <glyph glyph-name="uniE131" unicode="&#x21;&#x20dd;" horiz-adv-x="3912" 
d="M2057 2048l-13 -1461h-176l-13 1461h202zM1956 -15q-59 0 -101.5 42.5t-42.5 101.5q0 60 42.5 102t101.5 42t101.5 -42t42.5 -102q0 -39 -19.5 -72t-52 -52.5t-72.5 -19.5zM1956 -900q-319 0 -607.5 97t-529 273.5t-417 417t-273.5 529t-97 607.5t97 607.5t273.5 529
t417 417t529 273.5t607.5 97t607.5 -97t529 -273.5t417 -417t273.5 -529t97 -607.5t-97 -607.5t-273.5 -529t-417 -417t-529 -273.5t-607.5 -97zM1956 -724q290 0 552 88.5t480.5 249t379 379t248.5 480.5t88 551q0 290 -88 552t-248.5 480.5t-379 379t-480.5 248.5t-552 88
t-552 -88t-480.5 -248.5t-379 -379t-248.5 -480.5t-88 -552q0 -289 88 -551t248.5 -480.5t379 -379t480.5 -249t552 -88.5z" />
    <glyph glyph-name="uniE132" unicode="&#x3f;&#x20dd;" horiz-adv-x="3912" 
d="M1849 587v54q1 158 35 257t100.5 167.5t165.5 131.5q74 48 124.5 101.5t77 118t26.5 140.5q0 108 -50.5 189t-136.5 125.5t-191 44.5q-100 0 -186.5 -43.5t-141 -128t-59.5 -208.5h-189q5 165 82 286t206 187.5t288 66.5q166 0 292 -68.5t197 -187t71 -271.5
q0 -101 -32 -184t-95.5 -153t-158.5 -132q-90 -60 -143 -119t-76 -134.5t-25 -185.5v-54h-181zM1945 -15q-59 0 -101.5 42.5t-42.5 101.5q0 60 42.5 102t101.5 42t101.5 -42t42.5 -102q0 -39 -19.5 -72t-52 -52.5t-72.5 -19.5zM1956 -900q-319 0 -607.5 97t-529 273.5
t-417 417t-273.5 529t-97 607.5t97 607.5t273.5 529t417 417t529 273.5t607.5 97t607.5 -97t529 -273.5t417 -417t273.5 -529t97 -607.5t-97 -607.5t-273.5 -529t-417 -417t-529 -273.5t-607.5 -97zM1956 -724q290 0 552 88.5t480.5 249t379 379t248.5 480.5t88 551
q0 290 -88 552t-248.5 480.5t-379 379t-480.5 248.5t-552 88t-552 -88t-480.5 -248.5t-379 -379t-248.5 -480.5t-88 -552q0 -289 88 -551t248.5 -480.5t379 -379t480.5 -249t552 -88.5z" />
    <glyph glyph-name="uniE133" unicode="&#x23;&#x20dd;" horiz-adv-x="3912" 
d="M2071 0l336 2048h155l-336 -2048h-155zM1120 591l26 154h1528l-26 -154h-1528zM1351 0l336 2048h155l-336 -2048h-155zM1239 1303l25 154h1528l-25 -154h-1528zM1956 -900q-319 0 -607.5 97t-529 273.5t-417 417t-273.5 529t-97 607.5t97 607.5t273.5 529t417 417
t529 273.5t607.5 97t607.5 -97t529 -273.5t417 -417t273.5 -529t97 -607.5t-97 -607.5t-273.5 -529t-417 -417t-529 -273.5t-607.5 -97zM1956 -724q290 0 552 88.5t480.5 249t379 379t248.5 480.5t88 551q0 290 -88 552t-248.5 480.5t-379 379t-480.5 248.5t-552 88
t-552 -88t-480.5 -248.5t-379 -379t-248.5 -480.5t-88 -552q0 -289 88 -551t248.5 -480.5t379 -379t480.5 -249t552 -88.5z" />
    <glyph glyph-name="uniE134" unicode="&#x2d;&#x20dd;" horiz-adv-x="3912" 
d="M2382 1108v-168h-852v168h852zM1956 -900q-319 0 -607.5 97t-529 273.5t-417 417t-273.5 529t-97 607.5t97 607.5t273.5 529t417 417t529 273.5t607.5 97t607.5 -97t529 -273.5t417 -417t273.5 -529t97 -607.5t-97 -607.5t-273.5 -529t-417 -417t-529 -273.5t-607.5 -97z
M1956 -724q290 0 552 88.5t480.5 249t379 379t248.5 480.5t88 551q0 290 -88 552t-248.5 480.5t-379 379t-480.5 248.5t-552 88t-552 -88t-480.5 -248.5t-379 -379t-248.5 -480.5t-88 -552q0 -289 88 -551t248.5 -480.5t379 -379t480.5 -249t552 -88.5z" />
    <glyph glyph-name="uniE135" unicode="&#x3c;&#x20dd;" horiz-adv-x="3912" 
d="M1304 939v128l1224 675v-196l-1004 -542l10 18v-38l-10 18l1004 -542v-196zM1956 -900q-319 0 -607.5 97t-529 273.5t-417 417t-273.5 529t-97 607.5t97 607.5t273.5 529t417 417t529 273.5t607.5 97t607.5 -97t529 -273.5t417 -417t273.5 -529t97 -607.5t-97 -607.5
t-273.5 -529t-417 -417t-529 -273.5t-607.5 -97zM1956 -724q290 0 552 88.5t480.5 249t379 379t248.5 480.5t88 551q0 290 -88 552t-248.5 480.5t-379 379t-480.5 248.5t-552 88t-552 -88t-480.5 -248.5t-379 -379t-248.5 -480.5t-88 -552q0 -289 88 -551t248.5 -480.5
t379 -379t480.5 -249t552 -88.5z" />
    <glyph glyph-name="uniE136" unicode="&#x3e;&#x20dd;" horiz-adv-x="3912" 
d="M2608 939l-1224 -675v196l1004 542l-9 -18v38l9 -18l-1004 542v196l1224 -675v-128zM1956 -900q-319 0 -607.5 97t-529 273.5t-417 417t-273.5 529t-97 607.5t97 607.5t273.5 529t417 417t529 273.5t607.5 97t607.5 -97t529 -273.5t417 -417t273.5 -529t97 -607.5
t-97 -607.5t-273.5 -529t-417 -417t-529 -273.5t-607.5 -97zM1956 -724q290 0 552 88.5t480.5 249t379 379t248.5 480.5t88 551q0 290 -88 552t-248.5 480.5t-379 379t-480.5 248.5t-552 88t-552 -88t-480.5 -248.5t-379 -379t-248.5 -480.5t-88 -552q0 -289 88 -551
t248.5 -480.5t379 -379t480.5 -249t552 -88.5z" />
    <glyph glyph-name="uniE137" unicode="&#x3d;&#x20dd;" horiz-adv-x="3912" 
d="M1387 1228v165h1139v-165h-1139zM1387 655v165h1139v-165h-1139zM1956 -900q-319 0 -607.5 97t-529 273.5t-417 417t-273.5 529t-97 607.5t97 607.5t273.5 529t417 417t529 273.5t607.5 97t607.5 -97t529 -273.5t417 -417t273.5 -529t97 -607.5t-97 -607.5t-273.5 -529
t-417 -417t-529 -273.5t-607.5 -97zM1956 -724q290 0 552 88.5t480.5 249t379 379t248.5 480.5t88 551q0 290 -88 552t-248.5 480.5t-379 379t-480.5 248.5t-552 88t-552 -88t-480.5 -248.5t-379 -379t-248.5 -480.5t-88 -552q0 -289 88 -551t248.5 -480.5t379 -379
t480.5 -249t552 -88.5z" />
    <glyph glyph-name="uni2295" unicode="&#x2b;&#x20dd;" horiz-adv-x="3912" 
d="M1871 388v1266h171v-1266h-171zM1323 936v170h1267v-170h-1267zM1956 -900q-319 0 -607.5 97t-529 273.5t-417 417t-273.5 529t-97 607.5t97 607.5t273.5 529t417 417t529 273.5t607.5 97t607.5 -97t529 -273.5t417 -417t273.5 -529t97 -607.5t-97 -607.5t-273.5 -529
t-417 -417t-529 -273.5t-607.5 -97zM1956 -724q290 0 552 88.5t480.5 249t379 379t248.5 480.5t88 551q0 290 -88 552t-248.5 480.5t-379 379t-480.5 248.5t-552 88t-552 -88t-480.5 -248.5t-379 -379t-248.5 -480.5t-88 -552q0 -289 88 -551t248.5 -480.5t379 -379
t480.5 -249t552 -88.5z" />
    <glyph glyph-name="uni2296" unicode="&#x2212;&#x20dd;" horiz-adv-x="3912" 
d="M2576 1109v-170h-1240v170h1240zM1956 -900q-319 0 -607.5 97t-529 273.5t-417 417t-273.5 529t-97 607.5t97 607.5t273.5 529t417 417t529 273.5t607.5 97t607.5 -97t529 -273.5t417 -417t273.5 -529t97 -607.5t-97 -607.5t-273.5 -529t-417 -417t-529 -273.5
t-607.5 -97zM1956 -724q290 0 552 88.5t480.5 249t379 379t248.5 480.5t88 551q0 290 -88 552t-248.5 480.5t-379 379t-480.5 248.5t-552 88t-552 -88t-480.5 -248.5t-379 -379t-248.5 -480.5t-88 -552q0 -289 88 -551t248.5 -480.5t379 -379t480.5 -249t552 -88.5z" />
    <glyph glyph-name="uni2297" unicode="&#xd7;&#x20dd;" horiz-adv-x="3912" 
d="M2462 386l-1128 1128l117 116l1128 -1128zM1451 386l-117 116l1128 1128l117 -116zM1956 -900q-319 0 -607.5 97t-529 273.5t-417 417t-273.5 529t-97 607.5t97 607.5t273.5 529t417 417t529 273.5t607.5 97t607.5 -97t529 -273.5t417 -417t273.5 -529t97 -607.5
t-97 -607.5t-273.5 -529t-417 -417t-529 -273.5t-607.5 -97zM1956 -724q290 0 552 88.5t480.5 249t379 379t248.5 480.5t88 551q0 290 -88 552t-248.5 480.5t-379 379t-480.5 248.5t-552 88t-552 -88t-480.5 -248.5t-379 -379t-248.5 -480.5t-88 -552q0 -289 88 -551
t248.5 -480.5t379 -379t480.5 -249t552 -88.5z" />
    <glyph glyph-name="uni2A38" unicode="&#xf7;&#x20dd;" horiz-adv-x="3912" 
d="M2576 1109v-170h-1240v170h1240zM1956 384q-60 0 -102 42t-42 102q0 58 42 99.5t102 41.5q58 0 100 -41.5t42 -99.5q0 -60 -42 -102t-100 -42zM1956 1379q-40 0 -72.5 19t-52 52t-19.5 73q0 58 42 99.5t102 41.5q58 0 100 -41.5t42 -99.5q0 -60 -42 -102t-100 -42z
M1956 -900q-319 0 -607.5 97t-529 273.5t-417 417t-273.5 529t-97 607.5t97 607.5t273.5 529t417 417t529 273.5t607.5 97t607.5 -97t529 -273.5t417 -417t273.5 -529t97 -607.5t-97 -607.5t-273.5 -529t-417 -417t-529 -273.5t-607.5 -97zM1956 -724q290 0 552 88.5
t480.5 249t379 379t248.5 480.5t88 551q0 290 -88 552t-248.5 480.5t-379 379t-480.5 248.5t-552 88t-552 -88t-480.5 -248.5t-379 -379t-248.5 -480.5t-88 -552q0 -289 88 -551t248.5 -480.5t379 -379t480.5 -249t552 -88.5z" />
    <glyph glyph-name="uniE138" unicode="&#x2191;&#x20dd;" horiz-adv-x="3912" 
d="M1874 0v1742l-695 -696l-119 118l898 896l896 -896l-116 -118l-696 696v-1742h-168zM1956 -900q-319 0 -607.5 97t-529 273.5t-417 417t-273.5 529t-97 607.5t97 607.5t273.5 529t417 417t529 273.5t607.5 97t607.5 -97t529 -273.5t417 -417t273.5 -529t97 -607.5
t-97 -607.5t-273.5 -529t-417 -417t-529 -273.5t-607.5 -97zM1956 -724q290 0 552 88.5t480.5 249t379 379t248.5 480.5t88 551q0 290 -88 552t-248.5 480.5t-379 379t-480.5 248.5t-552 88t-552 -88t-480.5 -248.5t-379 -379t-248.5 -480.5t-88 -552q0 -289 88 -551
t248.5 -480.5t379 -379t480.5 -249t552 -88.5z" />
    <glyph glyph-name="uniE139" unicode="&#x2193;&#x20dd;" horiz-adv-x="3912" 
d="M2040 2048v-1742l695 696l119 -118l-898 -896l-896 896l116 118l696 -696v1742h168zM1956 -900q-319 0 -607.5 97t-529 273.5t-417 417t-273.5 529t-97 607.5t97 607.5t273.5 529t417 417t529 273.5t607.5 97t607.5 -97t529 -273.5t417 -417t273.5 -529t97 -607.5
t-97 -607.5t-273.5 -529t-417 -417t-529 -273.5t-607.5 -97zM1956 -724q290 0 552 88.5t480.5 249t379 379t248.5 480.5t88 551q0 290 -88 552t-248.5 480.5t-379 379t-480.5 248.5t-552 88t-552 -88t-480.5 -248.5t-379 -379t-248.5 -480.5t-88 -552q0 -289 88 -551
t248.5 -480.5t379 -379t480.5 -249t552 -88.5z" />
    <glyph glyph-name="uniE13A" unicode="&#x2190;&#x20dd;" horiz-adv-x="3912" 
d="M1824 128l-896 896l896 896l118 -116l-696 -696h1740v-168h-1740l696 -694zM1956 -900q-319 0 -607.5 97t-529 273.5t-417 417t-273.5 529t-97 607.5t97 607.5t273.5 529t417 417t529 273.5t607.5 97t607.5 -97t529 -273.5t417 -417t273.5 -529t97 -607.5t-97 -607.5
t-273.5 -529t-417 -417t-529 -273.5t-607.5 -97zM1956 -724q290 0 552 88.5t480.5 249t379 379t248.5 480.5t88 551q0 290 -88 552t-248.5 480.5t-379 379t-480.5 248.5t-552 88t-552 -88t-480.5 -248.5t-379 -379t-248.5 -480.5t-88 -552q0 -289 88 -551t248.5 -480.5
t379 -379t480.5 -249t552 -88.5z" />
    <glyph glyph-name="uniE13B" unicode="&#x2192;&#x20dd;" horiz-adv-x="3912" 
d="M2090 128l-118 117l696 695h-1740v168h1740l-696 695l118 117l896 -896zM1956 -900q-319 0 -607.5 97t-529 273.5t-417 417t-273.5 529t-97 607.5t97 607.5t273.5 529t417 417t529 273.5t607.5 97t607.5 -97t529 -273.5t417 -417t273.5 -529t97 -607.5t-97 -607.5
t-273.5 -529t-417 -417t-529 -273.5t-607.5 -97zM1956 -724q290 0 552 88.5t480.5 249t379 379t248.5 480.5t88 551q0 290 -88 552t-248.5 480.5t-379 379t-480.5 248.5t-552 88t-552 -88t-480.5 -248.5t-379 -379t-248.5 -480.5t-88 -552q0 -289 88 -551t248.5 -480.5
t379 -379t480.5 -249t552 -88.5z" />
    <glyph glyph-name="uniE13C" unicode="&#x2713;&#x20dd;" horiz-adv-x="3912" 
d="M1065 1011l116 120l546 -538l1109 1105l120 -119l-1229 -1224zM1956 -900q-319 0 -607.5 97t-529 273.5t-417 417t-273.5 529t-97 607.5t97 607.5t273.5 529t417 417t529 273.5t607.5 97t607.5 -97t529 -273.5t417 -417t273.5 -529t97 -607.5t-97 -607.5t-273.5 -529
t-417 -417t-529 -273.5t-607.5 -97zM1956 -724q290 0 552 88.5t480.5 249t379 379t248.5 480.5t88 551q0 290 -88 552t-248.5 480.5t-379 379t-480.5 248.5t-552 88t-552 -88t-480.5 -248.5t-379 -379t-248.5 -480.5t-88 -552q0 -289 88 -551t248.5 -480.5t379 -379
t480.5 -249t552 -88.5z" />
    <glyph glyph-name="uniE13D" unicode="&#x2717;&#x20dd;" horiz-adv-x="3912" 
d="M1410 362l-119 119l1209 1205l120 -118zM2502 362l-1211 1206l120 118l1209 -1205zM1956 -900q-319 0 -607.5 97t-529 273.5t-417 417t-273.5 529t-97 607.5t97 607.5t273.5 529t417 417t529 273.5t607.5 97t607.5 -97t529 -273.5t417 -417t273.5 -529t97 -607.5
t-97 -607.5t-273.5 -529t-417 -417t-529 -273.5t-607.5 -97zM1956 -724q290 0 552 88.5t480.5 249t379 379t248.5 480.5t88 551q0 290 -88 552t-248.5 480.5t-379 379t-480.5 248.5t-552 88t-552 -88t-480.5 -248.5t-379 -379t-248.5 -480.5t-88 -552q0 -289 88 -551
t248.5 -480.5t379 -379t480.5 -249t552 -88.5z" />
    <glyph glyph-name="u1F130" unicode="A&#x20de;" horiz-adv-x="3912" 
d="M1307 0h-196l745 2048h200l745 -2048h-196l-642 1805h-14zM1448 785h1016v-168h-1016v168zM446 -830q-168 0 -256 88t-88 256v3024q0 168 88 256t256 88h3024q168 0 256 -88t88 -256v-3024q0 -168 -88 -256t-256 -88h-3024zM424 -654h3069q70 0 107.5 38t37.5 107v3070
q0 70 -37.5 107.5t-107.5 37.5h-3069q-70 0 -108 -37.5t-38 -107.5v-3070q0 -69 38 -107t108 -38z" />
    <glyph glyph-name="u1F131" unicode="B&#x20de;" horiz-adv-x="3912" 
d="M1324 0v2048h691q200 0 333.5 -70t200.5 -191t67 -275q0 -128 -43 -219t-117 -147t-165 -81v-16q99 -7 192 -69.5t153 -174.5t60 -268q0 -155 -69 -276.5t-211.5 -191t-362.5 -69.5h-729zM1511 168h542q237 0 350.5 105t113.5 264q0 117 -56.5 212.5t-159 151.5
t-240.5 56h-550v-789zM1511 1123h521q121 0 212 50t142 138t51 201q0 163 -106 265.5t-316 102.5h-504v-757zM444 -832q-168 0 -256 88t-88 256v3024q0 168 88 256t256 88h3024q168 0 256 -88t88 -256v-3024q0 -168 -88 -256t-256 -88h-3024zM422 -656h3069q70 0 107.5 38
t37.5 107v3070q0 70 -37.5 107.5t-107.5 37.5h-3069q-70 0 -108 -37.5t-38 -107.5v-3070q0 -69 38 -107t108 -38z" />
    <glyph glyph-name="u1F132" unicode="C&#x20de;" horiz-adv-x="3912" 
d="M2804 1408h-188q-21 105 -75.5 194.5t-136.5 156.5t-186 104t-225 37q-194 0 -353.5 -101t-255 -296.5t-95.5 -478.5q0 -285 95.5 -480t255 -295.5t353.5 -100.5q121 0 225 37t186 103.5t136.5 156.5t75.5 195h188q-25 -141 -93.5 -262.5t-174 -212.5t-242.5 -142
t-301 -51q-258 0 -458 129.5t-313.5 365.5t-113.5 557t113.5 557t313.5 365.5t458 129.5q164 0 301 -50.5t242.5 -142t174 -212.5t93.5 -263zM444 -832q-168 0 -256 88t-88 256v3024q0 168 88 256t256 88h3024q168 0 256 -88t88 -256v-3024q0 -168 -88 -256t-256 -88h-3024z
M422 -656h3069q70 0 107.5 38t37.5 107v3070q0 70 -37.5 107.5t-107.5 37.5h-3069q-70 0 -108 -37.5t-38 -107.5v-3070q0 -69 38 -107t108 -38z" />
    <glyph glyph-name="u1F133" unicode="D&#x20de;" horiz-adv-x="3912" 
d="M1839 0h-600v2048h636q293 0 501.5 -122t319.5 -350t111 -547q0 -322 -113.5 -552.5t-330 -353.5t-524.5 -123zM1426 168h402q264 0 442 104t267 297t89 460q-1 265 -87.5 456t-256 293t-418.5 102h-438v-1712zM444 -832q-168 0 -256 88t-88 256v3024q0 168 88 256
t256 88h3024q168 0 256 -88t88 -256v-3024q0 -168 -88 -256t-256 -88h-3024zM422 -656h3069q70 0 107.5 38t37.5 107v3070q0 70 -37.5 107.5t-107.5 37.5h-3069q-70 0 -108 -37.5t-38 -107.5v-3070q0 -69 38 -107t108 -38z" />
    <glyph glyph-name="u1F134" unicode="E&#x20de;" horiz-adv-x="3912" 
d="M1352 0v2048h1188v-168h-1001v-771h938v-168h-938v-773h1021v-168h-1208zM444 -832q-168 0 -256 88t-88 256v3024q0 168 88 256t256 88h3024q168 0 256 -88t88 -256v-3024q0 -168 -88 -256t-256 -88h-3024zM422 -656h3069q70 0 107.5 38t37.5 107v3070q0 70 -37.5 107.5
t-107.5 37.5h-3069q-70 0 -108 -37.5t-38 -107.5v-3070q0 -69 38 -107t108 -38z" />
    <glyph glyph-name="u1F135" unicode="F&#x20de;" horiz-adv-x="3912" 
d="M1390 0v2048h1185v-168h-998v-771h905v-168h-905v-941h-187zM444 -832q-168 0 -256 88t-88 256v3024q0 168 88 256t256 88h3024q168 0 256 -88t88 -256v-3024q0 -168 -88 -256t-256 -88h-3024zM422 -656h3069q70 0 107.5 38t37.5 107v3070q0 70 -37.5 107.5t-107.5 37.5
h-3069q-70 0 -108 -37.5t-38 -107.5v-3070q0 -69 38 -107t108 -38z" />
    <glyph glyph-name="u1F136" unicode="G&#x20de;" horiz-adv-x="3912" 
d="M2608 1408q-28 102 -82 191.5t-133.5 157t-183 105.5t-230.5 38q-200 0 -358 -104t-249.5 -300t-91.5 -472q0 -275 92 -471t252.5 -300.5t367.5 -104.5q189 0 334 84t226.5 240t79.5 371l60 -19h-656v168h778v-168q0 -262 -106 -453t-291 -295t-425 -104
q-268 0 -469 129.5t-312.5 366t-111.5 556.5q0 241 64 435t181.5 332t278.5 211.5t356 73.5q168 0 307.5 -53t246 -145.5t175 -213t92.5 -256.5h-192zM444 -832q-168 0 -256 88t-88 256v3024q0 168 88 256t256 88h3024q168 0 256 -88t88 -256v-3024q0 -168 -88 -256
t-256 -88h-3024zM422 -656h3069q70 0 107.5 38t37.5 107v3070q0 70 -37.5 107.5t-107.5 37.5h-3069q-70 0 -108 -37.5t-38 -107.5v-3070q0 -69 38 -107t108 -38z" />
    <glyph glyph-name="u1F137" unicode="H&#x20de;" horiz-adv-x="3912" 
d="M1188 0v2048h187v-939h1162v939h187v-2048h-187v941h-1162v-941h-187zM444 -832q-168 0 -256 88t-88 256v3024q0 168 88 256t256 88h3024q168 0 256 -88t88 -256v-3024q0 -168 -88 -256t-256 -88h-3024zM422 -656h3069q70 0 107.5 38t37.5 107v3070q0 70 -37.5 107.5
t-107.5 37.5h-3069q-70 0 -108 -37.5t-38 -107.5v-3070q0 -69 38 -107t108 -38z" />
    <glyph glyph-name="u1F138" unicode="I&#x20de;" horiz-adv-x="3912" 
d="M2050 2048v-2048h-187v2048h187zM444 -832q-168 0 -256 88t-88 256v3024q0 168 88 256t256 88h3024q168 0 256 -88t88 -256v-3024q0 -168 -88 -256t-256 -88h-3024zM422 -656h3069q70 0 107.5 38t37.5 107v3070q0 70 -37.5 107.5t-107.5 37.5h-3069q-70 0 -108 -37.5
t-38 -107.5v-3070q0 -69 38 -107t108 -38z" />
    <glyph glyph-name="u1F139" unicode="J&#x20de;" horiz-adv-x="3912" 
d="M2276 2048h187v-1477q-1 -200 -72 -333.5t-196 -199.5t-287 -66q-159 0 -284 59t-196.5 166t-71.5 251h184q0 -91 48 -160.5t131.5 -108.5t188.5 -39q109 0 191.5 46t129.5 141.5t47 243.5v1477zM444 -832q-168 0 -256 88t-88 256v3024q0 168 88 256t256 88h3024
q168 0 256 -88t88 -256v-3024q0 -168 -88 -256t-256 -88h-3024zM422 -656h3069q70 0 107.5 38t37.5 107v3070q0 70 -37.5 107.5t-107.5 37.5h-3069q-70 0 -108 -37.5t-38 -107.5v-3070q0 -69 38 -107t108 -38z" />
    <glyph glyph-name="u1F13A" unicode="K&#x20de;" horiz-adv-x="3912" 
d="M1271 0v2048h187v-1103h18l1000 1103h246l-875 -947l871 -1101h-228l-759 971l-273 -306v-665h-187zM444 -832q-168 0 -256 88t-88 256v3024q0 168 88 256t256 88h3024q168 0 256 -88t88 -256v-3024q0 -168 -88 -256t-256 -88h-3024zM422 -656h3069q70 0 107.5 38
t37.5 107v3070q0 70 -37.5 107.5t-107.5 37.5h-3069q-70 0 -108 -37.5t-38 -107.5v-3070q0 -69 38 -107t108 -38z" />
    <glyph glyph-name="u1F13B" unicode="L&#x20de;" horiz-adv-x="3912" 
d="M1415 0v2048h187v-1880h976v-168h-1163zM444 -832q-168 0 -256 88t-88 256v3024q0 168 88 256t256 88h3024q168 0 256 -88t88 -256v-3024q0 -168 -88 -256t-256 -88h-3024zM422 -656h3069q70 0 107.5 38t37.5 107v3070q0 70 -37.5 107.5t-107.5 37.5h-3069
q-70 0 -108 -37.5t-38 -107.5v-3070q0 -69 38 -107t108 -38z" />
    <glyph glyph-name="u1F13C" unicode="M&#x20de;" horiz-adv-x="3912" 
d="M988 2048h216l743 -1784h18l743 1784h216v-2048h-176v1653h-16l-691 -1653h-170l-691 1653h-16v-1653h-176v2048zM444 -832q-168 0 -256 88t-88 256v3024q0 168 88 256t256 88h3024q168 0 256 -88t88 -256v-3024q0 -168 -88 -256t-256 -88h-3024zM422 -656h3069
q70 0 107.5 38t37.5 107v3070q0 70 -37.5 107.5t-107.5 37.5h-3069q-70 0 -108 -37.5t-38 -107.5v-3070q0 -69 38 -107t108 -38z" />
    <glyph glyph-name="u1F13D" unicode="N&#x20de;" horiz-adv-x="3912" 
d="M2754 2048v-2048h-182l-1210 1715h-16v-1715h-187v2048h181l1214 -1717h16v1717h184zM444 -832q-168 0 -256 88t-88 256v3024q0 168 88 256t256 88h3024q168 0 256 -88t88 -256v-3024q0 -168 -88 -256t-256 -88h-3024zM422 -656h3069q70 0 107.5 38t37.5 107v3070
q0 70 -37.5 107.5t-107.5 37.5h-3069q-70 0 -108 -37.5t-38 -107.5v-3070q0 -69 38 -107t108 -38z" />
    <glyph glyph-name="u1F13E" unicode="O&#x20de;" horiz-adv-x="3912" 
d="M2842 1024q0 -320 -114 -556.5t-313.5 -366t-458.5 -129.5t-458.5 129.5t-313 366t-113.5 556.5t113.5 556.5t313.5 366t458 129.5q259 0 458.5 -129.5t313.5 -366t114 -556.5zM2660 1024q0 275 -92 471.5t-251 300.5t-361 104q-201 0 -360 -104t-251.5 -300t-92.5 -472
q0 -275 92 -471t251 -300.5t361 -104.5t361.5 104t251.5 300.5t91 471.5zM444 -832q-168 0 -256 88t-88 256v3024q0 168 88 256t256 88h3024q168 0 256 -88t88 -256v-3024q0 -168 -88 -256t-256 -88h-3024zM422 -656h3069q70 0 107.5 38t37.5 107v3070q0 70 -37.5 107.5
t-107.5 37.5h-3069q-70 0 -108 -37.5t-38 -107.5v-3070q0 -69 38 -107t108 -38z" />
    <glyph glyph-name="u1F13F" unicode="P&#x20de;" horiz-adv-x="3912" 
d="M1351 0v2048h661q218 0 364.5 -83.5t221 -226.5t74.5 -322t-74 -322.5t-220 -227t-363 -83.5h-520v168h515q161 0 267 60.5t158.5 165.5t52.5 239t-52.5 239t-159 165t-269.5 60h-469v-1880h-187zM444 -832q-168 0 -256 88t-88 256v3024q0 168 88 256t256 88h3024
q168 0 256 -88t88 -256v-3024q0 -168 -88 -256t-256 -88h-3024zM422 -656h3069q70 0 107.5 38t37.5 107v3070q0 70 -37.5 107.5t-107.5 37.5h-3069q-70 0 -108 -37.5t-38 -107.5v-3070q0 -69 38 -107t108 -38z" />
    <glyph glyph-name="u1F140" unicode="Q&#x20de;" horiz-adv-x="3912" 
d="M1930 640h208l262 -347l44 -58l322 -427h-208l-236 315l-42 56zM2842 1024q0 -320 -114 -556.5t-313.5 -366t-458.5 -129.5t-458.5 129.5t-313 366t-113.5 556.5t113.5 556.5t313.5 366t458 129.5q259 0 458.5 -129.5t313.5 -366t114 -556.5zM2660 1024q0 275 -92 471.5
t-251 300.5t-361 104q-201 0 -360 -104t-251.5 -300t-92.5 -472q0 -275 92 -471t251 -300.5t361 -104.5t361.5 104t251.5 300.5t91 471.5zM444 -832q-168 0 -256 88t-88 256v3024q0 168 88 256t256 88h3024q168 0 256 -88t88 -256v-3024q0 -168 -88 -256t-256 -88h-3024z
M422 -656h3069q70 0 107.5 38t37.5 107v3070q0 70 -37.5 107.5t-107.5 37.5h-3069q-70 0 -108 -37.5t-38 -107.5v-3070q0 -69 38 -107t108 -38z" />
    <glyph glyph-name="u1F141" unicode="R&#x20de;" horiz-adv-x="3912" 
d="M1338 0v2048h661q218 0 364.5 -78.5t221 -217t74.5 -317.5t-74.5 -316t-220.5 -214t-362 -77h-563v171h558q160 0 266.5 53t159 151t52.5 232t-53 234.5t-159.5 155.5t-268.5 55h-469v-1880h-187zM2241 924l504 -924h-216l-499 924h211zM444 -832q-168 0 -256 88t-88 256
v3024q0 168 88 256t256 88h3024q168 0 256 -88t88 -256v-3024q0 -168 -88 -256t-256 -88h-3024zM422 -656h3069q70 0 107.5 38t37.5 107v3070q0 70 -37.5 107.5t-107.5 37.5h-3069q-70 0 -108 -37.5t-38 -107.5v-3070q0 -69 38 -107t108 -38z" />
    <glyph glyph-name="u1F142" unicode="S&#x20de;" horiz-adv-x="3912" 
d="M2454 1536q-17 171 -151 272t-337 101q-143 0 -251.5 -49t-170 -135.5t-61.5 -196.5q0 -81 35 -142t94.5 -104.5t132 -74.5t146.5 -52l216 -62q98 -27 196 -69t179.5 -105.5t131 -155t49.5 -219.5q0 -164 -85 -295t-244 -207.5t-381 -76.5q-209 0 -363 69.5t-242 192.5
t-99 285h192q10 -121 80 -205t182 -127.5t250 -43.5q153 0 272.5 51.5t188 144t68.5 215.5q0 104 -54 174.5t-150.5 118.5t-223.5 85l-245 72q-241 72 -374 199t-133 324q0 165 88.5 290.5t240 196t340.5 70.5q191 0 338 -70t233.5 -192.5t92.5 -278.5h-181zM444 -832
q-168 0 -256 88t-88 256v3024q0 168 88 256t256 88h3024q168 0 256 -88t88 -256v-3024q0 -168 -88 -256t-256 -88h-3024zM422 -656h3069q70 0 107.5 38t37.5 107v3070q0 70 -37.5 107.5t-107.5 37.5h-3069q-70 0 -108 -37.5t-38 -107.5v-3070q0 -69 38 -107t108 -38z" />
    <glyph glyph-name="u1F143" unicode="T&#x20de;" horiz-adv-x="3912" 
d="M1213 1880v168h1485v-168h-649v-1880h-187v1880h-649zM444 -832q-168 0 -256 88t-88 256v3024q0 168 88 256t256 88h3024q168 0 256 -88t88 -256v-3024q0 -168 -88 -256t-256 -88h-3024zM422 -656h3069q70 0 107.5 38t37.5 107v3070q0 70 -37.5 107.5t-107.5 37.5h-3069
q-70 0 -108 -37.5t-38 -107.5v-3070q0 -69 38 -107t108 -38z" />
    <glyph glyph-name="u1F144" unicode="U&#x20de;" horiz-adv-x="3912" 
d="M2545 2048h187v-1356q0 -209 -98 -373.5t-272.5 -259t-405.5 -94.5q-230 0 -405 95t-273 259t-98 373v1356h187v-1343q0 -163 73 -290.5t205.5 -200.5t310.5 -73t311 73t205.5 200.5t72.5 290.5v1343zM444 -832q-168 0 -256 88t-88 256v3024q0 168 88 256t256 88h3024
q168 0 256 -88t88 -256v-3024q0 -168 -88 -256t-256 -88h-3024zM422 -656h3069q70 0 107.5 38t37.5 107v3070q0 70 -37.5 107.5t-107.5 37.5h-3069q-70 0 -108 -37.5t-38 -107.5v-3070q0 -69 38 -107t108 -38z" />
    <glyph glyph-name="u1F145" unicode="V&#x20de;" horiz-adv-x="3912" 
d="M1307 2048l640 -1805h18l640 1805h196l-745 -2048h-200l-745 2048h196zM444 -832q-168 0 -256 88t-88 256v3024q0 168 88 256t256 88h3024q168 0 256 -88t88 -256v-3024q0 -168 -88 -256t-256 -88h-3024zM422 -656h3069q70 0 107.5 38t37.5 107v3070q0 70 -37.5 107.5
t-107.5 37.5h-3069q-70 0 -108 -37.5t-38 -107.5v-3070q0 -69 38 -107t108 -38z" />
    <glyph glyph-name="u1F146" unicode="W&#x20de;" horiz-adv-x="3912" 
d="M1275 0l-561 2048h190l464 -1761h16l464 1761h216l464 -1761h16l464 1761h191l-561 -2048h-200l-475 1737h-13l-475 -1737h-200zM444 -832q-168 0 -256 88t-88 256v3024q0 168 88 256t256 88h3024q168 0 256 -88t88 -256v-3024q0 -168 -88 -256t-256 -88h-3024zM422 -656
h3069q70 0 107.5 38t37.5 107v3070q0 70 -37.5 107.5t-107.5 37.5h-3069q-70 0 -108 -37.5t-38 -107.5v-3070q0 -69 38 -107t108 -38z" />
    <glyph glyph-name="u1F147" unicode="X&#x20de;" horiz-adv-x="3912" 
d="M1383 2048l567 -889h13l567 889h221l-659 -1024l659 -1024h-221l-567 879h-13l-567 -879h-221l669 1024l-669 1024h221zM444 -832q-168 0 -256 88t-88 256v3024q0 168 88 256t256 88h3024q168 0 256 -88t88 -256v-3024q0 -168 -88 -256t-256 -88h-3024zM422 -656h3069
q70 0 107.5 38t37.5 107v3070q0 70 -37.5 107.5t-107.5 37.5h-3069q-70 0 -108 -37.5t-38 -107.5v-3070q0 -69 38 -107t108 -38z" />
    <glyph glyph-name="u1F148" unicode="Y&#x20de;" horiz-adv-x="3912" 
d="M1124 2048h216l607 -972h18l607 972h216l-739 -1161v-887h-186v887zM444 -832q-168 0 -256 88t-88 256v3024q0 168 88 256t256 88h3024q168 0 256 -88t88 -256v-3024q0 -168 -88 -256t-256 -88h-3024zM422 -656h3069q70 0 107.5 38t37.5 107v3070q0 70 -37.5 107.5
t-107.5 37.5h-3069q-70 0 -108 -37.5t-38 -107.5v-3070q0 -69 38 -107t108 -38z" />
    <glyph glyph-name="u1F149" unicode="Z&#x20de;" horiz-adv-x="3912" 
d="M1275 0v141l1137 1739h-1143v168h1366v-141l-1138 -1739h1148v-168h-1370zM444 -832q-168 0 -256 88t-88 256v3024q0 168 88 256t256 88h3024q168 0 256 -88t88 -256v-3024q0 -168 -88 -256t-256 -88h-3024zM422 -656h3069q70 0 107.5 38t37.5 107v3070q0 70 -37.5 107.5
t-107.5 37.5h-3069q-70 0 -108 -37.5t-38 -107.5v-3070q0 -69 38 -107t108 -38z" />
    <glyph glyph-name="uniE13E" unicode="&#x30;&#x20de;" horiz-adv-x="3912" 
d="M1956 -28q-216 0 -368.5 124.5t-234 360.5t-81.5 567q0 330 81.5 565.5t235 361t367.5 125.5t367.5 -125.5t235 -361t81.5 -565.5q0 -331 -81.5 -567t-234 -360.5t-368.5 -124.5zM1956 140q237 0 370 231.5t133 652.5q0 280 -60.5 478.5t-173 303.5t-269.5 105
q-235 0 -369 -233.5t-134 -653.5q0 -280 60.5 -478t173 -302t269.5 -104zM444 -832q-168 0 -256 88t-88 256v3024q0 168 88 256t256 88h3024q168 0 256 -88t88 -256v-3024q0 -168 -88 -256t-256 -88h-3024zM422 -656h3069q70 0 107.5 38t37.5 107v3070q0 70 -37.5 107.5
t-107.5 37.5h-3069q-70 0 -108 -37.5t-38 -107.5v-3070q0 -69 38 -107t108 -38z" />
    <glyph glyph-name="uniE13F" unicode="&#x31;&#x20de;" horiz-adv-x="3912" 
d="M2098 2048v-2048h-187v1852h-12l-480 -319v194l484 321h195zM444 -832q-168 0 -256 88t-88 256v3024q0 168 88 256t256 88h3024q168 0 256 -88t88 -256v-3024q0 -168 -88 -256t-256 -88h-3024zM422 -656h3069q70 0 107.5 38t37.5 107v3070q0 70 -37.5 107.5t-107.5 37.5
h-3069q-70 0 -108 -37.5t-38 -107.5v-3070q0 -69 38 -107t108 -38z" />
    <glyph glyph-name="uniE140" unicode="&#x32;&#x20de;" horiz-adv-x="3912" 
d="M1319 0v137l669 752q131 148 211 253t116.5 194t36.5 185q0 117 -54.5 204.5t-149.5 136.5t-214 49q-126 0 -220.5 -54t-146.5 -148t-52 -216h-179q0 170 78.5 301.5t215 206.5t309.5 75q171 0 304 -73.5t209 -199.5t76 -282q0 -113 -39.5 -219t-135.5 -236t-266 -318
l-508 -567v-13h1013v-168h-1273zM444 -832q-168 0 -256 88t-88 256v3024q0 168 88 256t256 88h3024q168 0 256 -88t88 -256v-3024q0 -168 -88 -256t-256 -88h-3024zM422 -656h3069q70 0 107.5 38t37.5 107v3070q0 70 -37.5 107.5t-107.5 37.5h-3069q-70 0 -108 -37.5
t-38 -107.5v-3070q0 -69 38 -107t108 -38z" />
    <glyph glyph-name="uniE141" unicode="&#x33;&#x20de;" horiz-adv-x="3912" 
d="M1957 -28q-189 0 -338 68.5t-236 190.5t-92 281h189q5 -112 69 -195.5t170 -130t236 -46.5q142 0 250.5 53t170 145.5t61.5 209.5q0 124 -63 219t-180.5 148t-280.5 53h-120v168h120q133 0 235.5 48.5t161.5 136.5t59 207q0 113 -51 199t-143.5 135t-215.5 49
q-119 0 -218 -46t-159.5 -130t-64.5 -199h-181q4 160 88.5 281.5t225 190t311.5 68.5q181 0 313 -74t204.5 -196.5t72.5 -269.5q0 -175 -95 -299.5t-256 -172.5v-13q196 -39 308.5 -173.5t112.5 -329.5q0 -164 -86 -294.5t-235.5 -206t-342.5 -75.5zM444 -832
q-168 0 -256 88t-88 256v3024q0 168 88 256t256 88h3024q168 0 256 -88t88 -256v-3024q0 -168 -88 -256t-256 -88h-3024zM422 -656h3069q70 0 107.5 38t37.5 107v3070q0 70 -37.5 107.5t-107.5 37.5h-3069q-70 0 -108 -37.5t-38 -107.5v-3070q0 -69 38 -107t108 -38z" />
    <glyph glyph-name="uniE142" unicode="&#x34;&#x20de;" horiz-adv-x="3912" 
d="M1166 440v152l913 1456h112v-255h-83l-733 -1172v-13h1197v-168h-1406zM2122 0v488v70v1490h178v-2048h-178zM444 -832q-168 0 -256 88t-88 256v3024q0 168 88 256t256 88h3024q168 0 256 -88t88 -256v-3024q0 -168 -88 -256t-256 -88h-3024zM422 -656h3069
q70 0 107.5 38t37.5 107v3070q0 70 -37.5 107.5t-107.5 37.5h-3069q-70 0 -108 -37.5t-38 -107.5v-3070q0 -69 38 -107t108 -38z" />
    <glyph glyph-name="uniE143" unicode="&#x35;&#x20de;" horiz-adv-x="3912" 
d="M1932 -28q-171 0 -305.5 69.5t-214 191.5t-84.5 279h181q9 -163 128 -267.5t295 -104.5q137 0 244 65.5t167.5 180t60.5 258.5q-1 150 -65 264.5t-173.5 179.5t-245.5 65q-103 1 -202 -34t-165 -90l-187 24l123 995h1012v-168h-855l-82 -685h10q68 57 165.5 93t206.5 36
q181 0 325.5 -87t229 -239.5t84.5 -350.5q0 -194 -84.5 -346.5t-232 -240.5t-336.5 -88zM444 -832q-168 0 -256 88t-88 256v3024q0 168 88 256t256 88h3024q168 0 256 -88t88 -256v-3024q0 -168 -88 -256t-256 -88h-3024zM422 -656h3069q70 0 107.5 38t37.5 107v3070
q0 70 -37.5 107.5t-107.5 37.5h-3069q-70 0 -108 -37.5t-38 -107.5v-3070q0 -69 38 -107t108 -38z" />
    <glyph glyph-name="uniE144" unicode="&#x36;&#x20de;" horiz-adv-x="3912" 
d="M1957 -28q-127 1 -248 51.5t-218 163t-154 297.5t-57 455q0 251 44 459.5t132 361t220 236t309 83.5q166 0 293 -69t206 -191t99 -283h-184q-28 164 -133 269.5t-281 105.5q-252 0 -390 -234t-139 -665h13q49 91 126.5 157.5t176.5 104t208 37.5q171 0 313 -86.5
t227 -237t85 -343.5q0 -183 -80.5 -337t-226 -245t-341.5 -90zM1957 140q134 0 239.5 68t166.5 182.5t61 253.5t-61 252t-166.5 180t-239.5 67q-102 0 -190 -41.5t-152.5 -113t-98 -163.5t-25.5 -193q11 -141 73.5 -252.5t164 -175.5t228.5 -64zM444 -832q-168 0 -256 88
t-88 256v3024q0 168 88 256t256 88h3024q168 0 256 -88t88 -256v-3024q0 -168 -88 -256t-256 -88h-3024zM422 -656h3069q70 0 107.5 38t37.5 107v3070q0 70 -37.5 107.5t-107.5 37.5h-3069q-70 0 -108 -37.5t-38 -107.5v-3070q0 -69 38 -107t108 -38z" />
    <glyph glyph-name="uniE145" unicode="&#x37;&#x20de;" horiz-adv-x="3912" 
d="M1509 0l933 1867v13h-1075v168h1271v-176l-932 -1872h-197zM444 -832q-168 0 -256 88t-88 256v3024q0 168 88 256t256 88h3024q168 0 256 -88t88 -256v-3024q0 -168 -88 -256t-256 -88h-3024zM422 -656h3069q70 0 107.5 38t37.5 107v3070q0 70 -37.5 107.5t-107.5 37.5
h-3069q-70 0 -108 -37.5t-38 -107.5v-3070q0 -69 38 -107t108 -38z" />
    <glyph glyph-name="uniE146" unicode="&#x38;&#x20de;" horiz-adv-x="3912" 
d="M1956 -28q-196 0 -349 74t-240 202.5t-87 290.5q0 127 53 237.5t146 186t209 98.5v11q-151 44 -243 173.5t-91 294.5q-1 153 78 274t215.5 191.5t308.5 70.5q171 0 307 -70.5t215.5 -191.5t80.5 -274q-1 -164 -93 -294.5t-242 -173.5v-11q116 -22 208 -98t146 -186.5
t54 -237.5q0 -162 -87.5 -290.5t-240 -202.5t-348.5 -74zM1956 140q146 0 256.5 52.5t173 144.5t62.5 211q0 123 -65 219.5t-176 153t-251 56.5t-251.5 -56.5t-176 -153t-64.5 -219.5q0 -119 61.5 -211t173 -144.5t257.5 -52.5zM1956 1137q120 0 215 51t150.5 139.5
t56.5 201.5q-1 112 -56 198.5t-149.5 135t-216.5 48.5t-217.5 -48.5t-150 -135t-53.5 -198.5q-1 -113 54.5 -201.5t151 -139.5t215.5 -51zM444 -832q-168 0 -256 88t-88 256v3024q0 168 88 256t256 88h3024q168 0 256 -88t88 -256v-3024q0 -168 -88 -256t-256 -88h-3024z
M422 -656h3069q70 0 107.5 38t37.5 107v3070q0 70 -37.5 107.5t-107.5 37.5h-3069q-70 0 -108 -37.5t-38 -107.5v-3070q0 -69 38 -107t108 -38z" />
    <glyph glyph-name="uniE147" unicode="&#x39;&#x20de;" horiz-adv-x="3912" 
d="M1941 2080q128 -1 248.5 -52t217.5 -163t154 -297t57 -455q0 -251 -44 -460t-131.5 -361.5t-220 -236t-309.5 -83.5q-165 0 -292.5 69t-206.5 191.5t-98 283.5h184q27 -164 132.5 -270t280.5 -106q251 0 390 234t139 666h-13q-48 -90 -125.5 -157t-176.5 -104.5
t-209 -37.5q-171 0 -313 86.5t-227 237t-85 343.5q0 183 80.5 336.5t226 245t341.5 90.5zM1941 1912q-133 0 -238.5 -68t-167 -182.5t-61.5 -253.5t61.5 -252.5t167 -180t238.5 -66.5q102 0 190 41.5t152.5 113.5t98 163.5t26.5 192.5q-12 141 -74.5 252.5t-164 175.5
t-228.5 64zM444 -832q-168 0 -256 88t-88 256v3024q0 168 88 256t256 88h3024q168 0 256 -88t88 -256v-3024q0 -168 -88 -256t-256 -88h-3024zM422 -656h3069q70 0 107.5 38t37.5 107v3070q0 70 -37.5 107.5t-107.5 37.5h-3069q-70 0 -108 -37.5t-38 -107.5v-3070
q0 -69 38 -107t108 -38z" />
    <glyph glyph-name="uniE148" unicode="&#xe06b;&#x20de;" horiz-adv-x="3912" 
d="M2279 1852l100 -87l-768 -1550l-94 98zM1956 -29q-216 0 -368.5 124.5t-234 360t-81.5 567.5q0 330 81.5 565.5t235 361t367.5 125.5t367.5 -125.5t235 -361t81.5 -565.5q0 -332 -81.5 -567.5t-234 -360t-368.5 -124.5zM1956 139q237 0 370 231.5t133 652.5
q0 280 -60.5 478.5t-173 303t-269.5 104.5q-235 0 -369 -233t-134 -653q0 -280 60.5 -478t173 -302t269.5 -104zM444 -832q-168 0 -256 88t-88 256v3024q0 168 88 256t256 88h3024q168 0 256 -88t88 -256v-3024q0 -168 -88 -256t-256 -88h-3024zM422 -656h3069
q70 0 107.5 38t37.5 107v3070q0 70 -37.5 107.5t-107.5 37.5h-3069q-70 0 -108 -37.5t-38 -107.5v-3070q0 -69 38 -107t108 -38z" />
    <glyph glyph-name="uniE149" unicode="&#xe06c;&#x20de;" horiz-adv-x="3912" 
d="M2132 2048v-2048h-186v1760h-16q-15 -26 -72 -68.5t-148.5 -77t-209.5 -35.5v160q114 1 199 45t143 103t89 106t36 55h165zM444 -832q-168 0 -256 88t-88 256v3024q0 168 88 256t256 88h3024q168 0 256 -88t88 -256v-3024q0 -168 -88 -256t-256 -88h-3024zM422 -656h3069
q70 0 107.5 38t37.5 107v3070q0 70 -37.5 107.5t-107.5 37.5h-3069q-70 0 -108 -37.5t-38 -107.5v-3070q0 -69 38 -107t108 -38z" />
    <glyph glyph-name="uniE14A" unicode="&#xe06d;&#x20de;" horiz-adv-x="3912" 
d="M1290 512h189q7 -115 71.5 -198.5t170 -128.5t235.5 -45q143 0 251.5 53.5t170 151t61.5 228.5q0 127 -62 231t-192.5 166t-336.5 62h-110v155l556 680v13h-910v168h1168v-137l-584 -718v-13q141 -6 261 -52.5t208 -126.5t137 -188.5t49 -239.5q0 -170 -84 -306.5
t-234.5 -215.5t-350.5 -79q-179 0 -327 66t-238.5 187.5t-98.5 286.5zM444 -832q-168 0 -256 88t-88 256v3024q0 168 88 256t256 88h3024q168 0 256 -88t88 -256v-3024q0 -168 -88 -256t-256 -88h-3024zM422 -656h3069q70 0 107.5 38t37.5 107v3070q0 70 -37.5 107.5
t-107.5 37.5h-3069q-70 0 -108 -37.5t-38 -107.5v-3070q0 -69 38 -107t108 -38z" />
    <glyph glyph-name="uniE14B" unicode="&#xe06e;&#x20de;" horiz-adv-x="3912" 
d="M1180 440v152l858 1456h188l-840 -1427v-13h1200v-168h-1406zM2136 0v487v71v722h178v-1280h-178zM444 -832q-168 0 -256 88t-88 256v3024q0 168 88 256t256 88h3024q168 0 256 -88t88 -256v-3024q0 -168 -88 -256t-256 -88h-3024zM422 -656h3069q70 0 107.5 38t37.5 107
v3070q0 70 -37.5 107.5t-107.5 37.5h-3069q-70 0 -108 -37.5t-38 -107.5v-3070q0 -69 38 -107t108 -38z" />
    <glyph glyph-name="uniE14C" unicode="&#xe06f;&#x20de;" horiz-adv-x="3912" 
d="M1330 636q1 90 25 182.5t77 198t140 235.5l543 796h207l-559 -813q44 18 92 29.5t99 11.5q178 0 320.5 -86t225.5 -234t83 -333q0 -186 -82.5 -333t-224 -232.5t-320.5 -85.5t-321.5 87t-224.5 237.5t-80 339.5zM1508 625q0 -139 58.5 -249.5t160 -174.5t229.5 -64
q129 0 230 64t159.5 173.5t58.5 248.5t-58.5 249t-159.5 173t-230 63q-128 0 -229.5 -63t-160 -172t-58.5 -248zM444 -832q-168 0 -256 88t-88 256v3024q0 168 88 256t256 88h3024q168 0 256 -88t88 -256v-3024q0 -168 -88 -256t-256 -88h-3024zM422 -656h3069
q70 0 107.5 38t37.5 107v3070q0 70 -37.5 107.5t-107.5 37.5h-3069q-70 0 -108 -37.5t-38 -107.5v-3070q0 -69 38 -107t108 -38z" />
    <glyph glyph-name="uniE14D" unicode="&#xe070;&#x20de;" horiz-adv-x="3912" 
d="M1330 1425q0 186 82 333t224 232.5t320 85.5q180 0 322.5 -87t224 -237.5t80.5 -339.5q-1 -90 -25 -182.5t-77 -198t-141 -235.5l-542 -796h-207l559 813q-44 -19 -92.5 -30t-98.5 -11q-179 0 -321.5 86t-225 234t-82.5 333zM1508 1425q0 -140 58.5 -249.5t160 -172.5
t229.5 -63q129 0 230.5 63t159.5 172t58 248t-58 249.5t-159.5 174.5t-230.5 64q-128 0 -229.5 -64t-160 -174t-58.5 -248zM444 -832q-168 0 -256 88t-88 256v3024q0 168 88 256t256 88h3024q168 0 256 -88t88 -256v-3024q0 -168 -88 -256t-256 -88h-3024zM422 -656h3069
q70 0 107.5 38t37.5 107v3070q0 70 -37.5 107.5t-107.5 37.5h-3069q-70 0 -108 -37.5t-38 -107.5v-3070q0 -69 38 -107t108 -38z" />
    <glyph glyph-name="uniE14E" unicode="&#x21;&#x20de;" horiz-adv-x="3912" 
d="M2057 2048l-13 -1461h-176l-13 1461h202zM1956 -15q-59 0 -101.5 42.5t-42.5 101.5q0 60 42.5 102t101.5 42t101.5 -42t42.5 -102q0 -39 -19.5 -72t-52 -52.5t-72.5 -19.5zM444 -832q-168 0 -256 88t-88 256v3024q0 168 88 256t256 88h3024q168 0 256 -88t88 -256v-3024
q0 -168 -88 -256t-256 -88h-3024zM422 -656h3069q70 0 107.5 38t37.5 107v3070q0 70 -37.5 107.5t-107.5 37.5h-3069q-70 0 -108 -37.5t-38 -107.5v-3070q0 -69 38 -107t108 -38z" />
    <glyph glyph-name="uniE14F" unicode="&#x3f;&#x20de;" horiz-adv-x="3912" 
d="M1849 587v54q1 158 35 257t100.5 167.5t165.5 131.5q74 48 124.5 101.5t77 118t26.5 140.5q0 108 -50.5 189t-136.5 125.5t-191 44.5q-100 0 -186.5 -43.5t-141 -128t-59.5 -208.5h-189q5 165 82 286t206 187.5t288 66.5q166 0 292 -68.5t197 -187t71 -271.5
q0 -101 -32 -184t-95.5 -153t-158.5 -132q-90 -60 -143 -119t-76 -134.5t-25 -185.5v-54h-181zM1945 -15q-59 0 -101.5 42.5t-42.5 101.5q0 60 42.5 102t101.5 42t101.5 -42t42.5 -102q0 -39 -19.5 -72t-52 -52.5t-72.5 -19.5zM444 -832q-168 0 -256 88t-88 256v3024
q0 168 88 256t256 88h3024q168 0 256 -88t88 -256v-3024q0 -168 -88 -256t-256 -88h-3024zM422 -656h3069q70 0 107.5 38t37.5 107v3070q0 70 -37.5 107.5t-107.5 37.5h-3069q-70 0 -108 -37.5t-38 -107.5v-3070q0 -69 38 -107t108 -38z" />
    <glyph glyph-name="uniE150" unicode="&#x23;&#x20de;" horiz-adv-x="3912" 
d="M2071 0l336 2048h155l-336 -2048h-155zM1120 591l26 154h1528l-26 -154h-1528zM1351 0l336 2048h155l-336 -2048h-155zM1239 1303l25 154h1528l-25 -154h-1528zM444 -832q-168 0 -256 88t-88 256v3024q0 168 88 256t256 88h3024q168 0 256 -88t88 -256v-3024
q0 -168 -88 -256t-256 -88h-3024zM422 -656h3069q70 0 107.5 38t37.5 107v3070q0 70 -37.5 107.5t-107.5 37.5h-3069q-70 0 -108 -37.5t-38 -107.5v-3070q0 -69 38 -107t108 -38z" />
    <glyph glyph-name="uniE151" unicode="&#x2d;&#x20de;" horiz-adv-x="3912" 
d="M2382 1108v-168h-852v168h852zM444 -832q-168 0 -256 88t-88 256v3024q0 168 88 256t256 88h3024q168 0 256 -88t88 -256v-3024q0 -168 -88 -256t-256 -88h-3024zM422 -656h3069q70 0 107.5 38t37.5 107v3070q0 70 -37.5 107.5t-107.5 37.5h-3069q-70 0 -108 -37.5
t-38 -107.5v-3070q0 -69 38 -107t108 -38z" />
    <glyph glyph-name="uniE152" unicode="&#x3c;&#x20de;" horiz-adv-x="3912" 
d="M1304 939v128l1224 675v-196l-1004 -542l10 18v-38l-10 18l1004 -542v-196zM444 -832q-168 0 -256 88t-88 256v3024q0 168 88 256t256 88h3024q168 0 256 -88t88 -256v-3024q0 -168 -88 -256t-256 -88h-3024zM422 -656h3069q70 0 107.5 38t37.5 107v3070
q0 70 -37.5 107.5t-107.5 37.5h-3069q-70 0 -108 -37.5t-38 -107.5v-3070q0 -69 38 -107t108 -38z" />
    <glyph glyph-name="uniE153" unicode="&#x3e;&#x20de;" horiz-adv-x="3912" 
d="M2608 939l-1224 -675v196l1004 542l-9 -18v38l9 -18l-1004 542v196l1224 -675v-128zM444 -832q-168 0 -256 88t-88 256v3024q0 168 88 256t256 88h3024q168 0 256 -88t88 -256v-3024q0 -168 -88 -256t-256 -88h-3024zM422 -656h3069q70 0 107.5 38t37.5 107v3070
q0 70 -37.5 107.5t-107.5 37.5h-3069q-70 0 -108 -37.5t-38 -107.5v-3070q0 -69 38 -107t108 -38z" />
    <glyph glyph-name="uniE154" unicode="&#x3d;&#x20de;" horiz-adv-x="3912" 
d="M1387 1228v165h1139v-165h-1139zM1387 655v165h1139v-165h-1139zM444 -832q-168 0 -256 88t-88 256v3024q0 168 88 256t256 88h3024q168 0 256 -88t88 -256v-3024q0 -168 -88 -256t-256 -88h-3024zM422 -656h3069q70 0 107.5 38t37.5 107v3070q0 70 -37.5 107.5
t-107.5 37.5h-3069q-70 0 -108 -37.5t-38 -107.5v-3070q0 -69 38 -107t108 -38z" />
    <glyph glyph-name="uniE155" unicode="&#x2b;&#x20de;" horiz-adv-x="3912" 
d="M1871 388v1266h171v-1266h-171zM1323 936v170h1267v-170h-1267zM444 -832q-168 0 -256 88t-88 256v3024q0 168 88 256t256 88h3024q168 0 256 -88t88 -256v-3024q0 -168 -88 -256t-256 -88h-3024zM422 -656h3069q70 0 107.5 38t37.5 107v3070q0 70 -37.5 107.5
t-107.5 37.5h-3069q-70 0 -108 -37.5t-38 -107.5v-3070q0 -69 38 -107t108 -38z" />
    <glyph glyph-name="uniE156" unicode="&#x2212;&#x20de;" horiz-adv-x="3912" 
d="M2576 1109v-170h-1240v170h1240zM444 -832q-168 0 -256 88t-88 256v3024q0 168 88 256t256 88h3024q168 0 256 -88t88 -256v-3024q0 -168 -88 -256t-256 -88h-3024zM422 -656h3069q70 0 107.5 38t37.5 107v3070q0 70 -37.5 107.5t-107.5 37.5h-3069q-70 0 -108 -37.5
t-38 -107.5v-3070q0 -69 38 -107t108 -38z" />
    <glyph glyph-name="uniE157" unicode="&#xd7;&#x20de;" horiz-adv-x="3912" 
d="M2462 386l-1128 1128l117 116l1128 -1128zM1451 386l-117 116l1128 1128l117 -116zM444 -832q-168 0 -256 88t-88 256v3024q0 168 88 256t256 88h3024q168 0 256 -88t88 -256v-3024q0 -168 -88 -256t-256 -88h-3024zM422 -656h3069q70 0 107.5 38t37.5 107v3070
q0 70 -37.5 107.5t-107.5 37.5h-3069q-70 0 -108 -37.5t-38 -107.5v-3070q0 -69 38 -107t108 -38z" />
    <glyph glyph-name="uniE158" unicode="&#xf7;&#x20de;" horiz-adv-x="3912" 
d="M2576 1109v-170h-1240v170h1240zM1956 384q-60 0 -102 42t-42 102q0 58 42 99.5t102 41.5q58 0 100 -41.5t42 -99.5q0 -60 -42 -102t-100 -42zM1956 1379q-40 0 -72.5 19t-52 52t-19.5 73q0 58 42 99.5t102 41.5q58 0 100 -41.5t42 -99.5q0 -60 -42 -102t-100 -42z
M444 -832q-168 0 -256 88t-88 256v3024q0 168 88 256t256 88h3024q168 0 256 -88t88 -256v-3024q0 -168 -88 -256t-256 -88h-3024zM422 -656h3069q70 0 107.5 38t37.5 107v3070q0 70 -37.5 107.5t-107.5 37.5h-3069q-70 0 -108 -37.5t-38 -107.5v-3070q0 -69 38 -107
t108 -38z" />
    <glyph glyph-name="uniE159" unicode="&#x2191;&#x20de;" horiz-adv-x="3912" 
d="M1874 0v1742l-695 -696l-119 118l898 896l896 -896l-116 -118l-696 696v-1742h-168zM444 -832q-168 0 -256 88t-88 256v3024q0 168 88 256t256 88h3024q168 0 256 -88t88 -256v-3024q0 -168 -88 -256t-256 -88h-3024zM422 -656h3069q70 0 107.5 38t37.5 107v3070
q0 70 -37.5 107.5t-107.5 37.5h-3069q-70 0 -108 -37.5t-38 -107.5v-3070q0 -69 38 -107t108 -38z" />
    <glyph glyph-name="uniE15A" unicode="&#x2193;&#x20de;" horiz-adv-x="3912" 
d="M2040 2048v-1742l695 696l119 -118l-898 -896l-896 896l116 118l696 -696v1742h168zM444 -832q-168 0 -256 88t-88 256v3024q0 168 88 256t256 88h3024q168 0 256 -88t88 -256v-3024q0 -168 -88 -256t-256 -88h-3024zM422 -656h3069q70 0 107.5 38t37.5 107v3070
q0 70 -37.5 107.5t-107.5 37.5h-3069q-70 0 -108 -37.5t-38 -107.5v-3070q0 -69 38 -107t108 -38z" />
    <glyph glyph-name="uniE15B" unicode="&#x2190;&#x20de;" horiz-adv-x="3912" 
d="M1824 128l-896 896l896 896l118 -116l-696 -696h1740v-168h-1740l696 -694zM444 -832q-168 0 -256 88t-88 256v3024q0 168 88 256t256 88h3024q168 0 256 -88t88 -256v-3024q0 -168 -88 -256t-256 -88h-3024zM422 -656h3069q70 0 107.5 38t37.5 107v3070
q0 70 -37.5 107.5t-107.5 37.5h-3069q-70 0 -108 -37.5t-38 -107.5v-3070q0 -69 38 -107t108 -38z" />
    <glyph glyph-name="uniE15C" unicode="&#x2192;&#x20de;" horiz-adv-x="3912" 
d="M2090 128l-118 117l696 695h-1740v168h1740l-696 695l118 117l896 -896zM444 -832q-168 0 -256 88t-88 256v3024q0 168 88 256t256 88h3024q168 0 256 -88t88 -256v-3024q0 -168 -88 -256t-256 -88h-3024zM422 -656h3069q70 0 107.5 38t37.5 107v3070q0 70 -37.5 107.5
t-107.5 37.5h-3069q-70 0 -108 -37.5t-38 -107.5v-3070q0 -69 38 -107t108 -38z" />
    <glyph glyph-name="uniE15D" unicode="&#x2713;&#x20de;" horiz-adv-x="3912" 
d="M1065 1014l116 120l546 -538l1109 1105l120 -119l-1229 -1224zM444 -832q-168 0 -256 88t-88 256v3024q0 168 88 256t256 88h3024q168 0 256 -88t88 -256v-3024q0 -168 -88 -256t-256 -88h-3024zM422 -656h3069q70 0 107.5 38t37.5 107v3070q0 70 -37.5 107.5
t-107.5 37.5h-3069q-70 0 -108 -37.5t-38 -107.5v-3070q0 -69 38 -107t108 -38z" />
    <glyph glyph-name="uniE15E" unicode="&#x2717;&#x20de;" horiz-adv-x="3912" 
d="M1410 362l-119 119l1209 1205l120 -118zM2502 362l-1211 1206l120 118l1209 -1205zM444 -832q-168 0 -256 88t-88 256v3024q0 168 88 256t256 88h3024q168 0 256 -88t88 -256v-3024q0 -168 -88 -256t-256 -88h-3024zM422 -656h3069q70 0 107.5 38t37.5 107v3070
q0 70 -37.5 107.5t-107.5 37.5h-3069q-70 0 -108 -37.5t-38 -107.5v-3070q0 -69 38 -107t108 -38z" />
    <glyph glyph-name=".notdef" horiz-adv-x="2748" 
d="M233 -640v512h2282v-512h-2282zM233 1472v512h2282v-512h-2282zM233 2176v512h2282v-512h-2282zM233 64v512h2282v-512h-2282zM233 768v512h2282v-512h-2282z" />
    <glyph glyph-name=".null" 
 />
    <glyph glyph-name="uni0041" unicode="A" horiz-adv-x="1848" 
d="M275 0h-196l745 2048h200l745 -2048h-196l-642 1805h-14zM416 785h1016v-168h-1016v168z" />
    <glyph glyph-name="uni00C4" unicode="&#xc4;" horiz-adv-x="1848" 
d="M275 0h-196l745 2048h200l745 -2048h-196l-642 1805h-14zM416 785h1016v-168h-1016v168zM668 2312q-51 0 -89.5 38.5t-38.5 89.5q0 55 38.5 91.5t89.5 36.5q55 0 91.5 -36.5t36.5 -91.5q0 -51 -36.5 -89.5t-91.5 -38.5zM1180 2312q-51 0 -89.5 38.5t-38.5 89.5
q0 55 38.5 91.5t89.5 36.5q55 0 91.5 -36.5t36.5 -91.5q0 -51 -36.5 -89.5t-91.5 -38.5z" />
    <glyph glyph-name="uni00C3" unicode="&#xc3;" horiz-adv-x="1848" 
d="M275 0h-196l745 2048h200l745 -2048h-196l-642 1805h-14zM416 785h1016v-168h-1016v168zM587 2283l-144 8q5 133 88 218t203 85q61 0 107 -21.5t86.5 -49t83 -48.5t96.5 -21q61 0 106.5 44t51.5 109l141 -16q-7 -134 -90.5 -214.5t-200.5 -80.5q-67 0 -112.5 21.5t-82 49
t-78 48.5t-100.5 21q-64 0 -107.5 -44t-47.5 -109z" />
    <glyph glyph-name="uni00C0" unicode="&#xc0;" horiz-adv-x="1848" 
d="M275 0h-196l745 2048h200l745 -2048h-196l-642 1805h-14zM416 785h1016v-168h-1016v168zM848 2261l-307 454h211l256 -454h-160z" />
    <glyph glyph-name="uni00C1" unicode="&#xc1;" horiz-adv-x="1848" 
d="M275 0h-196l745 2048h200l745 -2048h-196l-642 1805h-14zM416 785h1016v-168h-1016v168zM841 2261l256 454h211l-307 -454h-160z" />
    <glyph glyph-name="uni00C2" unicode="&#xc2;" horiz-adv-x="1848" 
d="M275 0h-196l745 2048h200l745 -2048h-196l-642 1805h-14zM416 785h1016v-168h-1016v168zM685 2224h-174v13l338 403h150l338 -403v-13h-174l-239 289z" />
    <glyph glyph-name="uni00C5" unicode="&#xc5;" horiz-adv-x="1848" 
d="M275 0h-196l745 2048h200l745 -2048h-196l-642 1805h-14zM416 785h1016v-168h-1016v168zM924 2172q-81 0 -149 38t-108 103t-40 143q0 79 40 143.5t108 102.5t149 38q83 0 150 -38t107.5 -102.5t40.5 -143.5q0 -78 -40.5 -143t-107.5 -103t-150 -38zM924 2295
q69 0 116.5 47t47.5 114q0 68 -48 114.5t-116 46.5t-116 -47t-48 -114q0 -68 48 -114.5t116 -46.5z" />
    <glyph glyph-name="uni0100" unicode="&#x100;" horiz-adv-x="1848" 
d="M275 0h-196l745 2048h200l745 -2048h-196l-642 1805h-14zM416 785h1016v-168h-1016v168zM1342 2515v-155h-837v155h837z" />
    <glyph glyph-name="uni0102" unicode="&#x102;" horiz-adv-x="1848" 
d="M275 0h-196l745 2048h200l745 -2048h-196l-642 1805h-14zM416 785h1016v-168h-1016v168zM1108 2560h168q0 -143 -94.5 -232t-257.5 -89q-161 0 -255 89t-94 232h168q0 -78 42.5 -131.5t138.5 -53.5t140 53.5t44 131.5z" />
    <glyph glyph-name="uni0104" unicode="&#x104;" horiz-adv-x="1848" 
d="M275 0h-196l745 2048h200l745 -2048h-196l-642 1805h-14zM416 785h1016v-168h-1016v168zM1628 -603q-116 0 -192 65t-76 189q0 74 33.5 144t103 135.5t179.5 125.5l94 -56q-95 -78 -161.5 -157t-66.5 -170q0 -60 30.5 -90.5t95.5 -30.5q45 0 79.5 12.5t60.5 28.5l23 -134
q-36 -25 -86.5 -43.5t-116.5 -18.5z" />
    <glyph glyph-name="uni01CD" unicode="&#x1cd;" horiz-adv-x="1848" 
d="M275 0h-196l745 2048h200l745 -2048h-196l-642 1805h-14zM416 785h1016v-168h-1016v168zM685 2658l239 -290l239 290h174v-14l-338 -402h-150l-338 402v14h174z" />
    <glyph glyph-name="uni01DE" unicode="&#x1de;" horiz-adv-x="1848" 
d="M275 0h-196l745 2048h200l745 -2048h-196l-642 1805h-14zM416 785h1016v-168h-1016v168zM669 2312q-51 0 -89.5 38.5t-38.5 89.5q0 55 38.5 91.5t89.5 36.5q55 0 91.5 -36.5t36.5 -91.5q0 -51 -36.5 -89.5t-91.5 -38.5zM1181 2312q-51 0 -89.5 38.5t-38.5 89.5
q0 55 38.5 91.5t89.5 36.5q55 0 91.5 -36.5t36.5 -91.5q0 -51 -36.5 -89.5t-91.5 -38.5zM1344 2986v-155h-837v155h837z" />
    <glyph glyph-name="uni01E0" unicode="&#x1e0;" horiz-adv-x="1848" 
d="M275 0h-196l745 2048h200l745 -2048h-196l-642 1805h-14zM416 785h1016v-168h-1016v168zM923 2235q-54 0 -93.5 37.5t-39.5 90.5t39.5 90.5t93.5 37.5q55 0 94.5 -37.5t39.5 -90.5t-39.5 -90.5t-94.5 -37.5zM1318 2840v-155h-837v155h837z" />
    <glyph glyph-name="uni01FA" unicode="&#x1fa;" horiz-adv-x="1848" 
d="M275 0h-196l745 2048h200l745 -2048h-196l-642 1805h-14zM416 785h1016v-168h-1016v168zM924 2163q-96 0 -164.5 67.5t-68.5 162.5q0 96 68.5 163.5t164.5 67.5q98 0 165.5 -67.5t67.5 -163.5q0 -95 -67.5 -162.5t-165.5 -67.5zM924 2275q51 0 85 35t34 83q0 47 -34 81.5
t-85 34.5q-49 0 -84 -34.5t-35 -81.5q0 -49 35 -83.5t84 -34.5zM845 2679l186 229h208l-261 -229h-133z" />
    <glyph glyph-name="uni0200" unicode="&#x200;" horiz-adv-x="1848" 
d="M275 0h-196l745 2048h200l745 -2048h-196l-642 1805h-14zM416 785h1016v-168h-1016v168zM676 2261l-325 454h223l262 -454h-160zM1032 2261l-247 454h226l180 -454h-159z" />
    <glyph glyph-name="uni0202" unicode="&#x202;" horiz-adv-x="1848" 
d="M275 0h-196l745 2048h200l745 -2048h-196l-642 1805h-14zM416 785h1016v-168h-1016v168zM574 2338q0 144 94.5 234t257.5 90t256 -90t93 -234h-168q0 81 -43.5 134.5t-137.5 53.5q-98 0 -141 -54.5t-43 -133.5h-168z" />
    <glyph glyph-name="uni0226" unicode="&#x226;" horiz-adv-x="1848" 
d="M275 0h-196l745 2048h200l745 -2048h-196l-642 1805h-14zM416 785h1016v-168h-1016v168zM924 2312q-54 0 -93.5 37.5t-39.5 90.5t39.5 90.5t93.5 37.5q55 0 94.5 -37.5t39.5 -90.5t-39.5 -90.5t-94.5 -37.5z" />
    <glyph glyph-name="uni1E00" unicode="&#x1e00;" horiz-adv-x="1848" 
d="M275 0h-196l745 2048h200l745 -2048h-196l-642 1805h-14zM416 785h1016v-168h-1016v168zM665 -343q0 99 69.5 164.5t169.5 65.5q95 0 166.5 -65.5t71.5 -164.5q0 -102 -71.5 -166.5t-166.5 -64.5q-100 0 -169.5 64.5t-69.5 166.5zM769 -343q0 -57 39 -96t96 -39
q53 0 93.5 39t40.5 96t-41 95.5t-93 38.5q-57 0 -96 -39t-39 -95z" />
    <glyph glyph-name="uni1EA0" unicode="&#x1ea0;" horiz-adv-x="1848" 
d="M275 0h-196l745 2048h200l745 -2048h-196l-642 1805h-14zM416 785h1016v-168h-1016v168zM924 -491q-54 0 -93.5 37.5t-39.5 90.5t39.5 90.5t93.5 37.5q55 0 94.5 -37.5t39.5 -90.5t-39.5 -90.5t-94.5 -37.5z" />
    <glyph glyph-name="uni1EA2" unicode="&#x1ea2;" horiz-adv-x="1848" 
d="M275 0h-196l745 2048h200l745 -2048h-196l-642 1805h-14zM416 785h1016v-168h-1016v168zM1003 2252h-152v209q109 6 153 33t44 85q0 66 -61.5 96.5t-163.5 31.5l9 122q189 0 284.5 -69t95.5 -184q0 -100 -62.5 -150.5t-146.5 -60.5v-113z" />
    <glyph glyph-name="uni1EA4" unicode="&#x1ea4;" horiz-adv-x="1848" 
d="M275 0h-196l745 2048h200l745 -2048h-196l-642 1805h-14zM416 785h1016v-168h-1016v168zM587 2380l397 115h119l172 -140l-292 -103l-180 142l-27 -14h-189zM1323 2498l210 357h222l-272 -357h-160z" />
    <glyph glyph-name="uni1EA6" unicode="&#x1ea6;" horiz-adv-x="1848" 
d="M275 0h-196l745 2048h200l745 -2048h-196l-642 1805h-14zM416 785h1016v-168h-1016v168zM1000 2637l397 -370h-220l-252 244l-252 -244h-220l395 370h152zM334 2872l201 -360h-157l-268 360h224z" />
    <glyph glyph-name="uni1EA8" unicode="&#x1ea8;" horiz-adv-x="1848" 
d="M275 0h-196l745 2048h200l745 -2048h-196l-642 1805h-14zM416 785h1016v-168h-1016v168zM1019 2589l379 -371h-193l-282 271l-278 -271h-194l379 371h189zM1455 2412h-134v176q94 7 136 28.5t42 72.5q0 58 -55.5 84t-150.5 27l9 109q171 0 256.5 -61t86.5 -159
q0 -87 -56.5 -132t-133.5 -54v-91z" />
    <glyph glyph-name="uni1EAA" unicode="&#x1eaa;" horiz-adv-x="1848" 
d="M275 0h-196l745 2048h200l745 -2048h-196l-642 1805h-14zM416 785h1016v-168h-1016v168zM980 2534l406 -352h-194l-278 244l-279 -244h-193l405 352h133zM1185 2877l96 -24q-5 -87 -71 -151t-156 -64q-53 0 -90 18t-66 41.5t-59.5 41.5t-72.5 18q-46 0 -86.5 -34.5
t-44.5 -84.5l-93 22q5 87 69.5 152t153.5 65q46 0 82 -17.5t67.5 -40t65 -40.5t74.5 -18q46 0 86.5 33.5t44.5 82.5z" />
    <glyph glyph-name="uni1EAC" unicode="&#x1eac;" horiz-adv-x="1848" 
d="M275 0h-196l745 2048h200l745 -2048h-196l-642 1805h-14zM416 785h1016v-168h-1016v168zM685 2224h-174v13l338 403h150l338 -403v-13h-174l-239 289zM924 -491q-54 0 -93.5 37.5t-39.5 90.5t39.5 90.5t93.5 37.5q55 0 94.5 -37.5t39.5 -90.5t-39.5 -90.5t-94.5 -37.5z
" />
    <glyph glyph-name="uni1EAE" unicode="&#x1eae;" horiz-adv-x="1848" 
d="M275 0h-196l745 2048h200l745 -2048h-196l-642 1805h-14zM416 785h1016v-168h-1016v168zM1099 2510h171q0 -119 -95 -193.5t-260 -74.5t-260 74.5t-95 193.5h171q0 -68 43 -113t141 -45q96 0 140 45t44 113zM850 2553l150 279h176l-210 -279h-116z" />
    <glyph glyph-name="uni1EB0" unicode="&#x1eb0;" horiz-adv-x="1848" 
d="M275 0h-196l745 2048h200l745 -2048h-196l-642 1805h-14zM416 785h1016v-168h-1016v168zM1099 2510h171q0 -119 -95 -193.5t-260 -74.5t-260 74.5t-95 193.5h171q0 -68 43 -113t141 -45q96 0 140 45t44 113zM878 2553l-210 277h176l150 -277h-116z" />
    <glyph glyph-name="uni1EB2" unicode="&#x1eb2;" horiz-adv-x="1848" 
d="M275 0h-196l745 2048h200l745 -2048h-196l-642 1805h-14zM416 785h1016v-168h-1016v168zM1084 2553h165q0 -119 -91.5 -193.5t-252.5 -74.5q-159 0 -251.5 74.5t-92.5 193.5h165q0 -68 42.5 -113t136.5 -45t136.5 45t42.5 113zM988 2579h-147l-3 171q94 4 138 20.5
t43 58.5q-1 49 -59.5 69t-149.5 21l12 98q173 0 264.5 -53.5t91.5 -136.5q0 -74 -58 -110t-132 -44v-94z" />
    <glyph glyph-name="uni1EB4" unicode="&#x1eb4;" horiz-adv-x="1848" 
d="M275 0h-196l745 2048h200l745 -2048h-196l-642 1805h-14zM416 785h1016v-168h-1016v168zM1092 2564h168q0 -122 -93 -198t-256 -76q-161 0 -255.5 76t-94.5 198h168q0 -69 43 -115.5t139 -46.5t138.5 46.5t42.5 115.5zM1185 2938l99 -26q-3 -94 -62.5 -161.5
t-150.5 -68.5q-71 0 -116 29t-85 57.5t-98 28.5q-47 0 -78.5 -37t-34.5 -88l-102 21q3 92 62.5 163.5t153.5 71.5q47 0 84 -17.5t69.5 -40.5t67 -40t76.5 -17q46 0 78.5 37t36.5 88z" />
    <glyph glyph-name="uni1EB6" unicode="&#x1eb6;" horiz-adv-x="1848" 
d="M275 0h-196l745 2048h200l745 -2048h-196l-642 1805h-14zM416 785h1016v-168h-1016v168zM1108 2560h168q0 -143 -94.5 -232t-257.5 -89q-161 0 -255 89t-94 232h168q0 -78 42.5 -131.5t138.5 -53.5t140 53.5t44 131.5zM924 -491q-54 0 -93.5 37.5t-39.5 90.5t39.5 90.5
t93.5 37.5q55 0 94.5 -37.5t39.5 -90.5t-39.5 -90.5t-94.5 -37.5z" />
    <glyph glyph-name="uni0391" unicode="&#x391;" horiz-adv-x="1848" 
d="M275 0h-196l745 2048h200l745 -2048h-196l-642 1805h-14zM416 785h1016v-168h-1016v168z" />
    <glyph glyph-name="uni0386" unicode="&#x386;" horiz-adv-x="1848" 
d="M275 0h-196l745 2048h200l745 -2048h-196l-642 1805h-14zM416 785h1016v-168h-1016v168zM392 1704l58 465h198l-131 -465h-125z" />
    <glyph glyph-name="uni1F08" unicode="&#x1f08;" horiz-adv-x="1848" 
d="M275 0h-196l745 2048h200l745 -2048h-196l-642 1805h-14zM416 785h1016v-168h-1016v168zM583 2048v-92q0 -83 -24.5 -154t-75 -132t-128.5 -115l-88 64q47 53 75.5 104.5t41 109.5t12.5 131v84h187z" />
    <glyph glyph-name="uni1F09" unicode="&#x1f09;" horiz-adv-x="1848" 
d="M275 0h-196l745 2048h200l745 -2048h-196l-642 1805h-14zM416 785h1016v-168h-1016v168zM293 1959v92h186v-84q0 -73 12.5 -131t41 -109.5t75.5 -105.5l-87 -63q-116 80 -172 178t-56 223z" />
    <glyph glyph-name="uni1F0A" unicode="&#x1f0a;" horiz-adv-x="1848" 
d="M275 0h-196l745 2048h200l745 -2048h-196l-642 1805h-14zM416 785h1016v-168h-1016v168zM564 1603v-19h-101l-306 439v25h215zM93 2048v-92q0 -83 -24.5 -154t-75.5 -132t-128 -115l-87 64q69 80 99 158t30 187v84h186z" />
    <glyph glyph-name="uni1F0B" unicode="&#x1f0b;" horiz-adv-x="1848" 
d="M275 0h-196l745 2048h200l745 -2048h-196l-642 1805h-14zM416 785h1016v-168h-1016v168zM569 1606v-19h-101l-305 439v25h217zM-109 1959v92h187v-84q0 -109 29 -187t100 -159l-88 -63q-115 80 -171.5 177.5t-56.5 223.5z" />
    <glyph glyph-name="uni1F0C" unicode="&#x1f0c;" horiz-adv-x="1848" 
d="M275 0h-196l745 2048h200l745 -2048h-196l-642 1805h-14zM416 785h1016v-168h-1016v168zM165 1593l88 162l126 296l192 -6l-94 -168l-227 -290zM143 2051v-92q0 -84 -24.5 -155t-75.5 -132t-128 -114l-87 63q69 81 99 159t30 187v84h186z" />
    <glyph glyph-name="uni1F0D" unicode="&#x1f0d;" horiz-adv-x="1848" 
d="M275 0h-196l745 2048h200l745 -2048h-196l-642 1805h-14zM416 785h1016v-168h-1016v168zM199 1593l88 162l124 296l194 -6l-94 -168l-227 -290zM-165 1959v92h187v-84q0 -109 30 -187t99 -159l-88 -63q-115 80 -171.5 177.5t-56.5 223.5z" />
    <glyph glyph-name="uni1F0E" unicode="&#x1f0e;" horiz-adv-x="1848" 
d="M275 0h-196l745 2048h200l745 -2048h-196l-642 1805h-14zM416 785h1016v-168h-1016v168zM620 2347l99 -26q-3 -97 -63 -166.5t-155 -69.5q-54 0 -92 18t-69 42t-64 42.5t-77 18.5q-51 0 -83 -37.5t-35 -94.5l-100 24q4 97 63 169t156 72q49 0 86.5 -18.5t70 -43.5
t67 -43.5t76.5 -18.5q50 1 83.5 38.5t36.5 93.5zM443 2021v-81q0 -80 -35 -167.5t-117 -161.5l-95 53q51 74 69 139.5t18 136.5v81h160z" />
    <glyph glyph-name="uni1F0F" unicode="&#x1f0f;" horiz-adv-x="1848" 
d="M275 0h-196l745 2048h200l745 -2048h-196l-642 1805h-14zM416 785h1016v-168h-1016v168zM275 1940v81h160v-81q0 -76 21 -141.5t67 -134.5l-98 -53q-77 69 -113.5 156.5t-36.5 172.5zM616 2347l99 -26q-3 -97 -63 -166.5t-155 -69.5q-54 0 -92 18t-69 42t-64 42.5
t-77 18.5q-51 0 -83 -37.5t-35 -94.5l-100 24q4 97 63 169t156 72q49 0 86.5 -18.5t70 -43.5t67 -43.5t76.5 -18.5q50 1 83.5 38.5t36.5 93.5z" />
    <glyph glyph-name="uni1FB8" unicode="&#x1fb8;" horiz-adv-x="1848" 
d="M275 0h-196l745 2048h200l745 -2048h-196l-642 1805h-14zM416 785h1016v-168h-1016v168zM1108 2560h168q0 -143 -94.5 -232t-257.5 -89q-161 0 -255 89t-94 232h168q0 -78 42.5 -131.5t138.5 -53.5t140 53.5t44 131.5z" />
    <glyph glyph-name="uni1FB9" unicode="&#x1fb9;" horiz-adv-x="1848" 
d="M275 0h-196l745 2048h200l745 -2048h-196l-642 1805h-14zM416 785h1016v-168h-1016v168zM1342 2515v-155h-837v155h837z" />
    <glyph glyph-name="uni1FBA" unicode="&#x1fba;" horiz-adv-x="1848" 
d="M275 0h-196l745 2048h200l745 -2048h-196l-642 1805h-14zM416 785h1016v-168h-1016v168zM522 1586l-86 -6l-226 293l-95 168l192 6l127 -296z" />
    <glyph glyph-name="uni023A" unicode="&#x23a;" horiz-adv-x="1848" 
d="M1501 2308l-912 -2568h-174l912 2568h174zM275 0h-196l745 2048h200l745 -2048h-196l-642 1805h-14zM416 785h1016v-168h-1016v168z" />
    <glyph glyph-name="uni1FBB" unicode="&#x1fbb;" horiz-adv-x="1848" 
d="M275 0h-196l745 2048h200l745 -2048h-196l-642 1805h-14zM416 785h1016v-168h-1016v168zM356 1728v17l185 451h220v-20l-302 -448h-103z" />
    <glyph glyph-name="uni0410" unicode="&#x410;" horiz-adv-x="1848" 
d="M275 0h-196l745 2048h200l745 -2048h-196l-642 1805h-14zM416 785h1016v-168h-1016v168z" />
    <glyph glyph-name="uni04D0" unicode="&#x4d0;" horiz-adv-x="1848" 
d="M275 0h-196l745 2048h200l745 -2048h-196l-642 1805h-14zM416 785h1016v-168h-1016v168zM1108 2560h168q0 -143 -94.5 -232t-257.5 -89q-161 0 -255 89t-94 232h168q0 -78 42.5 -131.5t138.5 -53.5t140 53.5t44 131.5z" />
    <glyph glyph-name="uni04D2" unicode="&#x4d2;" horiz-adv-x="1848" 
d="M275 0h-196l745 2048h200l745 -2048h-196l-642 1805h-14zM416 785h1016v-168h-1016v168zM668 2312q-51 0 -89.5 38.5t-38.5 89.5q0 55 38.5 91.5t89.5 36.5q55 0 91.5 -36.5t36.5 -91.5q0 -51 -36.5 -89.5t-91.5 -38.5zM1180 2312q-51 0 -89.5 38.5t-38.5 89.5
q0 55 38.5 91.5t89.5 36.5q55 0 91.5 -36.5t36.5 -91.5q0 -51 -36.5 -89.5t-91.5 -38.5z" />
    <glyph glyph-name="uni1F88" unicode="&#x1f88;" horiz-adv-x="1848" 
d="M275 0h-196l745 2048h200l745 -2048h-196l-642 1805h-14zM416 785h1016v-168h-1016v168zM1043 -653q-87 0 -143 55t-56 167v311h160v-308q0 -54 19.5 -78.5t48.5 -24.5q13 0 30 2t25 3l6 -114q-13 -5 -36.5 -9t-53.5 -4zM583 2048v-92q0 -83 -24.5 -154t-75 -132
t-128.5 -115l-88 64q47 53 75.5 104.5t41 109.5t12.5 131v84h187z" />
    <glyph glyph-name="uni1F89" unicode="&#x1f89;" horiz-adv-x="1848" 
d="M275 0h-196l745 2048h200l745 -2048h-196l-642 1805h-14zM416 785h1016v-168h-1016v168zM1043 -653q-87 0 -143 55t-56 167v311h160v-308q0 -54 19.5 -78.5t48.5 -24.5q13 0 30 2t25 3l6 -114q-13 -5 -36.5 -9t-53.5 -4zM293 1959v92h186v-84q0 -73 12.5 -131t41 -109.5
t75.5 -105.5l-87 -63q-116 80 -172 178t-56 223z" />
    <glyph glyph-name="uni1F8A" unicode="&#x1f8a;" horiz-adv-x="1848" 
d="M275 0h-196l745 2048h200l745 -2048h-196l-642 1805h-14zM416 785h1016v-168h-1016v168zM1043 -653q-87 0 -143 55t-56 167v311h160v-308q0 -54 19.5 -78.5t48.5 -24.5q13 0 30 2t25 3l6 -114q-13 -5 -36.5 -9t-53.5 -4zM564 1603v-19h-101l-306 439v25h215zM93 2048v-92
q0 -83 -24.5 -154t-75.5 -132t-128 -115l-87 64q69 80 99 158t30 187v84h186z" />
    <glyph glyph-name="uni1F8B" unicode="&#x1f8b;" horiz-adv-x="1848" 
d="M275 0h-196l745 2048h200l745 -2048h-196l-642 1805h-14zM416 785h1016v-168h-1016v168zM1043 -653q-87 0 -143 55t-56 167v311h160v-308q0 -54 19.5 -78.5t48.5 -24.5q13 0 30 2t25 3l6 -114q-13 -5 -36.5 -9t-53.5 -4zM569 1606v-19h-101l-305 439v25h217zM-109 1959
v92h187v-84q0 -109 29 -187t100 -159l-88 -63q-115 80 -171.5 177.5t-56.5 223.5z" />
    <glyph glyph-name="uni1F8C" unicode="&#x1f8c;" horiz-adv-x="1848" 
d="M275 0h-196l745 2048h200l745 -2048h-196l-642 1805h-14zM416 785h1016v-168h-1016v168zM165 1593l88 162l126 296l192 -6l-94 -168l-227 -290zM143 2051v-92q0 -84 -24.5 -155t-75.5 -132t-128 -114l-87 63q69 81 99 159t30 187v84h186zM1043 -653q-87 0 -143 55
t-56 167v311h160v-308q0 -54 19.5 -78.5t48.5 -24.5q13 0 30 2t25 3l6 -114q-13 -5 -36.5 -9t-53.5 -4z" />
    <glyph glyph-name="uni1F8D" unicode="&#x1f8d;" horiz-adv-x="1848" 
d="M275 0h-196l745 2048h200l745 -2048h-196l-642 1805h-14zM416 785h1016v-168h-1016v168zM1043 -653q-87 0 -143 55t-56 167v311h160v-308q0 -54 19.5 -78.5t48.5 -24.5q13 0 30 2t25 3l6 -114q-13 -5 -36.5 -9t-53.5 -4zM199 1593l88 162l124 296l194 -6l-94 -168
l-227 -290zM-165 1959v92h187v-84q0 -109 30 -187t99 -159l-88 -63q-115 80 -171.5 177.5t-56.5 223.5z" />
    <glyph glyph-name="uni1F8E" unicode="&#x1f8e;" horiz-adv-x="1848" 
d="M275 0h-196l745 2048h200l745 -2048h-196l-642 1805h-14zM416 785h1016v-168h-1016v168zM620 2347l99 -26q-3 -97 -63 -166.5t-155 -69.5q-54 0 -92 18t-69 42t-64 42.5t-77 18.5q-51 0 -83 -37.5t-35 -94.5l-100 24q4 97 63 169t156 72q49 0 86.5 -18.5t70 -43.5
t67 -43.5t76.5 -18.5q50 1 83.5 38.5t36.5 93.5zM443 2021v-81q0 -80 -35 -167.5t-117 -161.5l-95 53q51 74 69 139.5t18 136.5v81h160zM1043 -653q-87 0 -143 55t-56 167v311h160v-308q0 -54 19.5 -78.5t48.5 -24.5q13 0 30 2t25 3l6 -114q-13 -5 -36.5 -9t-53.5 -4z" />
    <glyph glyph-name="uni1F8F" unicode="&#x1f8f;" horiz-adv-x="1848" 
d="M275 0h-196l745 2048h200l745 -2048h-196l-642 1805h-14zM416 785h1016v-168h-1016v168zM1043 -653q-87 0 -143 55t-56 167v311h160v-308q0 -54 19.5 -78.5t48.5 -24.5q13 0 30 2t25 3l6 -114q-13 -5 -36.5 -9t-53.5 -4zM275 1940v81h160v-81q0 -76 21 -141.5t67 -134.5
l-98 -53q-77 69 -113.5 156.5t-36.5 172.5zM616 2347l99 -26q-3 -97 -63 -166.5t-155 -69.5q-54 0 -92 18t-69 42t-64 42.5t-77 18.5q-51 0 -83 -37.5t-35 -94.5l-100 24q4 97 63 169t156 72q49 0 86.5 -18.5t70 -43.5t67 -43.5t76.5 -18.5q50 1 83.5 38.5t36.5 93.5z" />
    <glyph glyph-name="uni1FBC" unicode="&#x1fbc;" horiz-adv-x="1848" 
d="M275 0h-196l745 2048h200l745 -2048h-196l-642 1805h-14zM416 785h1016v-168h-1016v168zM1043 -653q-87 0 -143 55t-56 167v311h160v-308q0 -54 19.5 -78.5t48.5 -24.5q13 0 30 2t25 3l6 -114q-13 -5 -36.5 -9t-53.5 -4z" />
    <glyph glyph-name="uni039B" unicode="&#x39b;" horiz-adv-x="1848" 
d="M275 0h-196l745 2048h200l745 -2048h-196l-642 1805h-14z" />
    <glyph glyph-name="uni00C6" unicode="&#xc6;" horiz-adv-x="2759" 
d="M79 0l1009 2048h1460v-168h-1001v-771h938v-168h-938v-773h1021v-168h-1208v1880h-165l-911 -1880h-205zM503 617v168h952v-168h-952z" />
    <glyph glyph-name="uni01E2" unicode="&#x1e2;" horiz-adv-x="2759" 
d="M79 0l1009 2048h1460v-168h-1001v-771h938v-168h-938v-773h1021v-168h-1208v1880h-165l-911 -1880h-205zM503 617v168h952v-168h-952zM2208 2515v-155h-837v155h837z" />
    <glyph glyph-name="uni01FC" unicode="&#x1fc;" horiz-adv-x="2759" 
d="M79 0l1009 2048h1460v-168h-1001v-771h938v-168h-938v-773h1021v-168h-1208v1880h-165l-911 -1880h-205zM503 617v168h952v-168h-952zM1706 2261l256 454h211l-307 -454h-160z" />
    <glyph glyph-name="uni04D4" unicode="&#x4d4;" horiz-adv-x="2759" 
d="M79 0l1009 2048h1460v-168h-1001v-771h938v-168h-938v-773h1021v-168h-1208v1880h-165l-911 -1880h-205zM503 617v168h952v-168h-952z" />
    <glyph glyph-name="uni0042" unicode="B" horiz-adv-x="1823" 
d="M272 0v2048h691q200 0 333.5 -70t200.5 -191t67 -275q0 -128 -43 -219t-117 -147t-165 -81v-16q99 -7 192 -69.5t153 -174.5t60 -268q0 -155 -69 -276.5t-211.5 -191t-362.5 -69.5h-729zM459 168h542q237 0 350.5 105t113.5 264q0 117 -56.5 212.5t-159 151.5t-240.5 56
h-550v-789zM459 1123h521q121 0 212 50t142 138t51 201q0 163 -106 265.5t-316 102.5h-504v-757z" />
    <glyph glyph-name="uni1E02" unicode="&#x1e02;" horiz-adv-x="1823" 
d="M272 0v2048h691q200 0 333.5 -70t200.5 -191t67 -275q0 -128 -43 -219t-117 -147t-165 -81v-16q99 -7 192 -69.5t153 -174.5t60 -268q0 -155 -69 -276.5t-211.5 -191t-362.5 -69.5h-729zM459 168h542q237 0 350.5 105t113.5 264q0 117 -56.5 212.5t-159 151.5t-240.5 56
h-550v-789zM459 1123h521q121 0 212 50t142 138t51 201q0 163 -106 265.5t-316 102.5h-504v-757zM868 2312q-54 0 -93.5 37.5t-39.5 90.5t39.5 90.5t93.5 37.5q55 0 94.5 -37.5t39.5 -90.5t-39.5 -90.5t-94.5 -37.5z" />
    <glyph glyph-name="uni1E04" unicode="&#x1e04;" horiz-adv-x="1823" 
d="M272 0v2048h691q200 0 333.5 -70t200.5 -191t67 -275q0 -128 -43 -219t-117 -147t-165 -81v-16q99 -7 192 -69.5t153 -174.5t60 -268q0 -155 -69 -276.5t-211.5 -191t-362.5 -69.5h-729zM459 168h542q237 0 350.5 105t113.5 264q0 117 -56.5 212.5t-159 151.5t-240.5 56
h-550v-789zM459 1123h521q121 0 212 50t142 138t51 201q0 163 -106 265.5t-316 102.5h-504v-757zM884 -491q-54 0 -93.5 37.5t-39.5 90.5t39.5 90.5t93.5 37.5q55 0 94.5 -37.5t39.5 -90.5t-39.5 -90.5t-94.5 -37.5z" />
    <glyph glyph-name="uni1E06" unicode="&#x1e06;" horiz-adv-x="1823" 
d="M272 0v2048h691q200 0 333.5 -70t200.5 -191t67 -275q0 -128 -43 -219t-117 -147t-165 -81v-16q99 -7 192 -69.5t153 -174.5t60 -268q0 -155 -69 -276.5t-211.5 -191t-362.5 -69.5h-729zM459 168h542q237 0 350.5 105t113.5 264q0 117 -56.5 212.5t-159 151.5t-240.5 56
h-550v-789zM459 1123h521q121 0 212 50t142 138t51 201q0 163 -106 265.5t-316 102.5h-504v-757zM1302 -264v-155h-837v155h837z" />
    <glyph glyph-name="uni0243" unicode="&#x243;" horiz-adv-x="1971" 
d="M421 0v2048h691q200 0 333.5 -70t200.5 -191t67 -275q0 -128 -43 -219t-117 -147t-165 -81v-16q99 -7 192 -69.5t153 -174.5t60 -268q0 -155 -69 -276.5t-211.5 -191t-362.5 -69.5h-729zM608 168h542q237 0 350.5 105t113.5 264q0 117 -56.5 212.5t-159 151.5t-240.5 56
h-550v-789zM608 1123h521q121 0 212 50t142 138t51 201q0 163 -106 265.5t-316 102.5h-504v-757zM97 512v144h840v-144h-840z" />
    <glyph glyph-name="uni0181" unicode="&#x181;" horiz-adv-x="2200" 
d="M704 1880h-189q-79 0 -120.5 -32.5t-56 -89t-14.5 -130.5v-63h-176v115q0 106 42 189t122.5 131t198.5 48h193v-168zM649 0v2048h691q200 0 333.5 -70t200.5 -191t67 -275q0 -128 -43 -219t-116.5 -147t-165.5 -81v-16q100 -7 193 -69.5t152.5 -174.5t59.5 -268
q0 -155 -68.5 -276.5t-211 -191t-362.5 -69.5h-730zM836 168h543q237 0 350.5 105t113.5 264q0 117 -57 212.5t-159.5 151.5t-239.5 56h-551v-789zM836 1123h521q122 0 213 50t142 138t51 201q0 163 -106 265.5t-317 102.5h-504v-757z" />
    <glyph glyph-name="uni0412" unicode="&#x412;" horiz-adv-x="1823" 
d="M272 0v2048h691q200 0 333.5 -70t200.5 -191t67 -275q0 -128 -43 -219t-117 -147t-165 -81v-16q99 -7 192 -69.5t153 -174.5t60 -268q0 -155 -69 -276.5t-211.5 -191t-362.5 -69.5h-729zM459 168h542q237 0 350.5 105t113.5 264q0 117 -56.5 212.5t-159 151.5t-240.5 56
h-550v-789zM459 1123h521q121 0 212 50t142 138t51 201q0 163 -106 265.5t-316 102.5h-504v-757z" />
    <glyph glyph-name="uni0392" unicode="&#x392;" horiz-adv-x="1823" 
d="M272 0v2048h691q200 0 333.5 -70t200.5 -191t67 -275q0 -128 -43 -219t-117 -147t-165 -81v-16q99 -7 192 -69.5t153 -174.5t60 -268q0 -155 -69 -276.5t-211.5 -191t-362.5 -69.5h-729zM459 168h542q237 0 350.5 105t113.5 264q0 117 -56.5 212.5t-159 151.5t-240.5 56
h-550v-789zM459 1123h521q121 0 212 50t142 138t51 201q0 163 -106 265.5t-316 102.5h-504v-757z" />
    <glyph glyph-name="uni0043" unicode="C" horiz-adv-x="2044" 
d="M1876 1408h-188q-21 105 -75.5 194.5t-136.5 156.5t-186 104t-225 37q-194 0 -353.5 -101t-255 -296.5t-95.5 -478.5q0 -285 95.5 -480t255 -295.5t353.5 -100.5q121 0 225 37t186 103.5t136.5 156.5t75.5 195h188q-25 -141 -93.5 -262.5t-174 -212.5t-242.5 -142
t-301 -51q-258 0 -458 129.5t-313.5 365.5t-113.5 557t113.5 557t313.5 365.5t458 129.5q164 0 301 -50.5t242.5 -142t174 -212.5t93.5 -263z" />
    <glyph glyph-name="uni0187" unicode="&#x187;" horiz-adv-x="2110" 
d="M1876 1408h-179v284q0 122 44.5 205t122.5 125.5t179 42.5q29 0 58 -1t50 -8v-155q-14 3 -31.5 5t-36.5 2q-63 0 -109.5 -20t-72 -67.5t-25.5 -128.5v-284zM1876 1408h-188q-21 105 -75.5 194.5t-136.5 156.5t-186 104t-225 37q-194 0 -353.5 -101t-255 -296.5
t-95.5 -478.5q0 -285 95.5 -480t255 -295.5t353.5 -100.5q121 0 225 37t186 103.5t136.5 156.5t75.5 195h188q-25 -141 -93.5 -262.5t-174 -212.5t-242.5 -142t-301 -51q-258 0 -458 129.5t-313.5 365.5t-113.5 557t113.5 557t313.5 365.5t458 129.5q164 0 301 -50.5
t242.5 -142t174 -212.5t93.5 -263z" />
    <glyph glyph-name="uni00C7" unicode="&#xc7;" horiz-adv-x="2044" 
d="M1876 1408h-188q-21 105 -75.5 194.5t-136.5 156.5t-186 104t-225 37q-194 0 -353.5 -101t-255 -296.5t-95.5 -478.5q0 -285 95.5 -480t255 -295.5t353.5 -100.5q121 0 225 37t186 103.5t136.5 156.5t75.5 195h188q-25 -141 -93.5 -262.5t-174 -212.5t-242.5 -142
t-301 -51q-258 0 -458 129.5t-313.5 365.5t-113.5 557t113.5 557t313.5 365.5t458 129.5q164 0 301 -50.5t242.5 -142t174 -212.5t93.5 -263zM985 -3h152l-15 -80q86 -13 146.5 -69.5t61.5 -165.5q-1 -121 -94.5 -192t-275.5 -73l-6 125q99 2 156 33.5t57 101.5
q0 75 -52.5 106t-165.5 37z" />
    <glyph glyph-name="uni0106" unicode="&#x106;" horiz-adv-x="2044" 
d="M1876 1408h-188q-21 105 -75.5 194.5t-136.5 156.5t-186 104t-225 37q-194 0 -353.5 -101t-255 -296.5t-95.5 -478.5q0 -285 95.5 -480t255 -295.5t353.5 -100.5q121 0 225 37t186 103.5t136.5 156.5t75.5 195h188q-25 -141 -93.5 -262.5t-174 -212.5t-242.5 -142
t-301 -51q-258 0 -458 129.5t-313.5 365.5t-113.5 557t113.5 557t313.5 365.5t458 129.5q164 0 301 -50.5t242.5 -142t174 -212.5t93.5 -263zM982 2261l256 454h211l-307 -454h-160z" />
    <glyph glyph-name="uni0108" unicode="&#x108;" horiz-adv-x="2044" 
d="M1876 1408h-188q-21 105 -75.5 194.5t-136.5 156.5t-186 104t-225 37q-194 0 -353.5 -101t-255 -296.5t-95.5 -478.5q0 -285 95.5 -480t255 -295.5t353.5 -100.5q121 0 225 37t186 103.5t136.5 156.5t75.5 195h188q-25 -141 -93.5 -262.5t-174 -212.5t-242.5 -142
t-301 -51q-258 0 -458 129.5t-313.5 365.5t-113.5 557t113.5 557t313.5 365.5t458 129.5q164 0 301 -50.5t242.5 -142t174 -212.5t93.5 -263zM826 2224h-174v13l338 403h150l338 -403v-13h-174l-239 289z" />
    <glyph glyph-name="uni010A" unicode="&#x10a;" horiz-adv-x="2044" 
d="M1876 1408h-188q-21 105 -75.5 194.5t-136.5 156.5t-186 104t-225 37q-194 0 -353.5 -101t-255 -296.5t-95.5 -478.5q0 -285 95.5 -480t255 -295.5t353.5 -100.5q121 0 225 37t186 103.5t136.5 156.5t75.5 195h188q-25 -141 -93.5 -262.5t-174 -212.5t-242.5 -142
t-301 -51q-258 0 -458 129.5t-313.5 365.5t-113.5 557t113.5 557t313.5 365.5t458 129.5q164 0 301 -50.5t242.5 -142t174 -212.5t93.5 -263zM1065 2312q-54 0 -93.5 37.5t-39.5 90.5t39.5 90.5t93.5 37.5q55 0 94.5 -37.5t39.5 -90.5t-39.5 -90.5t-94.5 -37.5z" />
    <glyph glyph-name="uni010C" unicode="&#x10c;" horiz-adv-x="2044" 
d="M1876 1408h-188q-21 105 -75.5 194.5t-136.5 156.5t-186 104t-225 37q-194 0 -353.5 -101t-255 -296.5t-95.5 -478.5q0 -285 95.5 -480t255 -295.5t353.5 -100.5q121 0 225 37t186 103.5t136.5 156.5t75.5 195h188q-25 -141 -93.5 -262.5t-174 -212.5t-242.5 -142
t-301 -51q-258 0 -458 129.5t-313.5 365.5t-113.5 557t113.5 557t313.5 365.5t458 129.5q164 0 301 -50.5t242.5 -142t174 -212.5t93.5 -263zM826 2658l239 -290l239 290h174v-14l-338 -402h-150l-338 402v14h174z" />
    <glyph glyph-name="uni1E08" unicode="&#x1e08;" horiz-adv-x="2044" 
d="M1876 1408h-188q-21 105 -75.5 194.5t-136.5 156.5t-186 104t-225 37q-194 0 -353.5 -101t-255 -296.5t-95.5 -478.5q0 -285 95.5 -480t255 -295.5t353.5 -100.5q121 0 225 37t186 103.5t136.5 156.5t75.5 195h188q-25 -141 -93.5 -262.5t-174 -212.5t-242.5 -142
t-301 -51q-258 0 -458 129.5t-313.5 365.5t-113.5 557t113.5 557t313.5 365.5t458 129.5q164 0 301 -50.5t242.5 -142t174 -212.5t93.5 -263zM985 -3h152l-15 -80q86 -13 146.5 -69.5t61.5 -165.5q-1 -121 -94.5 -192t-275.5 -73l-6 125q99 2 156 33.5t57 101.5
q0 75 -52.5 106t-165.5 37zM982 2261l256 454h211l-307 -454h-160z" />
    <glyph glyph-name="uni023B" unicode="&#x23b;" horiz-adv-x="2044" 
d="M477 -260l940 2568h175l-940 -2568h-175zM1876 1408h-188q-21 105 -75.5 194.5t-136.5 156.5t-186 104t-225 37q-194 0 -353.5 -101t-255 -296.5t-95.5 -478.5q0 -285 95.5 -480t255 -295.5t353.5 -100.5q121 0 225 37t186 103.5t136.5 156.5t75.5 195h188
q-25 -141 -93.5 -262.5t-174 -212.5t-242.5 -142t-301 -51q-258 0 -458 129.5t-313.5 365.5t-113.5 557t113.5 557t313.5 365.5t458 129.5q164 0 301 -50.5t242.5 -142t174 -212.5t93.5 -263z" />
    <glyph glyph-name="uni0186" unicode="&#x186;" horiz-adv-x="2044" 
d="M168 1408q26 142 94 263t173.5 212.5t243 142t300.5 50.5q258 0 458 -129.5t313.5 -365.5t113.5 -557t-113.5 -557t-313.5 -365.5t-458 -129.5q-163 0 -300.5 51t-243 142t-173.5 212.5t-94 262.5h188q22 -105 76 -195t136 -156.5t186 -103.5t225 -37q194 0 353.5 100.5
t255 295.5t95.5 480q0 283 -95.5 478.5t-255 296.5t-353.5 101q-121 0 -225 -37t-186 -104t-136 -156.5t-76 -194.5h-188z" />
    <glyph glyph-name="uni03F9" unicode="&#x3f9;" horiz-adv-x="2044" 
d="M1876 1408h-188q-21 105 -75.5 194.5t-136.5 156.5t-186 104t-225 37q-194 0 -353.5 -101t-255 -296.5t-95.5 -478.5q0 -285 95.5 -480t255 -295.5t353.5 -100.5q121 0 225 37t186 103.5t136.5 156.5t75.5 195h188q-25 -141 -93.5 -262.5t-174 -212.5t-242.5 -142
t-301 -51q-258 0 -458 129.5t-313.5 365.5t-113.5 557t113.5 557t313.5 365.5t458 129.5q164 0 301 -50.5t242.5 -142t174 -212.5t93.5 -263z" />
    <glyph glyph-name="uni0044" unicode="D" horiz-adv-x="2020" 
d="M872 0h-600v2048h636q293 0 501.5 -122t319.5 -350t111 -547q0 -322 -113.5 -552.5t-330 -353.5t-524.5 -123zM459 168h402q264 0 442 104t267 297t89 460q-1 265 -87.5 456t-256 293t-418.5 102h-438v-1712z" />
    <glyph glyph-name="uni018A" unicode="&#x18a;" horiz-adv-x="2416" 
d="M148 1565v115q0 106 42 189t122.5 131t198.5 48h200v-168h-196q-79 0 -120.5 -32.5t-56 -89t-14.5 -130.5v-63h-176zM1268 0h-600v2048h636q293 0 501.5 -122t319.5 -350t111 -547q0 -322 -113.5 -552.5t-330 -353.5t-524.5 -123zM855 168h402q264 0 442 104t267 297
t89 460q-1 265 -87.5 456t-256 293t-418.5 102h-438v-1712z" />
    <glyph glyph-name="uni010E" unicode="&#x10e;" horiz-adv-x="2020" 
d="M872 0h-600v2048h636q293 0 501.5 -122t319.5 -350t111 -547q0 -322 -113.5 -552.5t-330 -353.5t-524.5 -123zM459 168h402q264 0 442 104t267 297t89 460q-1 265 -87.5 456t-256 293t-418.5 102h-438v-1712zM616 2658l239 -290l239 290h174v-14l-338 -402h-150l-338 402
v14h174z" />
    <glyph glyph-name="uni1E0A" unicode="&#x1e0a;" horiz-adv-x="2020" 
d="M872 0h-600v2048h636q293 0 501.5 -122t319.5 -350t111 -547q0 -322 -113.5 -552.5t-330 -353.5t-524.5 -123zM459 168h402q264 0 442 104t267 297t89 460q-1 265 -87.5 456t-256 293t-418.5 102h-438v-1712zM854 2312q-54 0 -93.5 37.5t-39.5 90.5t39.5 90.5t93.5 37.5
q55 0 94.5 -37.5t39.5 -90.5t-39.5 -90.5t-94.5 -37.5z" />
    <glyph glyph-name="uni1E0C" unicode="&#x1e0c;" horiz-adv-x="2020" 
d="M872 0h-600v2048h636q293 0 501.5 -122t319.5 -350t111 -547q0 -322 -113.5 -552.5t-330 -353.5t-524.5 -123zM459 168h402q264 0 442 104t267 297t89 460q-1 265 -87.5 456t-256 293t-418.5 102h-438v-1712zM841 -491q-54 0 -93.5 37.5t-39.5 90.5t39.5 90.5t93.5 37.5
q55 0 94.5 -37.5t39.5 -90.5t-39.5 -90.5t-94.5 -37.5z" />
    <glyph glyph-name="uni1E0E" unicode="&#x1e0e;" horiz-adv-x="2020" 
d="M872 0h-600v2048h636q293 0 501.5 -122t319.5 -350t111 -547q0 -322 -113.5 -552.5t-330 -353.5t-524.5 -123zM459 168h402q264 0 442 104t267 297t89 460q-1 265 -87.5 456t-256 293t-418.5 102h-438v-1712zM1259 -264v-155h-837v155h837z" />
    <glyph glyph-name="uni1E10" unicode="&#x1e10;" horiz-adv-x="2020" 
d="M872 0h-600v2048h636q293 0 501.5 -122t319.5 -350t111 -547q0 -322 -113.5 -552.5t-330 -353.5t-524.5 -123zM459 168h402q264 0 442 104t267 297t89 460q-1 265 -87.5 456t-256 293t-418.5 102h-438v-1712zM628 -680l119 518h185l-164 -518h-140z" />
    <glyph glyph-name="uni1E12" unicode="&#x1e12;" horiz-adv-x="2020" 
d="M872 0h-600v2048h636q293 0 501.5 -122t319.5 -350t111 -547q0 -322 -113.5 -552.5t-330 -353.5t-524.5 -123zM459 168h402q264 0 442 104t267 297t89 460q-1 265 -87.5 456t-256 293t-418.5 102h-438v-1712zM602 -555h-174v13l338 403h150l338 -403v-13h-174l-239 289z
" />
    <glyph glyph-name="uni0189" unicode="&#x189;" horiz-adv-x="2020" 
d="M872 0h-600v2048h636q293 0 501.5 -122t319.5 -350t111 -547q0 -322 -113.5 -552.5t-330 -353.5t-524.5 -123zM459 168h402q264 0 442 104t267 297t89 460q-1 265 -87.5 456t-256 293t-418.5 102h-438v-1712zM-55 979v144h840v-144h-840z" />
    <glyph glyph-name="uni01F2" unicode="&#x1f2;" horiz-adv-x="3513" 
d="M872 0h-600v2048h636q293 0 501.5 -122t319.5 -350t111 -547q0 -322 -113.5 -552.5t-330 -353.5t-524.5 -123zM459 168h402q264 0 442 104t267 297t89 460q-1 265 -87.5 456t-256 293t-418.5 102h-438v-1712zM2207 0v141l888 1214v13h-850v168h1079v-147l-872 -1208v-13
h904v-168h-1149z" />
    <glyph glyph-name="uni01C5" unicode="&#x1c5;" horiz-adv-x="3513" 
d="M872 0h-600v2048h636q293 0 501.5 -122t319.5 -350t111 -547q0 -322 -113.5 -552.5t-330 -353.5t-524.5 -123zM459 168h402q264 0 442 104t267 297t89 460q-1 265 -87.5 456t-256 293t-418.5 102h-438v-1712zM2207 0v141l888 1214v13h-850v168h1079v-147l-872 -1208v-13
h904v-168h-1149zM2526 2146l239 -290l239 290h174v-14l-338 -402h-150l-338 402v14h174z" />
    <glyph glyph-name="uni0045" unicode="E" horiz-adv-x="1671" 
d="M272 0v2048h1188v-168h-1001v-771h938v-168h-938v-773h1021v-168h-1208z" />
    <glyph glyph-name="uni00C8" unicode="&#xc8;" horiz-adv-x="1671" 
d="M272 0v2048h1188v-168h-1001v-771h938v-168h-938v-773h1021v-168h-1208zM790 2261l-307 454h211l256 -454h-160z" />
    <glyph glyph-name="uni00C9" unicode="&#xc9;" horiz-adv-x="1671" 
d="M272 0v2048h1188v-168h-1001v-771h938v-168h-938v-773h1021v-168h-1208zM783 2261l256 454h211l-307 -454h-160z" />
    <glyph glyph-name="uni00CA" unicode="&#xca;" horiz-adv-x="1671" 
d="M272 0v2048h1188v-168h-1001v-771h938v-168h-938v-773h1021v-168h-1208zM628 2224h-174v13l338 403h150l338 -403v-13h-174l-239 289z" />
    <glyph glyph-name="uni00CB" unicode="&#xcb;" horiz-adv-x="1671" 
d="M272 0v2048h1188v-168h-1001v-771h938v-168h-938v-773h1021v-168h-1208zM611 2312q-51 0 -89.5 38.5t-38.5 89.5q0 55 38.5 91.5t89.5 36.5q55 0 91.5 -36.5t36.5 -91.5q0 -51 -36.5 -89.5t-91.5 -38.5zM1123 2312q-51 0 -89.5 38.5t-38.5 89.5q0 55 38.5 91.5t89.5 36.5
q55 0 91.5 -36.5t36.5 -91.5q0 -51 -36.5 -89.5t-91.5 -38.5z" />
    <glyph glyph-name="uni0112" unicode="&#x112;" horiz-adv-x="1671" 
d="M272 0v2048h1188v-168h-1001v-771h938v-168h-938v-773h1021v-168h-1208zM1285 2515v-155h-837v155h837z" />
    <glyph glyph-name="uni0114" unicode="&#x114;" horiz-adv-x="1671" 
d="M272 0v2048h1188v-168h-1001v-771h938v-168h-938v-773h1021v-168h-1208zM1051 2560h168q0 -143 -94.5 -232t-257.5 -89q-161 0 -255 89t-94 232h168q0 -78 42.5 -131.5t138.5 -53.5t140 53.5t44 131.5z" />
    <glyph glyph-name="uni0116" unicode="&#x116;" horiz-adv-x="1671" 
d="M272 0v2048h1188v-168h-1001v-771h938v-168h-938v-773h1021v-168h-1208zM866 2312q-54 0 -93.5 37.5t-39.5 90.5t39.5 90.5t93.5 37.5q55 0 94.5 -37.5t39.5 -90.5t-39.5 -90.5t-94.5 -37.5z" />
    <glyph glyph-name="uni0118" unicode="&#x118;" horiz-adv-x="1671" 
d="M272 0v2048h1188v-168h-1001v-771h938v-168h-938v-773h1021v-168h-1208zM1338 -603q-116 0 -192 65t-76 189q0 74 33.5 144t103 135.5t179.5 125.5l94 -56q-95 -78 -161.5 -157t-66.5 -170q0 -60 30.5 -90.5t95.5 -30.5q45 0 79.5 12.5t60.5 28.5l23 -134
q-36 -25 -86.5 -43.5t-116.5 -18.5z" />
    <glyph glyph-name="uni011A" unicode="&#x11a;" horiz-adv-x="1671" 
d="M272 0v2048h1188v-168h-1001v-771h938v-168h-938v-773h1021v-168h-1208zM628 2658l239 -290l239 290h174v-14l-338 -402h-150l-338 402v14h174z" />
    <glyph glyph-name="uni0204" unicode="&#x204;" horiz-adv-x="1671" 
d="M272 0v2048h1188v-168h-1001v-771h938v-168h-938v-773h1021v-168h-1208zM619 2261l-325 454h223l262 -454h-160zM975 2261l-247 454h226l180 -454h-159z" />
    <glyph glyph-name="uni0206" unicode="&#x206;" horiz-adv-x="1671" 
d="M272 0v2048h1188v-168h-1001v-771h938v-168h-938v-773h1021v-168h-1208zM517 2338q0 144 94.5 234t257.5 90t256 -90t93 -234h-168q0 81 -43.5 134.5t-137.5 53.5q-98 0 -141 -54.5t-43 -133.5h-168z" />
    <glyph glyph-name="uni0228" unicode="&#x228;" horiz-adv-x="1671" 
d="M272 0v2048h1188v-168h-1001v-771h938v-168h-938v-773h1021v-168h-1208zM761 8h152l-15 -80q86 -13 146.5 -69.5t61.5 -165.5q-1 -121 -94.5 -192t-275.5 -73l-6 125q99 2 156 33.5t57 101.5q0 75 -52.5 106t-165.5 37z" />
    <glyph glyph-name="uni1E14" unicode="&#x1e14;" horiz-adv-x="1671" 
d="M272 0v2048h1188v-168h-1001v-771h938v-168h-938v-773h1021v-168h-1208zM787 2603l-311 288h220l279 -288h-188zM1285 2448v-155h-837v155h837z" />
    <glyph glyph-name="uni1E16" unicode="&#x1e16;" horiz-adv-x="1671" 
d="M272 0v2048h1188v-168h-1001v-771h938v-168h-938v-773h1021v-168h-1208zM759 2603l279 288h220l-311 -288h-188zM1285 2448v-155h-837v155h837z" />
    <glyph glyph-name="uni1E18" unicode="&#x1e18;" horiz-adv-x="1671" 
d="M272 0v2048h1188v-168h-1001v-771h938v-168h-938v-773h1021v-168h-1208zM598 -555h-174v13l338 403h150l338 -403v-13h-174l-239 289z" />
    <glyph glyph-name="uni1E1A" unicode="&#x1e1a;" horiz-adv-x="1671" 
d="M272 0v2048h1188v-168h-1001v-771h938v-168h-938v-773h1021v-168h-1208zM553 -466l-144 8q5 133 88 218t203 85q61 0 107 -21.5t86.5 -49t83 -48.5t96.5 -21q61 0 106.5 44t51.5 109l141 -16q-7 -134 -90.5 -214.5t-200.5 -80.5q-67 0 -112.5 21.5t-82 49t-78 48.5
t-100.5 21q-64 0 -107.5 -44t-47.5 -109z" />
    <glyph glyph-name="uni1E1C" unicode="&#x1e1c;" horiz-adv-x="1671" 
d="M272 0v2048h1188v-168h-1001v-771h938v-168h-938v-773h1021v-168h-1208zM761 8h152l-15 -80q86 -13 146.5 -69.5t61.5 -165.5q-1 -121 -94.5 -192t-275.5 -73l-6 125q99 2 156 33.5t57 101.5q0 75 -52.5 106t-165.5 37zM1051 2560h168q0 -143 -94.5 -232t-257.5 -89
q-161 0 -255 89t-94 232h168q0 -78 42.5 -131.5t138.5 -53.5t140 53.5t44 131.5z" />
    <glyph glyph-name="uni1EB8" unicode="&#x1eb8;" horiz-adv-x="1671" 
d="M272 0v2048h1188v-168h-1001v-771h938v-168h-938v-773h1021v-168h-1208zM837 -491q-54 0 -93.5 37.5t-39.5 90.5t39.5 90.5t93.5 37.5q55 0 94.5 -37.5t39.5 -90.5t-39.5 -90.5t-94.5 -37.5z" />
    <glyph glyph-name="uni1EBA" unicode="&#x1eba;" horiz-adv-x="1671" 
d="M272 0v2048h1188v-168h-1001v-771h938v-168h-938v-773h1021v-168h-1208zM946 2252h-152v209q109 6 153 33t44 85q0 66 -61.5 96.5t-163.5 31.5l9 122q189 0 284.5 -69t95.5 -184q0 -100 -62.5 -150.5t-146.5 -60.5v-113z" />
    <glyph glyph-name="uni1EBC" unicode="&#x1ebc;" horiz-adv-x="1671" 
d="M272 0v2048h1188v-168h-1001v-771h938v-168h-938v-773h1021v-168h-1208zM529 2260l-144 8q5 133 88 218t203 85q61 0 107 -21.5t86.5 -49t83 -48.5t96.5 -21q61 0 106.5 44t51.5 109l141 -16q-7 -134 -90.5 -214.5t-200.5 -80.5q-67 0 -112.5 21.5t-82 49t-78 48.5
t-100.5 21q-64 0 -107.5 -44t-47.5 -109z" />
    <glyph glyph-name="uni1EBE" unicode="&#x1ebe;" horiz-adv-x="1671" 
d="M272 0v2048h1188v-168h-1001v-771h938v-168h-938v-773h1021v-168h-1208zM530 2380l397 115h119l172 -140l-292 -103l-180 142l-27 -14h-189zM1266 2498l210 357h222l-272 -357h-160z" />
    <glyph glyph-name="uni1EC0" unicode="&#x1ec0;" horiz-adv-x="1671" 
d="M272 0v2048h1188v-168h-1001v-771h938v-168h-938v-773h1021v-168h-1208zM943 2637l397 -370h-220l-252 244l-252 -244h-220l395 370h152zM277 2872l201 -360h-157l-268 360h224z" />
    <glyph glyph-name="uni1EC2" unicode="&#x1ec2;" horiz-adv-x="1671" 
d="M272 0v2048h1188v-168h-1001v-771h938v-168h-938v-773h1021v-168h-1208zM962 2589l379 -371h-193l-282 271l-278 -271h-194l379 371h189zM1398 2412h-134v176q94 7 136 28.5t42 72.5q0 58 -55.5 84t-150.5 27l9 109q171 0 256.5 -61t86.5 -159q0 -87 -56.5 -132
t-133.5 -54v-91z" />
    <glyph glyph-name="uni1EC4" unicode="&#x1ec4;" horiz-adv-x="1671" 
d="M272 0v2048h1188v-168h-1001v-771h938v-168h-938v-773h1021v-168h-1208zM923 2534l406 -352h-194l-278 244l-279 -244h-193l405 352h133zM1128 2877l96 -24q-5 -87 -71 -151t-156 -64q-53 0 -90 18t-66 41.5t-59.5 41.5t-72.5 18q-46 0 -86.5 -34.5t-44.5 -84.5l-93 22
q5 87 69.5 152t153.5 65q46 0 82 -17.5t67.5 -40t65 -40.5t74.5 -18q46 0 86.5 33.5t44.5 82.5z" />
    <glyph glyph-name="uni1EC6" unicode="&#x1ec6;" horiz-adv-x="1671" 
d="M272 0v2048h1188v-168h-1001v-771h938v-168h-938v-773h1021v-168h-1208zM628 2224h-174v13l338 403h150l338 -403v-13h-174l-239 289zM837 -491q-54 0 -93.5 37.5t-39.5 90.5t39.5 90.5t93.5 37.5q55 0 94.5 -37.5t39.5 -90.5t-39.5 -90.5t-94.5 -37.5z" />
    <glyph glyph-name="uni0246" unicode="&#x246;" horiz-adv-x="1671" 
d="M1376 2308l-741 -2568h-172l741 2568h172zM272 0v2048h1188v-168h-1001v-771h938v-168h-938v-773h1021v-168h-1208z" />
    <glyph glyph-name="uni018E" unicode="&#x18e;" horiz-adv-x="1649" 
d="M1400 2048v-2048h-1188v168h1001v771h-938v168h938v773h-1021v168h1208z" />
    <glyph glyph-name="uni0395" unicode="&#x395;" horiz-adv-x="1671" 
d="M272 0v2048h1188v-168h-1001v-771h938v-168h-938v-773h1021v-168h-1208z" />
    <glyph glyph-name="uni0388" unicode="&#x388;" horiz-adv-x="1856" 
d="M457 0v2048h1188v-168h-1001v-771h938v-168h-938v-773h1021v-168h-1208zM94 1704l58 465h198l-131 -465h-125z" />
    <glyph glyph-name="uni1F18" unicode="&#x1f18;" horiz-adv-x="2009" 
d="M611 0v2048h1188v-168h-1001v-771h938v-168h-938v-773h1021v-168h-1208zM432 2048v-92q0 -83 -24.5 -154t-75 -132t-128.5 -115l-88 64q47 53 75.5 104.5t41 109.5t12.5 131v84h187z" />
    <glyph glyph-name="uni1F19" unicode="&#x1f19;" horiz-adv-x="1981" 
d="M583 0v2048h1188v-168h-1001v-771h938v-168h-938v-773h1021v-168h-1208zM128 1959v92h186v-84q0 -73 12.5 -131t41 -109.5t75.5 -105.5l-87 -63q-116 80 -172 178t-56 223z" />
    <glyph glyph-name="uni1F1A" unicode="&#x1f1a;" horiz-adv-x="2564" 
d="M1165 0v2048h1188v-168h-1001v-771h938v-168h-938v-773h1021v-168h-1208zM968 1603v-19h-101l-306 439v25h215zM497 2048v-92q0 -83 -24.5 -154t-75.5 -132t-128 -115l-87 64q69 80 99 158t30 187v84h186z" />
    <glyph glyph-name="uni1F1B" unicode="&#x1f1b;" horiz-adv-x="2453" 
d="M1055 0v2048h1188v-168h-1001v-771h938v-168h-938v-773h1021v-168h-1208zM862 1606v-19h-101l-305 439v25h217zM184 1959v92h187v-84q0 -109 29 -187t100 -159l-88 -63q-115 80 -171.5 177.5t-56.5 223.5z" />
    <glyph glyph-name="uni1F1C" unicode="&#x1f1c;" horiz-adv-x="2417" 
d="M1019 0v2048h1188v-168h-1001v-771h938v-168h-938v-773h1021v-168h-1208zM422 1593l88 162l126 296l192 -6l-94 -168l-227 -290zM400 2051v-92q0 -84 -24.5 -155t-75.5 -132t-128 -114l-87 63q69 81 99 159t30 187v84h186z" />
    <glyph glyph-name="uni1F1D" unicode="&#x1f1d;" horiz-adv-x="2468" 
d="M1069 0v2048h1188v-168h-1001v-771h938v-168h-938v-773h1021v-168h-1208zM507 1593l88 162l124 296l194 -6l-94 -168l-227 -290zM143 1959v92h187v-84q0 -109 30 -187t99 -159l-88 -63q-115 80 -171.5 177.5t-56.5 223.5z" />
    <glyph glyph-name="uni1FC8" unicode="&#x1fc8;" horiz-adv-x="2136" 
d="M737 0v2048h1188v-168h-1001v-771h938v-168h-938v-773h1021v-168h-1208zM498 1586l-86 -6l-226 293l-95 168l192 6l127 -296z" />
    <glyph glyph-name="uni1FC9" unicode="&#x1fc9;" horiz-adv-x="2040" 
d="M641 0v2048h1188v-168h-1001v-771h938v-168h-938v-773h1021v-168h-1208zM250 1728v17l185 451h220v-20l-302 -448h-103z" />
    <glyph glyph-name="uni0415" unicode="&#x415;" horiz-adv-x="1671" 
d="M272 0v2048h1188v-168h-1001v-771h938v-168h-938v-773h1021v-168h-1208z" />
    <glyph glyph-name="uni0400" unicode="&#x400;" horiz-adv-x="1671" 
d="M272 0v2048h1188v-168h-1001v-771h938v-168h-938v-773h1021v-168h-1208zM790 2261l-307 454h211l256 -454h-160z" />
    <glyph glyph-name="uni0401" unicode="&#x401;" horiz-adv-x="1671" 
d="M272 0v2048h1188v-168h-1001v-771h938v-168h-938v-773h1021v-168h-1208zM611 2312q-51 0 -89.5 38.5t-38.5 89.5q0 55 38.5 91.5t89.5 36.5q55 0 91.5 -36.5t36.5 -91.5q0 -51 -36.5 -89.5t-91.5 -38.5zM1123 2312q-51 0 -89.5 38.5t-38.5 89.5q0 55 38.5 91.5t89.5 36.5
q55 0 91.5 -36.5t36.5 -91.5q0 -51 -36.5 -89.5t-91.5 -38.5z" />
    <glyph glyph-name="uni04D6" unicode="&#x4d6;" horiz-adv-x="1671" 
d="M272 0v2048h1188v-168h-1001v-771h938v-168h-938v-773h1021v-168h-1208zM1051 2560h168q0 -143 -94.5 -232t-257.5 -89q-161 0 -255 89t-94 232h168q0 -78 42.5 -131.5t138.5 -53.5t140 53.5t44 131.5z" />
    <glyph glyph-name="uni0046" unicode="F" horiz-adv-x="1651" 
d="M272 0v2048h1185v-168h-998v-771h905v-168h-905v-941h-187z" />
    <glyph glyph-name="uni0191" unicode="&#x191;" horiz-adv-x="1629" 
d="M251 0h186v-187q0 -93 -25.5 -165t-76.5 -122t-126 -75.5t-174 -25.5q-16 0 -29 2t-48 9v157q15 -3 34 -5.5t41 -2.5q100 0 159 52.5t59 178.5v184zM251 0v2048h1185v-168h-999v-771h906v-168h-906v-941h-186z" />
    <glyph glyph-name="uni1E1E" unicode="&#x1e1e;" horiz-adv-x="1651" 
d="M272 0v2048h1185v-168h-998v-771h905v-168h-905v-941h-187zM882 2312q-54 0 -93.5 37.5t-39.5 90.5t39.5 90.5t93.5 37.5q55 0 94.5 -37.5t39.5 -90.5t-39.5 -90.5t-94.5 -37.5z" />
    <glyph glyph-name="uni2132" unicode="&#x2132;" horiz-adv-x="1651" 
d="M1379 2048v-2048h-1186v168h999v771h-905v168h905v941h187z" />
    <glyph glyph-name="uni0047" unicode="G" horiz-adv-x="2088" 
d="M1689 1408q-28 102 -82 191.5t-133.5 157t-183 105.5t-230.5 38q-200 0 -358 -104t-249.5 -300t-91.5 -472q0 -275 92 -471t252.5 -300.5t367.5 -104.5q189 0 334 84t226.5 240t79.5 371l60 -19h-656v168h778v-168q0 -262 -106 -453t-291 -295t-425 -104
q-268 0 -469 129.5t-312.5 366t-111.5 556.5q0 241 64 435t181.5 332t278.5 211.5t356 73.5q168 0 307.5 -53t246 -145.5t175 -213t92.5 -256.5h-192z" />
    <glyph glyph-name="uni01E4" unicode="&#x1e4;" horiz-adv-x="2088" 
d="M2037 603v-155h-920v155h920zM1689 1408q-28 102 -82 191.5t-133.5 157t-183 105.5t-230.5 38q-200 0 -358 -104t-249.5 -300t-91.5 -472q0 -275 92 -471t252.5 -300.5t367.5 -104.5q189 0 334 84t226.5 240t79.5 371l60 -19h-656v168h778v-168q0 -262 -106 -453
t-291 -295t-425 -104q-268 0 -469 129.5t-312.5 366t-111.5 556.5q0 241 64 435t181.5 332t278.5 211.5t356 73.5q168 0 307.5 -53t246 -145.5t175 -213t92.5 -256.5h-192z" />
    <glyph glyph-name="uni0193" unicode="&#x193;" horiz-adv-x="2118" 
d="M1879 1408h-190l8 221q4 92 28 162t67.5 117t108 71t150.5 24q31 0 64 -1.5t60 -8.5v-155q-19 3 -41 5t-43 2q-66 0 -113.5 -20t-73 -67t-25.5 -129v-221zM1689 1408q-28 102 -82 191.5t-133.5 157t-183 105.5t-230.5 38q-200 0 -358 -104t-249.5 -300t-91.5 -472
q0 -275 92 -471t252.5 -300.5t367.5 -104.5q189 0 334 84t226.5 240t79.5 371l60 -19h-656v168h778v-168q0 -262 -106 -453t-291 -295t-425 -104q-268 0 -469 129.5t-312.5 366t-111.5 556.5q0 241 64 435t181.5 332t278.5 211.5t356 73.5q168 0 307.5 -53t246 -145.5
t175 -213t92.5 -256.5h-192z" />
    <glyph glyph-name="uni011C" unicode="&#x11c;" horiz-adv-x="2088" 
d="M1689 1408q-28 102 -82 191.5t-133.5 157t-183 105.5t-230.5 38q-200 0 -358 -104t-249.5 -300t-91.5 -472q0 -275 92 -471t252.5 -300.5t367.5 -104.5q189 0 334 84t226.5 240t79.5 371l60 -19h-656v168h778v-168q0 -262 -106 -453t-291 -295t-425 -104
q-268 0 -469 129.5t-312.5 366t-111.5 556.5q0 241 64 435t181.5 332t278.5 211.5t356 73.5q168 0 307.5 -53t246 -145.5t175 -213t92.5 -256.5h-192zM817 2224h-174v13l338 403h150l338 -403v-13h-174l-239 289z" />
    <glyph glyph-name="uni011E" unicode="&#x11e;" horiz-adv-x="2088" 
d="M1689 1408q-28 102 -82 191.5t-133.5 157t-183 105.5t-230.5 38q-200 0 -358 -104t-249.5 -300t-91.5 -472q0 -275 92 -471t252.5 -300.5t367.5 -104.5q189 0 334 84t226.5 240t79.5 371l60 -19h-656v168h778v-168q0 -262 -106 -453t-291 -295t-425 -104
q-268 0 -469 129.5t-312.5 366t-111.5 556.5q0 241 64 435t181.5 332t278.5 211.5t356 73.5q168 0 307.5 -53t246 -145.5t175 -213t92.5 -256.5h-192zM1240 2560h168q0 -143 -94.5 -232t-257.5 -89q-161 0 -255 89t-94 232h168q0 -78 42.5 -131.5t138.5 -53.5t140 53.5
t44 131.5z" />
    <glyph glyph-name="uni0120" unicode="&#x120;" horiz-adv-x="2088" 
d="M1689 1408q-28 102 -82 191.5t-133.5 157t-183 105.5t-230.5 38q-200 0 -358 -104t-249.5 -300t-91.5 -472q0 -275 92 -471t252.5 -300.5t367.5 -104.5q189 0 334 84t226.5 240t79.5 371l60 -19h-656v168h778v-168q0 -262 -106 -453t-291 -295t-425 -104
q-268 0 -469 129.5t-312.5 366t-111.5 556.5q0 241 64 435t181.5 332t278.5 211.5t356 73.5q168 0 307.5 -53t246 -145.5t175 -213t92.5 -256.5h-192zM1056 2312q-54 0 -93.5 37.5t-39.5 90.5t39.5 90.5t93.5 37.5q55 0 94.5 -37.5t39.5 -90.5t-39.5 -90.5t-94.5 -37.5z" />
    <glyph glyph-name="uni0122" unicode="&#x122;" horiz-adv-x="2088" 
d="M1689 1408q-28 102 -82 191.5t-133.5 157t-183 105.5t-230.5 38q-200 0 -358 -104t-249.5 -300t-91.5 -472q0 -275 92 -471t252.5 -300.5t367.5 -104.5q189 0 334 84t226.5 240t79.5 371l60 -19h-656v168h778v-168q0 -262 -106 -453t-291 -295t-425 -104
q-268 0 -469 129.5t-312.5 366t-111.5 556.5q0 241 64 435t181.5 332t278.5 211.5t356 73.5q168 0 307.5 -53t246 -145.5t175 -213t92.5 -256.5h-192zM840 -680l119 518h185l-164 -518h-140z" />
    <glyph glyph-name="uni01E6" unicode="&#x1e6;" horiz-adv-x="2088" 
d="M1689 1408q-28 102 -82 191.5t-133.5 157t-183 105.5t-230.5 38q-200 0 -358 -104t-249.5 -300t-91.5 -472q0 -275 92 -471t252.5 -300.5t367.5 -104.5q189 0 334 84t226.5 240t79.5 371l60 -19h-656v168h778v-168q0 -262 -106 -453t-291 -295t-425 -104
q-268 0 -469 129.5t-312.5 366t-111.5 556.5q0 241 64 435t181.5 332t278.5 211.5t356 73.5q168 0 307.5 -53t246 -145.5t175 -213t92.5 -256.5h-192zM817 2658l239 -290l239 290h174v-14l-338 -402h-150l-338 402v14h174z" />
    <glyph glyph-name="uni01F4" unicode="&#x1f4;" horiz-adv-x="2088" 
d="M1689 1408q-28 102 -82 191.5t-133.5 157t-183 105.5t-230.5 38q-200 0 -358 -104t-249.5 -300t-91.5 -472q0 -275 92 -471t252.5 -300.5t367.5 -104.5q189 0 334 84t226.5 240t79.5 371l60 -19h-656v168h778v-168q0 -262 -106 -453t-291 -295t-425 -104
q-268 0 -469 129.5t-312.5 366t-111.5 556.5q0 241 64 435t181.5 332t278.5 211.5t356 73.5q168 0 307.5 -53t246 -145.5t175 -213t92.5 -256.5h-192zM973 2261l256 454h211l-307 -454h-160z" />
    <glyph glyph-name="uni1E20" unicode="&#x1e20;" horiz-adv-x="2088" 
d="M1689 1408q-28 102 -82 191.5t-133.5 157t-183 105.5t-230.5 38q-200 0 -358 -104t-249.5 -300t-91.5 -472q0 -275 92 -471t252.5 -300.5t367.5 -104.5q189 0 334 84t226.5 240t79.5 371l60 -19h-656v168h778v-168q0 -262 -106 -453t-291 -295t-425 -104
q-268 0 -469 129.5t-312.5 366t-111.5 556.5q0 241 64 435t181.5 332t278.5 211.5t356 73.5q168 0 307.5 -53t246 -145.5t175 -213t92.5 -256.5h-192zM1474 2515v-155h-837v155h837z" />
    <glyph glyph-name="uniE002" unicode="&#xe002;" horiz-adv-x="2101" 
d="M1073 -28q-268 0 -469 129.5t-312.5 366t-111.5 556.5q0 241 65 435t183.5 332t280.5 211.5t356 73.5q168 0 309 -53t249 -145.5t177.5 -213t94.5 -256.5h-192q-27 102 -82 191.5t-137 157t-187 105.5t-232 38q-199 0 -358.5 -104t-252.5 -300t-93 -472q0 -275 92 -471
t252.5 -300.5t367.5 -104.5q194 0 341.5 87.5t230.5 245.5t82 368l30 -25h-640v168h791v-992h-160l-20 325h-9q-109 -172 -268 -262.5t-378 -90.5z" />
    <glyph glyph-name="uniE003" unicode="&#xe003;" horiz-adv-x="2101" 
d="M2051 603v-155h-934v155h934zM1073 -28q-268 0 -469 129.5t-312.5 366t-111.5 556.5q0 241 65 435t183.5 332t280.5 211.5t356 73.5q168 0 309 -53t249 -145.5t177.5 -213t94.5 -256.5h-192q-27 102 -82 191.5t-137 157t-187 105.5t-232 38q-199 0 -358.5 -104
t-252.5 -300t-93 -472q0 -275 92 -471t252.5 -300.5t367.5 -104.5q194 0 341.5 87.5t230.5 245.5t82 368l30 -25h-640v168h791v-992h-160l-20 325h-9q-109 -172 -268 -262.5t-378 -90.5z" />
    <glyph glyph-name="uniE004" unicode="&#xe004;" horiz-adv-x="2119" 
d="M1895 1408h-190l8 229q4 88 27.5 156t66.5 115t104.5 71t142.5 24q29 0 59 -1.5t54 -8.5v-155q-17 3 -36 5t-37 2q-58 0 -103 -19t-70.5 -64.5t-25.5 -125.5v-228zM1073 -28q-268 0 -469 129.5t-312.5 366t-111.5 556.5q0 241 65 435t183.5 332t280.5 211.5t356 73.5
q168 0 309 -53t249 -145.5t177.5 -213t94.5 -256.5h-192q-27 102 -82 191.5t-137 157t-187 105.5t-232 38q-199 0 -358.5 -104t-252.5 -300t-93 -472q0 -275 92 -471t252.5 -300.5t367.5 -104.5q194 0 341.5 87.5t230.5 245.5t82 368l30 -25h-640v168h791v-992h-160l-20 325
h-9q-109 -172 -268 -262.5t-378 -90.5z" />
    <glyph glyph-name="uniE005" unicode="&#xe005;" horiz-adv-x="2101" 
d="M1073 -28q-268 0 -469 129.5t-312.5 366t-111.5 556.5q0 241 65 435t183.5 332t280.5 211.5t356 73.5q168 0 309 -53t249 -145.5t177.5 -213t94.5 -256.5h-192q-27 102 -82 191.5t-137 157t-187 105.5t-232 38q-199 0 -358.5 -104t-252.5 -300t-93 -472q0 -275 92 -471
t252.5 -300.5t367.5 -104.5q194 0 341.5 87.5t230.5 245.5t82 368l30 -25h-640v168h791v-992h-160l-20 325h-9q-109 -172 -268 -262.5t-378 -90.5zM817 2224h-174v13l338 403h150l338 -403v-13h-174l-239 289z" />
    <glyph glyph-name="uniE006" unicode="&#xe006;" horiz-adv-x="2101" 
d="M1073 -28q-268 0 -469 129.5t-312.5 366t-111.5 556.5q0 241 65 435t183.5 332t280.5 211.5t356 73.5q168 0 309 -53t249 -145.5t177.5 -213t94.5 -256.5h-192q-27 102 -82 191.5t-137 157t-187 105.5t-232 38q-199 0 -358.5 -104t-252.5 -300t-93 -472q0 -275 92 -471
t252.5 -300.5t367.5 -104.5q194 0 341.5 87.5t230.5 245.5t82 368l30 -25h-640v168h791v-992h-160l-20 325h-9q-109 -172 -268 -262.5t-378 -90.5zM1240 2560h168q0 -143 -94.5 -232t-257.5 -89q-161 0 -255 89t-94 232h168q0 -78 42.5 -131.5t138.5 -53.5t140 53.5
t44 131.5z" />
    <glyph glyph-name="uniE007" unicode="&#xe007;" horiz-adv-x="2101" 
d="M1073 -28q-268 0 -469 129.5t-312.5 366t-111.5 556.5q0 241 65 435t183.5 332t280.5 211.5t356 73.5q168 0 309 -53t249 -145.5t177.5 -213t94.5 -256.5h-192q-27 102 -82 191.5t-137 157t-187 105.5t-232 38q-199 0 -358.5 -104t-252.5 -300t-93 -472q0 -275 92 -471
t252.5 -300.5t367.5 -104.5q194 0 341.5 87.5t230.5 245.5t82 368l30 -25h-640v168h791v-992h-160l-20 325h-9q-109 -172 -268 -262.5t-378 -90.5zM1056 2312q-54 0 -93.5 37.5t-39.5 90.5t39.5 90.5t93.5 37.5q55 0 94.5 -37.5t39.5 -90.5t-39.5 -90.5t-94.5 -37.5z" />
    <glyph glyph-name="uniE008" unicode="&#xe008;" horiz-adv-x="2101" 
d="M1073 -28q-268 0 -469 129.5t-312.5 366t-111.5 556.5q0 241 65 435t183.5 332t280.5 211.5t356 73.5q168 0 309 -53t249 -145.5t177.5 -213t94.5 -256.5h-192q-27 102 -82 191.5t-137 157t-187 105.5t-232 38q-199 0 -358.5 -104t-252.5 -300t-93 -472q0 -275 92 -471
t252.5 -300.5t367.5 -104.5q194 0 341.5 87.5t230.5 245.5t82 368l30 -25h-640v168h791v-992h-160l-20 325h-9q-109 -172 -268 -262.5t-378 -90.5zM840 -680l119 518h185l-164 -518h-140z" />
    <glyph glyph-name="uniE009" unicode="&#xe009;" horiz-adv-x="2101" 
d="M1073 -28q-268 0 -469 129.5t-312.5 366t-111.5 556.5q0 241 65 435t183.5 332t280.5 211.5t356 73.5q168 0 309 -53t249 -145.5t177.5 -213t94.5 -256.5h-192q-27 102 -82 191.5t-137 157t-187 105.5t-232 38q-199 0 -358.5 -104t-252.5 -300t-93 -472q0 -275 92 -471
t252.5 -300.5t367.5 -104.5q194 0 341.5 87.5t230.5 245.5t82 368l30 -25h-640v168h791v-992h-160l-20 325h-9q-109 -172 -268 -262.5t-378 -90.5zM817 2658l239 -290l239 290h174v-14l-338 -402h-150l-338 402v14h174z" />
    <glyph glyph-name="uniE00A" unicode="&#xe00a;" horiz-adv-x="2101" 
d="M1073 -28q-268 0 -469 129.5t-312.5 366t-111.5 556.5q0 241 65 435t183.5 332t280.5 211.5t356 73.5q168 0 309 -53t249 -145.5t177.5 -213t94.5 -256.5h-192q-27 102 -82 191.5t-137 157t-187 105.5t-232 38q-199 0 -358.5 -104t-252.5 -300t-93 -472q0 -275 92 -471
t252.5 -300.5t367.5 -104.5q194 0 341.5 87.5t230.5 245.5t82 368l30 -25h-640v168h791v-992h-160l-20 325h-9q-109 -172 -268 -262.5t-378 -90.5zM973 2261l256 454h211l-307 -454h-160z" />
    <glyph glyph-name="uniE00B" unicode="&#xe00b;" horiz-adv-x="2101" 
d="M1073 -28q-268 0 -469 129.5t-312.5 366t-111.5 556.5q0 241 65 435t183.5 332t280.5 211.5t356 73.5q168 0 309 -53t249 -145.5t177.5 -213t94.5 -256.5h-192q-27 102 -82 191.5t-137 157t-187 105.5t-232 38q-199 0 -358.5 -104t-252.5 -300t-93 -472q0 -275 92 -471
t252.5 -300.5t367.5 -104.5q194 0 341.5 87.5t230.5 245.5t82 368l30 -25h-640v168h791v-992h-160l-20 325h-9q-109 -172 -268 -262.5t-378 -90.5zM1474 2515v-155h-837v155h837z" />
    <glyph glyph-name="uni0048" unicode="H" horiz-adv-x="2080" 
d="M272 0v2048h187v-939h1162v939h187v-2048h-187v941h-1162v-941h-187z" />
    <glyph glyph-name="uni1E28" unicode="&#x1e28;" horiz-adv-x="2080" 
d="M272 0v2048h187v-939h1162v939h187v-2048h-187v941h-1162v-941h-187zM307 3h152l-15 -80q86 -13 146.5 -69.5t61.5 -165.5q-1 -121 -94.5 -192t-275.5 -73l-6 125q99 2 156 33.5t57 101.5q0 75 -52.5 106t-165.5 37z" />
    <glyph glyph-name="uni0124" unicode="&#x124;" horiz-adv-x="2080" 
d="M272 0v2048h187v-939h1162v939h187v-2048h-187v941h-1162v-941h-187zM808 2227h-174v13l338 403h150l338 -403v-13h-174l-239 289z" />
    <glyph glyph-name="uni021E" unicode="&#x21e;" horiz-adv-x="2080" 
d="M272 0v2048h187v-939h1162v939h187v-2048h-187v941h-1162v-941h-187zM808 2660l239 -290l239 290h174v-14l-338 -402h-150l-338 402v14h174z" />
    <glyph glyph-name="uni1E22" unicode="&#x1e22;" horiz-adv-x="2080" 
d="M272 0v2048h187v-939h1162v939h187v-2048h-187v941h-1162v-941h-187zM1046 2315q-54 0 -93.5 37.5t-39.5 90.5t39.5 90.5t93.5 37.5q55 0 94.5 -37.5t39.5 -90.5t-39.5 -90.5t-94.5 -37.5z" />
    <glyph glyph-name="uni1E24" unicode="&#x1e24;" horiz-adv-x="2080" 
d="M272 0v2048h187v-939h1162v939h187v-2048h-187v941h-1162v-941h-187zM1038 -491q-54 0 -93.5 37.5t-39.5 90.5t39.5 90.5t93.5 37.5q55 0 94.5 -37.5t39.5 -90.5t-39.5 -90.5t-94.5 -37.5z" />
    <glyph glyph-name="uni1E26" unicode="&#x1e26;" horiz-adv-x="2080" 
d="M272 0v2048h187v-939h1162v939h187v-2048h-187v941h-1162v-941h-187zM791 2315q-51 0 -89.5 38.5t-38.5 89.5q0 55 38.5 91.5t89.5 36.5q55 0 91.5 -36.5t36.5 -91.5q0 -51 -36.5 -89.5t-91.5 -38.5zM1303 2315q-51 0 -89.5 38.5t-38.5 89.5q0 55 38.5 91.5t89.5 36.5
q55 0 91.5 -36.5t36.5 -91.5q0 -51 -36.5 -89.5t-91.5 -38.5z" />
    <glyph glyph-name="uni1E2A" unicode="&#x1e2a;" horiz-adv-x="2080" 
d="M272 0v2048h187v-939h1162v939h187v-2048h-187v941h-1162v-941h-187zM1217 -138h168q0 -97 -42.5 -170t-121 -113.5t-185.5 -40.5q-163 0 -257.5 91t-94.5 233h168q0 -81 43.5 -134.5t137.5 -53.5q96 0 140 54.5t44 133.5z" />
    <glyph glyph-name="uni0126" unicode="&#x126;" horiz-adv-x="2157" 
d="M2009 1572v-160h-1861v160h1861zM312 0v2048h187v-939h1162v939h187v-2048h-187v941h-1162v-941h-187z" />
    <glyph glyph-name="uni04C7" unicode="&#x4c7;" horiz-adv-x="2080" 
d="M1621 0h187v-187q0 -74 -17.5 -135.5t-50 -108.5t-77.5 -79t-100 -48.5t-118 -16.5q-31 0 -62.5 2t-53.5 9v157q14 -3 33.5 -5.5t40.5 -2.5q67 0 116 22.5t75.5 73.5t26.5 135v184zM272 0v2048h187v-939h1162v939h187v-2048h-187v941h-1162v-941h-187z" />
    <glyph glyph-name="uni04A2" unicode="&#x4a2;" horiz-adv-x="2137" 
d="M272 0v2048h187v-939h1162v939h187v-2048h-187v941h-1162v-941h-187zM1970 169v-666h-178v666h178z" />
    <glyph glyph-name="uni04C9" unicode="&#x4c9;" horiz-adv-x="2147" 
d="M272 0v2048h187v-939h1162v939h187v-2048h-187v941h-1162v-941h-187zM1987 123v-156q-1 -79 -16 -155t-43 -149.5t-70 -145.5l-154 34q30 73 53.5 141t37 135t13.5 137v159h179z" />
    <glyph glyph-name="uni04A4" unicode="&#x4a4;" horiz-adv-x="2757" 
d="M2609 2048v-168h-801v-1880h-187v941h-1162v-941h-187v2048h187v-939h1162v939h988z" />
    <glyph glyph-name="uni01F6" unicode="&#x1f6;" horiz-adv-x="3131" 
d="M2265 -29q-190 0 -335.5 73t-227 220.5t-81.5 370.5v306h-1162v-941h-187v2048h187v-939h1162v939h187v-1413q0 -252 120 -371.5t337 -119.5q218 0 331 119.5t113 371.5v914h187v-914q0 -228 -80.5 -375t-223 -218t-327.5 -71z" />
    <glyph glyph-name="uni0397" unicode="&#x397;" horiz-adv-x="2080" 
d="M272 0v2048h187v-939h1162v939h187v-2048h-187v941h-1162v-941h-187z" />
    <glyph glyph-name="uni0389" unicode="&#x389;" horiz-adv-x="2368" 
d="M560 0v2048h187v-939h1162v939h187v-2048h-187v941h-1162v-941h-187zM214 1704l58 465h198l-131 -465h-125z" />
    <glyph glyph-name="uni1F28" unicode="&#x1f28;" horiz-adv-x="2508" 
d="M700 0v2048h187v-939h1162v939h187v-2048h-187v941h-1162v-941h-187zM539 2048v-92q0 -83 -24.5 -154t-75 -132t-128.5 -115l-88 64q47 53 75.5 104.5t41 109.5t12.5 131v84h187z" />
    <glyph glyph-name="uni1F29" unicode="&#x1f29;" horiz-adv-x="2493" 
d="M685 0v2048h187v-939h1162v939h187v-2048h-187v941h-1162v-941h-187zM249 1959v92h186v-84q0 -73 12.5 -131t41 -109.5t75.5 -105.5l-87 -63q-116 80 -172 178t-56 223z" />
    <glyph glyph-name="uni1F2A" unicode="&#x1f2a;" horiz-adv-x="3076" 
d="M1268 0v2048h187v-939h1162v939h187v-2048h-187v941h-1162v-941h-187zM1016 1603v-19h-101l-306 439v25h215zM545 2048v-92q0 -83 -24.5 -154t-75.5 -132t-128 -115l-87 64q69 80 99 158t30 187v84h186z" />
    <glyph glyph-name="uni1F2B" unicode="&#x1f2b;" horiz-adv-x="2965" 
d="M1157 0v2048h187v-939h1162v939h187v-2048h-187v941h-1162v-941h-187zM869 1606v-19h-101l-305 439v25h217zM191 1959v92h187v-84q0 -109 29 -187t100 -159l-88 -63q-115 80 -171.5 177.5t-56.5 223.5z" />
    <glyph glyph-name="uni1F2C" unicode="&#x1f2c;" horiz-adv-x="2929" 
d="M1121 0v2048h187v-939h1162v939h187v-2048h-187v941h-1162v-941h-187zM543 1593l88 162l126 296l192 -6l-94 -168l-227 -290zM521 2051v-92q0 -84 -24.5 -155t-75.5 -132t-128 -114l-87 63q69 81 99 159t30 187v84h186z" />
    <glyph glyph-name="uni1F2D" unicode="&#x1f2d;" horiz-adv-x="2980" 
d="M1172 0v2048h187v-939h1162v939h187v-2048h-187v941h-1162v-941h-187zM573 1593l88 162l124 296l194 -6l-94 -168l-227 -290zM209 1959v92h187v-84q0 -109 30 -187t99 -159l-88 -63q-115 80 -171.5 177.5t-56.5 223.5z" />
    <glyph glyph-name="uni1F2E" unicode="&#x1f2e;" horiz-adv-x="2780" 
d="M972 0v2048h187v-939h1162v939h187v-2048h-187v941h-1162v-941h-187zM848 2347l99 -26q-3 -97 -63 -166.5t-155 -69.5q-54 0 -92 18t-69 42t-64 42.5t-77 18.5q-51 0 -83 -37.5t-35 -94.5l-100 24q4 97 63 169t156 72q49 0 86.5 -18.5t70 -43.5t67 -43.5t76.5 -18.5
q50 1 83.5 38.5t36.5 93.5zM671 2021v-81q0 -80 -35 -167.5t-117 -161.5l-95 53q51 74 69 139.5t18 136.5v81h160z" />
    <glyph glyph-name="uni1F2F" unicode="&#x1f2f;" horiz-adv-x="2784" 
d="M976 0v2048h187v-939h1162v939h187v-2048h-187v941h-1162v-941h-187zM507 1940v81h160v-81q0 -76 21 -141.5t67 -134.5l-98 -53q-77 69 -113.5 156.5t-36.5 172.5zM848 2347l99 -26q-3 -97 -63 -166.5t-155 -69.5q-54 0 -92 18t-69 42t-64 42.5t-77 18.5q-51 0 -83 -37.5
t-35 -94.5l-100 24q4 97 63 169t156 72q49 0 86.5 -18.5t70 -43.5t67 -43.5t76.5 -18.5q50 1 83.5 38.5t36.5 93.5z" />
    <glyph glyph-name="uni1FCA" unicode="&#x1fca;" horiz-adv-x="2648" 
d="M840 0v2048h187v-939h1162v939h187v-2048h-187v941h-1162v-941h-187zM619 1586l-86 -6l-226 293l-95 168l192 6l127 -296z" />
    <glyph glyph-name="uni1FCB" unicode="&#x1fcb;" horiz-adv-x="2552" 
d="M744 0v2048h187v-939h1162v939h187v-2048h-187v941h-1162v-941h-187zM371 1728v17l185 451h220v-20l-302 -448h-103z" />
    <glyph glyph-name="uni041D" unicode="&#x41d;" horiz-adv-x="2080" 
d="M272 0v2048h187v-939h1162v939h187v-2048h-187v941h-1162v-941h-187z" />
    <glyph glyph-name="uni1F98" unicode="&#x1f98;" horiz-adv-x="2396" 
d="M588 0v2048h187v-939h1162v939h187v-2048h-187v941h-1162v-941h-187zM1475 -653q-87 0 -143 55t-56 167v311h160v-308q0 -54 19.5 -78.5t48.5 -24.5q13 0 30 2t25 3l6 -114q-13 -5 -36.5 -9t-53.5 -4zM427 2048v-92q0 -83 -24.5 -154t-75 -132t-128.5 -115l-88 64
q47 53 75.5 104.5t41 109.5t12.5 131v84h187z" />
    <glyph glyph-name="uni1F99" unicode="&#x1f99;" horiz-adv-x="2493" 
d="M685 0v2048h187v-939h1162v939h187v-2048h-187v941h-1162v-941h-187zM1572 -653q-87 0 -143 55t-56 167v311h160v-308q0 -54 19.5 -78.5t48.5 -24.5q13 0 30 2t25 3l6 -114q-13 -5 -36.5 -9t-53.5 -4zM249 1959v92h186v-84q0 -73 12.5 -131t41 -109.5t75.5 -105.5
l-87 -63q-116 80 -172 178t-56 223z" />
    <glyph glyph-name="uni1F9A" unicode="&#x1f9a;" horiz-adv-x="3076" 
d="M1268 0v2048h187v-939h1162v939h187v-2048h-187v941h-1162v-941h-187zM2155 -653q-87 0 -143 55t-56 167v311h160v-308q0 -54 19.5 -78.5t48.5 -24.5q13 0 30 2t25 3l6 -114q-13 -5 -36.5 -9t-53.5 -4zM1016 1603v-19h-101l-306 439v25h215zM545 2048v-92
q0 -83 -24.5 -154t-75.5 -132t-128 -115l-87 64q69 80 99 158t30 187v84h186z" />
    <glyph glyph-name="uni1F9B" unicode="&#x1f9b;" horiz-adv-x="2965" 
d="M1157 0v2048h187v-939h1162v939h187v-2048h-187v941h-1162v-941h-187zM2044 -653q-87 0 -143 55t-56 167v311h160v-308q0 -54 19.5 -78.5t48.5 -24.5q13 0 30 2t25 3l6 -114q-13 -5 -36.5 -9t-53.5 -4zM869 1606v-19h-101l-305 439v25h217zM191 1959v92h187v-84
q0 -109 29 -187t100 -159l-88 -63q-115 80 -171.5 177.5t-56.5 223.5z" />
    <glyph glyph-name="uni1F9C" unicode="&#x1f9c;" horiz-adv-x="2929" 
d="M1121 0v2048h187v-939h1162v939h187v-2048h-187v941h-1162v-941h-187zM2008 -653q-87 0 -143 55t-56 167v311h160v-308q0 -54 19.5 -78.5t48.5 -24.5q13 0 30 2t25 3l6 -114q-13 -5 -36.5 -9t-53.5 -4zM543 1593l88 162l126 296l192 -6l-94 -168l-227 -290zM521 2051v-92
q0 -84 -24.5 -155t-75.5 -132t-128 -114l-87 63q69 81 99 159t30 187v84h186z" />
    <glyph glyph-name="uni1F9D" unicode="&#x1f9d;" horiz-adv-x="2980" 
d="M1172 0v2048h187v-939h1162v939h187v-2048h-187v941h-1162v-941h-187zM2059 -653q-87 0 -143 55t-56 167v311h160v-308q0 -54 19.5 -78.5t48.5 -24.5q13 0 30 2t25 3l6 -114q-13 -5 -36.5 -9t-53.5 -4zM573 1593l88 162l124 296l194 -6l-94 -168l-227 -290zM209 1959v92
h187v-84q0 -109 30 -187t99 -159l-88 -63q-115 80 -171.5 177.5t-56.5 223.5z" />
    <glyph glyph-name="uni1F9E" unicode="&#x1f9e;" horiz-adv-x="2780" 
d="M972 0v2048h187v-939h1162v939h187v-2048h-187v941h-1162v-941h-187zM1859 -653q-87 0 -143 55t-56 167v311h160v-308q0 -54 19.5 -78.5t48.5 -24.5q13 0 30 2t25 3l6 -114q-13 -5 -36.5 -9t-53.5 -4zM848 2347l99 -26q-3 -97 -63 -166.5t-155 -69.5q-54 0 -92 18t-69 42
t-64 42.5t-77 18.5q-51 0 -83 -37.5t-35 -94.5l-100 24q4 97 63 169t156 72q49 0 86.5 -18.5t70 -43.5t67 -43.5t76.5 -18.5q50 1 83.5 38.5t36.5 93.5zM671 2021v-81q0 -80 -35 -167.5t-117 -161.5l-95 53q51 74 69 139.5t18 136.5v81h160z" />
    <glyph glyph-name="uni1F9F" unicode="&#x1f9f;" horiz-adv-x="2784" 
d="M976 0v2048h187v-939h1162v939h187v-2048h-187v941h-1162v-941h-187zM1863 -653q-87 0 -143 55t-56 167v311h160v-308q0 -54 19.5 -78.5t48.5 -24.5q13 0 30 2t25 3l6 -114q-13 -5 -36.5 -9t-53.5 -4zM507 1940v81h160v-81q0 -76 21 -141.5t67 -134.5l-98 -53
q-77 69 -113.5 156.5t-36.5 172.5zM848 2347l99 -26q-3 -97 -63 -166.5t-155 -69.5q-54 0 -92 18t-69 42t-64 42.5t-77 18.5q-51 0 -83 -37.5t-35 -94.5l-100 24q4 97 63 169t156 72q49 0 86.5 -18.5t70 -43.5t67 -43.5t76.5 -18.5q50 1 83.5 38.5t36.5 93.5z" />
    <glyph glyph-name="uni1FCC" unicode="&#x1fcc;" horiz-adv-x="2080" 
d="M272 0v2048h187v-939h1162v939h187v-2048h-187v941h-1162v-941h-187zM1158 -653q-87 0 -143 55t-56 167v311h160v-308q0 -54 19.5 -78.5t48.5 -24.5q13 0 30 2t25 3l6 -114q-13 -5 -36.5 -9t-53.5 -4z" />
    <glyph glyph-name="uni0049" unicode="I" horiz-adv-x="731" 
d="M459 2048v-2048h-187v2048h187z" />
    <glyph glyph-name="uni00CF" unicode="&#xcf;" horiz-adv-x="731" 
d="M459 2048v-2048h-187v2048h187zM109 2312q-51 0 -89.5 38.5t-38.5 89.5q0 55 38.5 91.5t89.5 36.5q55 0 91.5 -36.5t36.5 -91.5q0 -51 -36.5 -89.5t-91.5 -38.5zM621 2312q-51 0 -89.5 38.5t-38.5 89.5q0 55 38.5 91.5t89.5 36.5q55 0 91.5 -36.5t36.5 -91.5
q0 -51 -36.5 -89.5t-91.5 -38.5z" />
    <glyph glyph-name="uni1E2E" unicode="&#x1e2e;" horiz-adv-x="731" 
d="M459 2048v-2048h-187v2048h187zM282 2624l274 288h214l-324 -288h-164zM110 2219q-51 0 -89.5 38.5t-38.5 89.5q0 54 38.5 91t89.5 37q54 0 91 -37t37 -91q0 -51 -37 -89.5t-91 -38.5zM622 2219q-51 0 -89.5 38.5t-38.5 89.5q0 54 38.5 91t89.5 37q54 0 91 -37t37 -91
q0 -51 -37 -89.5t-91 -38.5z" />
    <glyph glyph-name="uni0197" unicode="&#x197;" horiz-adv-x="731" 
d="M459 2048v-2048h-187v2048h187zM-55 984v144h840v-144h-840z" />
    <glyph glyph-name="uni1E2C" unicode="&#x1e2c;" horiz-adv-x="731" 
d="M459 2048v-2048h-187v2048h187zM81 -466l-144 8q5 133 88 218t203 85q61 0 107 -21.5t86.5 -49t83 -48.5t96.5 -21q61 0 106.5 44t51.5 109l141 -16q-7 -134 -90.5 -214.5t-200.5 -80.5q-67 0 -112.5 21.5t-82 49t-78 48.5t-100.5 21q-64 0 -107.5 -44t-47.5 -109z" />
    <glyph glyph-name="uni00CC" unicode="&#xcc;" horiz-adv-x="731" 
d="M459 2048v-2048h-187v2048h187zM289 2261l-307 454h211l256 -454h-160z" />
    <glyph glyph-name="uni00CD" unicode="&#xcd;" horiz-adv-x="731" 
d="M459 2048v-2048h-187v2048h187zM282 2261l256 454h211l-307 -454h-160z" />
    <glyph glyph-name="uni00CE" unicode="&#xce;" horiz-adv-x="731" 
d="M459 2048v-2048h-187v2048h187zM126 2224h-174v13l338 403h150l338 -403v-13h-174l-239 289z" />
    <glyph glyph-name="uni0128" unicode="&#x128;" horiz-adv-x="1160" 
d="M674 2048v-2048h-187v2048h187zM242 2260l-144 8q5 133 88 218t203 85q61 0 107 -21.5t86.5 -49t83 -48.5t96.5 -21q61 0 106.5 44t51.5 109l141 -16q-7 -134 -90.5 -214.5t-200.5 -80.5q-67 0 -112.5 21.5t-82 49t-78 48.5t-100.5 21q-64 0 -107.5 -44t-47.5 -109z" />
    <glyph glyph-name="uni012A" unicode="&#x12a;" horiz-adv-x="731" 
d="M459 2048v-2048h-187v2048h187zM784 2515v-155h-837v155h837z" />
    <glyph glyph-name="uni012C" unicode="&#x12c;" horiz-adv-x="731" 
d="M459 2048v-2048h-187v2048h187zM549 2560h168q0 -143 -94.5 -232t-257.5 -89q-161 0 -255 89t-94 232h168q0 -78 42.5 -131.5t138.5 -53.5t140 53.5t44 131.5z" />
    <glyph glyph-name="uni012E" unicode="&#x12e;" horiz-adv-x="731" 
d="M459 2048v-2048h-187v2048h187zM317 -603q-116 0 -192 65t-76 189q0 74 33.5 144t103 135.5t179.5 125.5l94 -56q-95 -78 -161.5 -157t-66.5 -170q0 -60 30.5 -90.5t95.5 -30.5q45 0 79.5 12.5t60.5 28.5l23 -134q-36 -25 -86.5 -43.5t-116.5 -18.5z" />
    <glyph glyph-name="uni0130" unicode="&#x130;" horiz-adv-x="731" 
d="M459 2048v-2048h-187v2048h187zM365 2312q-54 0 -93.5 37.5t-39.5 90.5t39.5 90.5t93.5 37.5q55 0 94.5 -37.5t39.5 -90.5t-39.5 -90.5t-94.5 -37.5z" />
    <glyph glyph-name="uni01CF" unicode="&#x1cf;" horiz-adv-x="731" 
d="M459 2048v-2048h-187v2048h187zM126 2658l239 -290l239 290h174v-14l-338 -402h-150l-338 402v14h174z" />
    <glyph glyph-name="uni0208" unicode="&#x208;" horiz-adv-x="731" 
d="M459 2048v-2048h-187v2048h187zM117 2261l-325 454h223l262 -454h-160zM473 2261l-247 454h226l180 -454h-159z" />
    <glyph glyph-name="uni020A" unicode="&#x20a;" horiz-adv-x="731" 
d="M459 2048v-2048h-187v2048h187zM16 2338q0 144 94.5 234t257.5 90t256 -90t93 -234h-168q0 81 -43.5 134.5t-137.5 53.5q-98 0 -141 -54.5t-43 -133.5h-168z" />
    <glyph glyph-name="uni1EC8" unicode="&#x1ec8;" horiz-adv-x="731" 
d="M459 2048v-2048h-187v2048h187zM444 2252h-152v209q109 6 153 33t44 85q0 66 -61.5 96.5t-163.5 31.5l9 122q189 0 284.5 -69t95.5 -184q0 -100 -62.5 -150.5t-146.5 -60.5v-113z" />
    <glyph glyph-name="uni1ECA" unicode="&#x1eca;" horiz-adv-x="731" 
d="M459 2048v-2048h-187v2048h187zM365 -491q-54 0 -93.5 37.5t-39.5 90.5t39.5 90.5t93.5 37.5q55 0 94.5 -37.5t39.5 -90.5t-39.5 -90.5t-94.5 -37.5z" />
    <glyph glyph-name="uni0399" unicode="&#x399;" horiz-adv-x="731" 
d="M459 2048v-2048h-187v2048h187z" />
    <glyph glyph-name="uni038A" unicode="&#x38a;" horiz-adv-x="781" 
d="M508 2048v-2048h-187v2048h187zM18 1704l58 465h198l-131 -465h-125z" />
    <glyph glyph-name="uni03AA" unicode="&#x3aa;" horiz-adv-x="731" 
d="M459 2048v-2048h-187v2048h187zM109 2312q-51 0 -89.5 38.5t-38.5 89.5q0 55 38.5 91.5t89.5 36.5q55 0 91.5 -36.5t36.5 -91.5q0 -51 -36.5 -89.5t-91.5 -38.5zM621 2312q-51 0 -89.5 38.5t-38.5 89.5q0 55 38.5 91.5t89.5 36.5q55 0 91.5 -36.5t36.5 -91.5
q0 -51 -36.5 -89.5t-91.5 -38.5z" />
    <glyph glyph-name="uni1F38" unicode="&#x1f38;" horiz-adv-x="1110" 
d="M839 2048v-2048h-187v2048h187zM539 2048v-92q0 -83 -24.5 -154t-75 -132t-128.5 -115l-88 64q47 53 75.5 104.5t41 109.5t12.5 131v84h187z" />
    <glyph glyph-name="uni1F39" unicode="&#x1f39;" horiz-adv-x="1096" 
d="M824 2048v-2048h-187v2048h187zM249 1959v92h186v-84q0 -73 12.5 -131t41 -109.5t75.5 -105.5l-87 -63q-116 80 -172 178t-56 223z" />
    <glyph glyph-name="uni1F3A" unicode="&#x1f3a;" horiz-adv-x="1679" 
d="M1407 2048v-2048h-187v2048h187zM1016 1603v-19h-101l-306 439v25h215zM545 2048v-92q0 -83 -24.5 -154t-75.5 -132t-128 -115l-87 64q69 80 99 158t30 187v84h186z" />
    <glyph glyph-name="uni1F3B" unicode="&#x1f3b;" horiz-adv-x="1568" 
d="M1296 2048v-2048h-187v2048h187zM869 1606v-19h-101l-305 439v25h217zM191 1959v92h187v-84q0 -109 29 -187t100 -159l-88 -63q-115 80 -171.5 177.5t-56.5 223.5z" />
    <glyph glyph-name="uni1F3C" unicode="&#x1f3c;" horiz-adv-x="1532" 
d="M1260 2048v-2048h-187v2048h187zM543 1593l88 162l126 296l192 -6l-94 -168l-227 -290zM521 2051v-92q0 -84 -24.5 -155t-75.5 -132t-128 -114l-87 63q69 81 99 159t30 187v84h186z" />
    <glyph glyph-name="uni1F3D" unicode="&#x1f3d;" horiz-adv-x="1583" 
d="M1311 2048v-2048h-187v2048h187zM573 1593l88 162l124 296l194 -6l-94 -168l-227 -290zM209 1959v92h187v-84q0 -109 30 -187t99 -159l-88 -63q-115 80 -171.5 177.5t-56.5 223.5z" />
    <glyph glyph-name="uni1F3E" unicode="&#x1f3e;" horiz-adv-x="1383" 
d="M1111 2048v-2048h-187v2048h187zM848 2347l99 -26q-3 -97 -63 -166.5t-155 -69.5q-54 0 -92 18t-69 42t-64 42.5t-77 18.5q-51 0 -83 -37.5t-35 -94.5l-100 24q4 97 63 169t156 72q49 0 86.5 -18.5t70 -43.5t67 -43.5t76.5 -18.5q50 1 83.5 38.5t36.5 93.5zM671 2021v-81
q0 -80 -35 -167.5t-117 -161.5l-95 53q51 74 69 139.5t18 136.5v81h160z" />
    <glyph glyph-name="uni1F3F" unicode="&#x1f3f;" horiz-adv-x="1386" 
d="M1115 2048v-2048h-187v2048h187zM507 1940v81h160v-81q0 -76 21 -141.5t67 -134.5l-98 -53q-77 69 -113.5 156.5t-36.5 172.5zM848 2347l99 -26q-3 -97 -63 -166.5t-155 -69.5q-54 0 -92 18t-69 42t-64 42.5t-77 18.5q-51 0 -83 -37.5t-35 -94.5l-100 24q4 97 63 169
t156 72q49 0 86.5 -18.5t70 -43.5t67 -43.5t76.5 -18.5q50 1 83.5 38.5t36.5 93.5z" />
    <glyph glyph-name="uni1FD8" unicode="&#x1fd8;" horiz-adv-x="731" 
d="M459 2048v-2048h-187v2048h187zM549 2560h168q0 -143 -94.5 -232t-257.5 -89q-161 0 -255 89t-94 232h168q0 -78 42.5 -131.5t138.5 -53.5t140 53.5t44 131.5z" />
    <glyph glyph-name="uni1FD9" unicode="&#x1fd9;" horiz-adv-x="731" 
d="M459 2048v-2048h-187v2048h187zM784 2515v-155h-837v155h837z" />
    <glyph glyph-name="uni1FDA" unicode="&#x1fda;" horiz-adv-x="1251" 
d="M979 2048v-2048h-187v2048h187zM619 1586l-86 -6l-226 293l-95 168l192 6l127 -296z" />
    <glyph glyph-name="uni1FDB" unicode="&#x1fdb;" horiz-adv-x="1155" 
d="M883 2048v-2048h-187v2048h187zM358 1728v17l185 451h220v-20l-302 -448h-103z" />
    <glyph glyph-name="uni0406" unicode="&#x406;" horiz-adv-x="731" 
d="M459 2048v-2048h-187v2048h187z" />
    <glyph glyph-name="uni0407" unicode="&#x407;" horiz-adv-x="731" 
d="M459 2048v-2048h-187v2048h187zM109 2312q-51 0 -89.5 38.5t-38.5 89.5q0 55 38.5 91.5t89.5 36.5q55 0 91.5 -36.5t36.5 -91.5q0 -51 -36.5 -89.5t-91.5 -38.5zM621 2312q-51 0 -89.5 38.5t-38.5 89.5q0 55 38.5 91.5t89.5 36.5q55 0 91.5 -36.5t36.5 -91.5
q0 -51 -36.5 -89.5t-91.5 -38.5z" />
    <glyph glyph-name="uniE00C" unicode="&#xe00c;" horiz-adv-x="1160" 
d="M148 1880v168h864v-168h-864zM148 0v168h864v-168h-864zM673 2048v-2048h-186v2048h186z" />
    <glyph glyph-name="uniE00D" unicode="&#xe00d;" horiz-adv-x="1160" 
d="M148 1880v168h864v-168h-864zM148 0v168h864v-168h-864zM673 2048v-2048h-186v2048h186zM324 2312q-51 0 -89.5 38.5t-38.5 89.5q0 55 38.5 91.5t89.5 36.5q55 0 91.5 -36.5t36.5 -91.5q0 -51 -36.5 -89.5t-91.5 -38.5zM836 2312q-51 0 -89.5 38.5t-38.5 89.5
q0 55 38.5 91.5t89.5 36.5q55 0 91.5 -36.5t36.5 -91.5q0 -51 -36.5 -89.5t-91.5 -38.5z" />
    <glyph glyph-name="uniE00E" unicode="&#xe00e;" horiz-adv-x="1160" 
d="M148 1880v168h864v-168h-864zM148 0v168h864v-168h-864zM673 2048v-2048h-186v2048h186zM496 2624l274 288h214l-324 -288h-164zM324 2219q-51 0 -89.5 38.5t-38.5 89.5q0 54 38.5 91t89.5 37q54 0 91 -37t37 -91q0 -51 -37 -89.5t-91 -38.5zM836 2219q-51 0 -89.5 38.5
t-38.5 89.5q0 54 38.5 91t89.5 37q54 0 91 -37t37 -91q0 -51 -37 -89.5t-91 -38.5z" />
    <glyph glyph-name="uniE00F" unicode="&#xe00f;" horiz-adv-x="1160" 
d="M148 1880v168h864v-168h-864zM148 0v168h864v-168h-864zM673 2048v-2048h-186v2048h186zM160 984v144h840v-144h-840z" />
    <glyph glyph-name="uniE010" unicode="&#xe010;" horiz-adv-x="1160" 
d="M148 1880v168h864v-168h-864zM148 0v168h864v-168h-864zM673 2048v-2048h-186v2048h186zM296 -466l-144 8q5 133 88 218t203 85q61 0 107 -21.5t86.5 -49t83 -48.5t96.5 -21q61 0 106.5 44t51.5 109l141 -16q-7 -134 -90.5 -214.5t-200.5 -80.5q-67 0 -112.5 21.5t-82 49
t-78 48.5t-100.5 21q-64 0 -107.5 -44t-47.5 -109z" />
    <glyph glyph-name="uniE011" unicode="&#xe011;" horiz-adv-x="1160" 
d="M148 1880v168h864v-168h-864zM148 0v168h864v-168h-864zM673 2048v-2048h-186v2048h186zM504 2261l-307 454h211l256 -454h-160z" />
    <glyph glyph-name="uniE012" unicode="&#xe012;" horiz-adv-x="1160" 
d="M148 1880v168h864v-168h-864zM148 0v168h864v-168h-864zM673 2048v-2048h-186v2048h186zM497 2261l256 454h211l-307 -454h-160z" />
    <glyph glyph-name="uniE013" unicode="&#xe013;" horiz-adv-x="1160" 
d="M148 1880v168h864v-168h-864zM148 0v168h864v-168h-864zM673 2048v-2048h-186v2048h186zM341 2224h-174v13l338 403h150l338 -403v-13h-174l-239 289z" />
    <glyph glyph-name="uniE014" unicode="&#xe014;" horiz-adv-x="1160" 
d="M148 1880v168h864v-168h-864zM148 0v168h864v-168h-864zM673 2048v-2048h-186v2048h186zM242 2260l-144 8q5 133 88 218t203 85q61 0 107 -21.5t86.5 -49t83 -48.5t96.5 -21q61 0 106.5 44t51.5 109l141 -16q-7 -134 -90.5 -214.5t-200.5 -80.5q-67 0 -112.5 21.5t-82 49
t-78 48.5t-100.5 21q-64 0 -107.5 -44t-47.5 -109z" />
    <glyph glyph-name="uniE015" unicode="&#xe015;" horiz-adv-x="1160" 
d="M148 1880v168h864v-168h-864zM148 0v168h864v-168h-864zM673 2048v-2048h-186v2048h186zM998 2515v-155h-837v155h837z" />
    <glyph glyph-name="uniE016" unicode="&#xe016;" horiz-adv-x="1160" 
d="M148 1880v168h864v-168h-864zM148 0v168h864v-168h-864zM673 2048v-2048h-186v2048h186zM764 2560h168q0 -143 -94.5 -232t-257.5 -89q-161 0 -255 89t-94 232h168q0 -78 42.5 -131.5t138.5 -53.5t140 53.5t44 131.5z" />
    <glyph glyph-name="uniE017" unicode="&#xe017;" horiz-adv-x="1160" 
d="M148 1880v168h864v-168h-864zM148 0v168h864v-168h-864zM673 2048v-2048h-186v2048h186zM870 -603q-116 0 -192 65t-76 189q0 74 33.5 144t103 135.5t179.5 125.5l94 -56q-95 -78 -161.5 -157t-66.5 -170q0 -60 30.5 -90.5t95.5 -30.5q45 0 79.5 12.5t60.5 28.5l23 -134
q-36 -25 -86.5 -43.5t-116.5 -18.5z" />
    <glyph glyph-name="uniE018" unicode="&#xe018;" horiz-adv-x="1160" 
d="M148 1880v168h864v-168h-864zM148 0v168h864v-168h-864zM673 2048v-2048h-186v2048h186zM580 2312q-54 0 -93.5 37.5t-39.5 90.5t39.5 90.5t93.5 37.5q55 0 94.5 -37.5t39.5 -90.5t-39.5 -90.5t-94.5 -37.5z" />
    <glyph glyph-name="uniE019" unicode="&#xe019;" horiz-adv-x="1160" 
d="M148 1880v168h864v-168h-864zM148 0v168h864v-168h-864zM673 2048v-2048h-186v2048h186zM341 2658l239 -290l239 290h174v-14l-338 -402h-150l-338 402v14h174z" />
    <glyph glyph-name="uniE01A" unicode="&#xe01a;" horiz-adv-x="1160" 
d="M148 1880v168h864v-168h-864zM148 0v168h864v-168h-864zM673 2048v-2048h-186v2048h186zM332 2261l-325 454h223l262 -454h-160zM688 2261l-247 454h226l180 -454h-159z" />
    <glyph glyph-name="uniE01B" unicode="&#xe01b;" horiz-adv-x="1160" 
d="M148 1880v168h864v-168h-864zM148 0v168h864v-168h-864zM673 2048v-2048h-186v2048h186zM230 2338q0 144 94.5 234t257.5 90t256 -90t93 -234h-168q0 81 -43.5 134.5t-137.5 53.5q-98 0 -141 -54.5t-43 -133.5h-168z" />
    <glyph glyph-name="uniE01C" unicode="&#xe01c;" horiz-adv-x="1160" 
d="M148 1880v168h864v-168h-864zM148 0v168h864v-168h-864zM673 2048v-2048h-186v2048h186zM659 2252h-152v209q109 6 153 33t44 85q0 66 -61.5 96.5t-163.5 31.5l9 122q189 0 284.5 -69t95.5 -184q0 -100 -62.5 -150.5t-146.5 -60.5v-113z" />
    <glyph glyph-name="uniE01D" unicode="&#xe01d;" horiz-adv-x="1160" 
d="M148 1880v168h864v-168h-864zM148 0v168h864v-168h-864zM673 2048v-2048h-186v2048h186zM580 -491q-54 0 -93.5 37.5t-39.5 90.5t39.5 90.5t93.5 37.5q55 0 94.5 -37.5t39.5 -90.5t-39.5 -90.5t-94.5 -37.5z" />
    <glyph glyph-name="uniE01E" unicode="&#xe01e;" horiz-adv-x="1597" 
d="M585 1880v168h864v-168h-864zM585 0v168h864v-168h-864zM1110 2048v-2048h-186v2048h186zM474 2048v-92q0 -83 -24.5 -154t-75 -132t-128.5 -115l-88 64q47 53 75.5 104.5t41 109.5t12.5 131v84h187z" />
    <glyph glyph-name="uniE01F" unicode="&#xe01f;" horiz-adv-x="1584" 
d="M572 1880v168h864v-168h-864zM572 0v168h864v-168h-864zM1097 2048v-2048h-186v2048h186zM185 1959v92h186v-84q0 -73 12.5 -131t41 -109.5t75.5 -105.5l-87 -63q-116 80 -172 178t-56 223z" />
    <glyph glyph-name="uniE020" unicode="&#xe020;" horiz-adv-x="2168" 
d="M1156 1880v168h864v-168h-864zM1156 0v168h864v-168h-864zM1681 2048v-2048h-186v2048h186zM953 1603v-19h-101l-306 439v25h215zM482 2048v-92q0 -83 -24.5 -154t-75.5 -132t-128 -115l-87 64q69 80 99 158t30 187v84h186z" />
    <glyph glyph-name="uniE021" unicode="&#xe021;" horiz-adv-x="2056" 
d="M1044 1880v168h864v-168h-864zM1044 0v168h864v-168h-864zM1569 2048v-2048h-186v2048h186zM803 1606v-19h-101l-305 439v25h217zM125 1959v92h187v-84q0 -109 29 -187t100 -159l-88 -63q-115 80 -171.5 177.5t-56.5 223.5z" />
    <glyph glyph-name="uniE022" unicode="&#xe022;" horiz-adv-x="2021" 
d="M1009 1880v168h864v-168h-864zM1009 0v168h864v-168h-864zM1534 2048v-2048h-186v2048h186zM481 1593l88 162l126 296l192 -6l-94 -168l-227 -290zM459 2051v-92q0 -84 -24.5 -155t-75.5 -132t-128 -114l-87 63q69 81 99 159t30 187v84h186z" />
    <glyph glyph-name="uniE023" unicode="&#xe023;" horiz-adv-x="2072" 
d="M1060 1880v168h864v-168h-864zM1060 0v168h864v-168h-864zM1585 2048v-2048h-186v2048h186zM511 1593l88 162l124 296l194 -6l-94 -168l-227 -290zM147 1959v92h187v-84q0 -109 30 -187t99 -159l-88 -63q-115 80 -171.5 177.5t-56.5 223.5z" />
    <glyph glyph-name="uniE024" unicode="&#xe024;" horiz-adv-x="1871" 
d="M859 1880v168h864v-168h-864zM859 0v168h864v-168h-864zM1384 2048v-2048h-186v2048h186zM784 2347l99 -26q-3 -97 -63 -166.5t-155 -69.5q-54 0 -92 18t-69 42t-64 42.5t-77 18.5q-51 0 -83 -37.5t-35 -94.5l-100 24q4 97 63 169t156 72q49 0 86.5 -18.5t70 -43.5
t67 -43.5t76.5 -18.5q50 1 83.5 38.5t36.5 93.5zM607 2021v-81q0 -80 -35 -167.5t-117 -161.5l-95 53q51 74 69 139.5t18 136.5v81h160z" />
    <glyph glyph-name="uniE025" unicode="&#xe025;" horiz-adv-x="1873" 
d="M861 1880v168h864v-168h-864zM861 0v168h864v-168h-864zM1386 2048v-2048h-186v2048h186zM443 1940v81h160v-81q0 -76 21 -141.5t67 -134.5l-98 -53q-77 69 -113.5 156.5t-36.5 172.5zM784 2347l99 -26q-3 -97 -63 -166.5t-155 -69.5q-54 0 -92 18t-69 42t-64 42.5
t-77 18.5q-51 0 -83 -37.5t-35 -94.5l-100 24q4 97 63 169t156 72q49 0 86.5 -18.5t70 -43.5t67 -43.5t76.5 -18.5q50 1 83.5 38.5t36.5 93.5z" />
    <glyph glyph-name="uniE026" unicode="&#xe026;" horiz-adv-x="1160" 
d="M148 1880v168h864v-168h-864zM148 0v168h864v-168h-864zM673 2048v-2048h-186v2048h186zM764 2560h168q0 -143 -94.5 -232t-257.5 -89q-161 0 -255 89t-94 232h168q0 -78 42.5 -131.5t138.5 -53.5t140 53.5t44 131.5z" />
    <glyph glyph-name="uniE027" unicode="&#xe027;" horiz-adv-x="1160" 
d="M148 1880v168h864v-168h-864zM148 0v168h864v-168h-864zM673 2048v-2048h-186v2048h186zM998 2515v-155h-837v155h837z" />
    <glyph glyph-name="uniE028" unicode="&#xe028;" horiz-adv-x="1740" 
d="M728 1880v168h864v-168h-864zM728 0v168h864v-168h-864zM1253 2048v-2048h-186v2048h186zM622 1586l-86 -6l-226 293l-95 168l192 6l127 -296z" />
    <glyph glyph-name="uniE029" unicode="&#xe029;" horiz-adv-x="1644" 
d="M632 1880v168h864v-168h-864zM632 0v168h864v-168h-864zM1157 2048v-2048h-186v2048h186zM294 1728v17l185 451h220v-20l-302 -448h-103z" />
    <glyph glyph-name="uniE02A" unicode="&#xe02a;" horiz-adv-x="1160" 
d="M148 1880v168h864v-168h-864zM148 0v168h864v-168h-864zM673 2048v-2048h-186v2048h186z" />
    <glyph glyph-name="uniE02B" unicode="&#xe02b;" horiz-adv-x="1160" 
d="M148 1880v168h864v-168h-864zM148 0v168h864v-168h-864zM673 2048v-2048h-186v2048h186zM324 2312q-51 0 -89.5 38.5t-38.5 89.5q0 55 38.5 91.5t89.5 36.5q55 0 91.5 -36.5t36.5 -91.5q0 -51 -36.5 -89.5t-91.5 -38.5zM836 2312q-51 0 -89.5 38.5t-38.5 89.5
q0 55 38.5 91.5t89.5 36.5q55 0 91.5 -36.5t36.5 -91.5q0 -51 -36.5 -89.5t-91.5 -38.5z" />
    <glyph glyph-name="uni004A" unicode="J" horiz-adv-x="1507" 
d="M1048 2048h187v-1477q-1 -200 -72 -333.5t-196 -199.5t-287 -66q-159 0 -284 59t-196.5 166t-71.5 251h184q0 -91 48 -160.5t131.5 -108.5t188.5 -39q109 0 191.5 46t129.5 141.5t47 243.5v1477z" />
    <glyph glyph-name="uni0134" unicode="&#x134;" horiz-adv-x="1507" 
d="M1048 2048h187v-1477q-1 -200 -72 -333.5t-196 -199.5t-287 -66q-159 0 -284 59t-196.5 166t-71.5 251h184q0 -91 48 -160.5t131.5 -108.5t188.5 -39q109 0 191.5 46t129.5 141.5t47 243.5v1477zM902 2224h-174v13l338 403h150l338 -403v-13h-174l-239 289z" />
    <glyph glyph-name="uni0248" unicode="&#x248;" horiz-adv-x="1507" 
d="M1048 2048h187v-1477q-1 -200 -72 -333.5t-196 -199.5t-287 -66q-159 0 -284 59t-196.5 166t-71.5 251h184q0 -91 48 -160.5t131.5 -108.5t188.5 -39q109 0 191.5 46t129.5 141.5t47 243.5v1477zM721 1144v144h840v-144h-840z" />
    <glyph glyph-name="uni037F" unicode="&#x37f;" horiz-adv-x="1507" 
d="M1048 2048h187v-1477q-1 -200 -72 -333.5t-196 -199.5t-287 -66q-159 0 -284 59t-196.5 166t-71.5 251h184q0 -91 48 -160.5t131.5 -108.5t188.5 -39q109 0 191.5 46t129.5 141.5t47 243.5v1477z" />
    <glyph glyph-name="uni0408" unicode="&#x408;" horiz-adv-x="1507" 
d="M1048 2048h187v-1477q-1 -200 -72 -333.5t-196 -199.5t-287 -66q-159 0 -284 59t-196.5 166t-71.5 251h184q0 -91 48 -160.5t131.5 -108.5t188.5 -39q109 0 191.5 46t129.5 141.5t47 243.5v1477z" />
    <glyph glyph-name="uni004B" unicode="K" horiz-adv-x="1803" 
d="M272 0v2048h187v-1103h18l1000 1103h246l-875 -947l871 -1101h-228l-759 971l-273 -306v-665h-187z" />
    <glyph glyph-name="uni0136" unicode="&#x136;" horiz-adv-x="1803" 
d="M272 0v2048h187v-1103h18l1000 1103h246l-875 -947l871 -1101h-228l-759 971l-273 -306v-665h-187zM691 -680l119 518h185l-164 -518h-140z" />
    <glyph glyph-name="uni01E8" unicode="&#x1e8;" horiz-adv-x="1803" 
d="M272 0v2048h187v-1103h18l1000 1103h246l-875 -947l871 -1101h-228l-759 971l-273 -306v-665h-187zM672 2658l239 -290l239 290h174v-14l-338 -402h-150l-338 402v14h174z" />
    <glyph glyph-name="uni1E30" unicode="&#x1e30;" horiz-adv-x="1803" 
d="M272 0v2048h187v-1103h18l1000 1103h246l-875 -947l871 -1101h-228l-759 971l-273 -306v-665h-187zM827 2261l256 454h211l-307 -454h-160z" />
    <glyph glyph-name="uni1E32" unicode="&#x1e32;" horiz-adv-x="1803" 
d="M272 0v2048h187v-1103h18l1000 1103h246l-875 -947l871 -1101h-228l-759 971l-273 -306v-665h-187zM904 -491q-54 0 -93.5 37.5t-39.5 90.5t39.5 90.5t93.5 37.5q55 0 94.5 -37.5t39.5 -90.5t-39.5 -90.5t-94.5 -37.5z" />
    <glyph glyph-name="uni1E34" unicode="&#x1e34;" horiz-adv-x="1803" 
d="M272 0v2048h187v-1103h18l1000 1103h246l-875 -947l871 -1101h-228l-759 971l-273 -306v-665h-187zM1322 -264v-155h-837v155h837z" />
    <glyph glyph-name="uni04A0" unicode="&#x4a0;" horiz-adv-x="2003" 
d="M1723 0l-705 966h-295v-966h-187v1880h-519v168h706v-915h185l755 915h222l-759 -923l821 -1125h-224z" />
    <glyph glyph-name="uni049A" unicode="&#x49a;" horiz-adv-x="1931" 
d="M1456 0l-705 966h-295v-966h-187v2048h187v-915h185l755 915h222l-759 -923l821 -1125h-224zM1720 197v-666h-178v666h178z" />
    <glyph glyph-name="uni0198" unicode="&#x198;" horiz-adv-x="1876" 
d="M272 0v2048h187v-1103h18l899 991q70 78 154 109.5t168.5 18t153.5 -68.5l-81 -136q-68 45 -135.5 34t-139.5 -89l-648 -703l904 -1101h-229l-791 971l-273 -306v-665h-187z" />
    <glyph glyph-name="uni039A" unicode="&#x39a;" horiz-adv-x="1803" 
d="M272 0v2048h187v-1103h18l1000 1103h246l-875 -947l871 -1101h-228l-759 971l-273 -306v-665h-187z" />
    <glyph glyph-name="uni004C" unicode="L" horiz-adv-x="1584" 
d="M272 0v2048h187v-1880h976v-168h-1163z" />
    <glyph glyph-name="uni0139" unicode="&#x139;" horiz-adv-x="1584" 
d="M272 0v2048h187v-1880h976v-168h-1163zM282 2261l256 454h211l-307 -454h-160z" />
    <glyph glyph-name="uni013B" unicode="&#x13b;" horiz-adv-x="1584" 
d="M272 0v2048h187v-1880h976v-168h-1163zM640 -680l119 518h185l-164 -518h-140z" />
    <glyph glyph-name="uni013D" unicode="&#x13d;" horiz-adv-x="1579" 
d="M272 0v2048h187v-1880h976v-168h-1163zM836 1626v518h184l-52 -518h-132z" />
    <glyph glyph-name="uni1E36" unicode="&#x1e36;" horiz-adv-x="1584" 
d="M272 0v2048h187v-1880h976v-168h-1163zM853 -491q-54 0 -93.5 37.5t-39.5 90.5t39.5 90.5t93.5 37.5q55 0 94.5 -37.5t39.5 -90.5t-39.5 -90.5t-94.5 -37.5z" />
    <glyph glyph-name="uni1E38" unicode="&#x1e38;" horiz-adv-x="1584" 
d="M272 0v2048h187v-1880h976v-168h-1163zM853 -491q-54 0 -93.5 37.5t-39.5 90.5t39.5 90.5t93.5 37.5q55 0 94.5 -37.5t39.5 -90.5t-39.5 -90.5t-94.5 -37.5zM784 2515v-155h-837v155h837z" />
    <glyph glyph-name="uni1E3A" unicode="&#x1e3a;" horiz-adv-x="1584" 
d="M272 0v2048h187v-1880h976v-168h-1163zM1271 -264v-155h-837v155h837z" />
    <glyph glyph-name="uni1E3C" unicode="&#x1e3c;" horiz-adv-x="1584" 
d="M272 0v2048h187v-1880h976v-168h-1163zM614 -555h-174v13l338 403h150l338 -403v-13h-174l-239 289z" />
    <glyph glyph-name="uni0141" unicode="&#x141;" horiz-adv-x="1562" 
d="M813 1248v-142l-773 -256v143zM243 0v2048h186v-1880h976v-168h-1162z" />
    <glyph glyph-name="uni023D" unicode="&#x23d;" horiz-adv-x="1584" 
d="M272 0v2048h187v-1880h976v-168h-1163zM-55 984v144h840v-144h-840z" />
    <glyph glyph-name="uni01C8" unicode="&#x1c8;" horiz-adv-x="2237" 
d="M272 0v2048h187v-1880h976v-168h-1163zM1821 1536h179v-1685q0 -131 -48.5 -226.5t-140.5 -148t-222 -52.5h-20t-22 1l2 167h19h19q110 0 172 68t62 191v1685zM1909 1800q-54 0 -93.5 37.5t-39.5 90.5t39.5 90.5t93.5 37.5q55 0 94.5 -37.5t39.5 -90.5t-39.5 -90.5
t-94.5 -37.5z" />
    <glyph glyph-name="uni004D" unicode="M" horiz-adv-x="2480" 
d="M272 2048h216l743 -1784h18l743 1784h216v-2048h-176v1653h-16l-691 -1653h-170l-691 1653h-16v-1653h-176v2048z" />
    <glyph glyph-name="uni1E3E" unicode="&#x1e3e;" horiz-adv-x="2480" 
d="M272 2048h216l743 -1784h18l743 1784h216v-2048h-176v1653h-16l-691 -1653h-170l-691 1653h-16v-1653h-176v2048zM1157 2261l256 454h211l-307 -454h-160z" />
    <glyph glyph-name="uni1E40" unicode="&#x1e40;" horiz-adv-x="2480" 
d="M272 2048h216l743 -1784h18l743 1784h216v-2048h-176v1653h-16l-691 -1653h-170l-691 1653h-16v-1653h-176v2048zM1240 2312q-54 0 -93.5 37.5t-39.5 90.5t39.5 90.5t93.5 37.5q55 0 94.5 -37.5t39.5 -90.5t-39.5 -90.5t-94.5 -37.5z" />
    <glyph glyph-name="uni1E42" unicode="&#x1e42;" horiz-adv-x="2480" 
d="M272 2048h216l743 -1784h18l743 1784h216v-2048h-176v1653h-16l-691 -1653h-170l-691 1653h-16v-1653h-176v2048zM1240 -491q-54 0 -93.5 37.5t-39.5 90.5t39.5 90.5t93.5 37.5q55 0 94.5 -37.5t39.5 -90.5t-39.5 -90.5t-94.5 -37.5z" />
    <glyph glyph-name="uni04CD" unicode="&#x4cd;" horiz-adv-x="2480" 
d="M272 2048h216l743 -1784h18l743 1784h216v-2048h-176v1653h-16l-691 -1653h-170l-691 1653h-16v-1653h-176v2048zM2387 123v-156q-1 -79 -16 -155t-43 -149.5t-70 -145.5l-154 34q30 73 53.5 141t37 135t13.5 137v159h179z" />
    <glyph glyph-name="uni039C" unicode="&#x39c;" horiz-adv-x="2480" 
d="M272 2048h216l743 -1784h18l743 1784h216v-2048h-176v1653h-16l-691 -1653h-170l-691 1653h-16v-1653h-176v2048z" />
    <glyph glyph-name="uni03FA" unicode="&#x3fa;" horiz-adv-x="2480" 
d="M272 2048h216l743 -1784h18l743 1784h216v-2048h-176v1653h-16l-691 -1653h-170l-691 1653h-16v-1653h-176v2048z" />
    <glyph glyph-name="uni041C" unicode="&#x41c;" horiz-adv-x="2480" 
d="M272 2048h216l743 -1784h18l743 1784h216v-2048h-176v1653h-16l-691 -1653h-170l-691 1653h-16v-1653h-176v2048z" />
    <glyph glyph-name="uni004E" unicode="N" horiz-adv-x="2139" 
d="M1867 2048v-2048h-182l-1210 1715h-16v-1715h-187v2048h181l1214 -1717h16v1717h184z" />
    <glyph glyph-name="uni00D1" unicode="&#xd1;" horiz-adv-x="2139" 
d="M1867 2048v-2048h-182l-1210 1715h-16v-1715h-187v2048h181l1214 -1717h16v1717h184zM732 2260l-144 8q5 133 88 218t203 85q61 0 107 -21.5t86.5 -49t83 -48.5t96.5 -21q61 0 106.5 44t51.5 109l141 -16q-7 -134 -90.5 -214.5t-200.5 -80.5q-67 0 -112.5 21.5t-82 49
t-78 48.5t-100.5 21q-64 0 -107.5 -44t-47.5 -109z" />
    <glyph glyph-name="uni0143" unicode="&#x143;" horiz-adv-x="2139" 
d="M1867 2048v-2048h-182l-1210 1715h-16v-1715h-187v2048h181l1214 -1717h16v1717h184zM986 2261l256 454h211l-307 -454h-160z" />
    <glyph glyph-name="uni0145" unicode="&#x145;" horiz-adv-x="2139" 
d="M1867 2048v-2048h-182l-1210 1715h-16v-1715h-187v2048h181l1214 -1717h16v1717h184zM856 -680l119 518h185l-164 -518h-140z" />
    <glyph glyph-name="uni0147" unicode="&#x147;" horiz-adv-x="2139" 
d="M1867 2048v-2048h-182l-1210 1715h-16v-1715h-187v2048h181l1214 -1717h16v1717h184zM830 2658l239 -290l239 290h174v-14l-338 -402h-150l-338 402v14h174z" />
    <glyph glyph-name="uni01F8" unicode="&#x1f8;" horiz-adv-x="2139" 
d="M1867 2048v-2048h-182l-1210 1715h-16v-1715h-187v2048h181l1214 -1717h16v1717h184zM993 2261l-307 454h211l256 -454h-160z" />
    <glyph glyph-name="uni1E44" unicode="&#x1e44;" horiz-adv-x="2139" 
d="M1867 2048v-2048h-182l-1210 1715h-16v-1715h-187v2048h181l1214 -1717h16v1717h184zM1069 2312q-54 0 -93.5 37.5t-39.5 90.5t39.5 90.5t93.5 37.5q55 0 94.5 -37.5t39.5 -90.5t-39.5 -90.5t-94.5 -37.5z" />
    <glyph glyph-name="uni1E46" unicode="&#x1e46;" horiz-adv-x="2139" 
d="M1867 2048v-2048h-182l-1210 1715h-16v-1715h-187v2048h181l1214 -1717h16v1717h184zM1069 -491q-54 0 -93.5 37.5t-39.5 90.5t39.5 90.5t93.5 37.5q55 0 94.5 -37.5t39.5 -90.5t-39.5 -90.5t-94.5 -37.5z" />
    <glyph glyph-name="uni1E48" unicode="&#x1e48;" horiz-adv-x="2139" 
d="M1867 2048v-2048h-182l-1210 1715h-16v-1715h-187v2048h181l1214 -1717h16v1717h184zM1487 -264v-155h-837v155h837z" />
    <glyph glyph-name="uni1E4A" unicode="&#x1e4a;" horiz-adv-x="2139" 
d="M1867 2048v-2048h-182l-1210 1715h-16v-1715h-187v2048h181l1214 -1717h16v1717h184zM830 -555h-174v13l338 403h150l338 -403v-13h-174l-239 289z" />
    <glyph glyph-name="uni019D" unicode="&#x19d;" horiz-adv-x="2125" 
d="M259 0h186v-187q0 -93 -27 -165t-76 -122t-115 -75.5t-144 -25.5q-32 0 -63 2t-54 9v157q15 -3 34 -5.5t41 -2.5q100 0 159 52.5t59 178.5v184zM1853 2048v-2048h-181l-1211 1715h-16v-1715h-186v2048h181l1213 -1717h16v1717h184z" />
    <glyph glyph-name="uni014A" unicode="&#x14a;" horiz-adv-x="2139" 
d="M1685 0h182v-187q0 -124 -47.5 -211t-129.5 -132t-186 -45q-31 0 -62.5 2t-54.5 9v157q15 -3 34.5 -5.5t40.5 -2.5q100 0 161.5 52.5t61.5 178.5v184zM1867 2048v-2048h-182l-1210 1715h-16v-1715h-187v2048h181l1214 -1717h16v1717h184z" />
    <glyph glyph-name="uni0418" unicode="&#x418;" horiz-adv-x="2139" 
d="M272 2048h184v-1717h16l1213 1717h182v-2048h-187v1715h-16l-1211 -1715h-181v2048z" />
    <glyph glyph-name="uni040D" unicode="&#x40d;" horiz-adv-x="2139" 
d="M272 2048h184v-1717h16l1213 1717h182v-2048h-187v1715h-16l-1211 -1715h-181v2048zM993 2261l-307 454h211l256 -454h-160z" />
    <glyph glyph-name="uni0419" unicode="&#x419;" horiz-adv-x="2139" 
d="M272 2048h184v-1717h16l1213 1717h182v-2048h-187v1715h-16l-1211 -1715h-181v2048zM1253 2560h168q0 -143 -94.5 -232t-257.5 -89q-161 0 -255 89t-94 232h168q0 -78 42.5 -131.5t138.5 -53.5t140 53.5t44 131.5z" />
    <glyph glyph-name="uni04E2" unicode="&#x4e2;" horiz-adv-x="2139" 
d="M272 2048h184v-1717h16l1213 1717h182v-2048h-187v1715h-16l-1211 -1715h-181v2048zM1488 2515v-155h-837v155h837z" />
    <glyph glyph-name="uni04E4" unicode="&#x4e4;" horiz-adv-x="2139" 
d="M272 2048h184v-1717h16l1213 1717h182v-2048h-187v1715h-16l-1211 -1715h-181v2048zM813 2312q-51 0 -89.5 38.5t-38.5 89.5q0 55 38.5 91.5t89.5 36.5q55 0 91.5 -36.5t36.5 -91.5q0 -51 -36.5 -89.5t-91.5 -38.5zM1325 2312q-51 0 -89.5 38.5t-38.5 89.5
q0 55 38.5 91.5t89.5 36.5q55 0 91.5 -36.5t36.5 -91.5q0 -51 -36.5 -89.5t-91.5 -38.5z" />
    <glyph glyph-name="uni048A" unicode="&#x48a;" horiz-adv-x="2139" 
d="M272 2048h184v-1717h16l1213 1717h182v-2048h-187v1715h-16l-1211 -1715h-181v2048zM1253 2560h168q0 -143 -94.5 -232t-257.5 -89q-161 0 -255 89t-94 232h168q0 -78 42.5 -131.5t138.5 -53.5t140 53.5t44 131.5zM2045 123v-156q-1 -79 -16 -155t-43 -149.5t-70 -145.5
l-154 34q30 73 53.5 141t37 135t13.5 137v159h179z" />
    <glyph glyph-name="uni0376" unicode="&#x376;" horiz-adv-x="2099" 
d="M253 2048h184v-1717h16l1213 1717h182v-2048h-187v1715h-16l-1211 -1715h-181v2048z" />
    <glyph glyph-name="uni039D" unicode="&#x39d;" horiz-adv-x="2139" 
d="M1867 2048v-2048h-182l-1210 1715h-16v-1715h-187v2048h181l1214 -1717h16v1717h184z" />
    <glyph glyph-name="uni01CB" unicode="&#x1cb;" horiz-adv-x="2761" 
d="M1867 2048v-2048h-182l-1210 1715h-16v-1715h-187v2048h181l1214 -1717h16v1717h184zM2345 1536h179v-1685q0 -131 -48.5 -226.5t-140.5 -148t-222 -52.5h-20t-22 1l2 167h19h19q110 0 172 68t62 191v1685zM2433 1800q-54 0 -93.5 37.5t-39.5 90.5t39.5 90.5t93.5 37.5
q55 0 94.5 -37.5t39.5 -90.5t-39.5 -90.5t-94.5 -37.5z" />
    <glyph glyph-name="uni004F" unicode="O" horiz-adv-x="2131" 
d="M1951 1024q0 -320 -114 -556.5t-313.5 -366t-458.5 -129.5t-458.5 129.5t-313 366t-113.5 556.5t113.5 556.5t313.5 366t458 129.5q259 0 458.5 -129.5t313.5 -366t114 -556.5zM1769 1024q0 275 -92 471.5t-251 300.5t-361 104q-201 0 -360 -104t-251.5 -300t-92.5 -472
q0 -275 92 -471t251 -300.5t361 -104.5t361.5 104t251.5 300.5t91 471.5z" />
    <glyph glyph-name="uni00D6" unicode="&#xd6;" horiz-adv-x="2131" 
d="M1951 1024q0 -320 -114 -556.5t-313.5 -366t-458.5 -129.5t-458.5 129.5t-313 366t-113.5 556.5t113.5 556.5t313.5 366t458 129.5q259 0 458.5 -129.5t313.5 -366t114 -556.5zM1769 1024q0 275 -92 471.5t-251 300.5t-361 104q-201 0 -360 -104t-251.5 -300t-92.5 -472
q0 -275 92 -471t251 -300.5t361 -104.5t361.5 104t251.5 300.5t91 471.5zM809 2312q-51 0 -89.5 38.5t-38.5 89.5q0 55 38.5 91.5t89.5 36.5q55 0 91.5 -36.5t36.5 -91.5q0 -51 -36.5 -89.5t-91.5 -38.5zM1321 2312q-51 0 -89.5 38.5t-38.5 89.5q0 55 38.5 91.5t89.5 36.5
q55 0 91.5 -36.5t36.5 -91.5q0 -51 -36.5 -89.5t-91.5 -38.5z" />
    <glyph glyph-name="uni00D5" unicode="&#xd5;" horiz-adv-x="2131" 
d="M1951 1024q0 -320 -114 -556.5t-313.5 -366t-458.5 -129.5t-458.5 129.5t-313 366t-113.5 556.5t113.5 556.5t313.5 366t458 129.5q259 0 458.5 -129.5t313.5 -366t114 -556.5zM1769 1024q0 275 -92 471.5t-251 300.5t-361 104q-201 0 -360 -104t-251.5 -300t-92.5 -472
q0 -275 92 -471t251 -300.5t361 -104.5t361.5 104t251.5 300.5t91 471.5zM728 2283l-144 8q5 133 88 218t203 85q61 0 107 -21.5t86.5 -49t83 -48.5t96.5 -21q61 0 106.5 44t51.5 109l141 -16q-7 -134 -90.5 -214.5t-200.5 -80.5q-67 0 -112.5 21.5t-82 49t-78 48.5
t-100.5 21q-64 0 -107.5 -44t-47.5 -109z" />
    <glyph glyph-name="uni00D8" unicode="&#xd8;" horiz-adv-x="2131" 
d="M417 -72l-118 81l1409 2108l119 -81zM1951 1024q0 -320 -114 -556.5t-313.5 -366t-458.5 -129.5t-458.5 129.5t-313 366t-113.5 556.5t113.5 556.5t313.5 366t458 129.5q259 0 458.5 -129.5t313.5 -366t114 -556.5zM1769 1024q0 275 -92 471.5t-251 300.5t-361 104
q-201 0 -360 -104t-251.5 -300t-92.5 -472q0 -275 92 -471t251 -300.5t361 -104.5t361.5 104t251.5 300.5t91 471.5z" />
    <glyph glyph-name="uni01A0" unicode="&#x1a0;" horiz-adv-x="2143" 
d="M1896 2199h179q0 -243 -116 -374t-355 -144v152q156 14 224 104.5t68 261.5zM1951 1024q0 -320 -114 -556.5t-313.5 -366t-458.5 -129.5t-458.5 129.5t-313 366t-113.5 556.5t113.5 556.5t313.5 366t458 129.5q259 0 458.5 -129.5t313.5 -366t114 -556.5zM1769 1024
q0 275 -92 471.5t-251 300.5t-361 104q-201 0 -360 -104t-251.5 -300t-92.5 -472q0 -275 92 -471t251 -300.5t361 -104.5t361.5 104t251.5 300.5t91 471.5z" />
    <glyph glyph-name="uni00D2" unicode="&#xd2;" horiz-adv-x="2131" 
d="M1951 1024q0 -320 -114 -556.5t-313.5 -366t-458.5 -129.5t-458.5 129.5t-313 366t-113.5 556.5t113.5 556.5t313.5 366t458 129.5q259 0 458.5 -129.5t313.5 -366t114 -556.5zM1769 1024q0 275 -92 471.5t-251 300.5t-361 104q-201 0 -360 -104t-251.5 -300t-92.5 -472
q0 -275 92 -471t251 -300.5t361 -104.5t361.5 104t251.5 300.5t91 471.5zM989 2261l-307 454h211l256 -454h-160z" />
    <glyph glyph-name="uni00D3" unicode="&#xd3;" horiz-adv-x="2131" 
d="M1951 1024q0 -320 -114 -556.5t-313.5 -366t-458.5 -129.5t-458.5 129.5t-313 366t-113.5 556.5t113.5 556.5t313.5 366t458 129.5q259 0 458.5 -129.5t313.5 -366t114 -556.5zM1769 1024q0 275 -92 471.5t-251 300.5t-361 104q-201 0 -360 -104t-251.5 -300t-92.5 -472
q0 -275 92 -471t251 -300.5t361 -104.5t361.5 104t251.5 300.5t91 471.5zM982 2261l256 454h211l-307 -454h-160z" />
    <glyph glyph-name="uni00D4" unicode="&#xd4;" horiz-adv-x="2131" 
d="M1951 1024q0 -320 -114 -556.5t-313.5 -366t-458.5 -129.5t-458.5 129.5t-313 366t-113.5 556.5t113.5 556.5t313.5 366t458 129.5q259 0 458.5 -129.5t313.5 -366t114 -556.5zM1769 1024q0 275 -92 471.5t-251 300.5t-361 104q-201 0 -360 -104t-251.5 -300t-92.5 -472
q0 -275 92 -471t251 -300.5t361 -104.5t361.5 104t251.5 300.5t91 471.5zM826 2224h-174v13l338 403h150l338 -403v-13h-174l-239 289z" />
    <glyph glyph-name="uni014C" unicode="&#x14c;" horiz-adv-x="2131" 
d="M1951 1024q0 -320 -114 -556.5t-313.5 -366t-458.5 -129.5t-458.5 129.5t-313 366t-113.5 556.5t113.5 556.5t313.5 366t458 129.5q259 0 458.5 -129.5t313.5 -366t114 -556.5zM1769 1024q0 275 -92 471.5t-251 300.5t-361 104q-201 0 -360 -104t-251.5 -300t-92.5 -472
q0 -275 92 -471t251 -300.5t361 -104.5t361.5 104t251.5 300.5t91 471.5zM1484 2515v-155h-837v155h837z" />
    <glyph glyph-name="uni014E" unicode="&#x14e;" horiz-adv-x="2131" 
d="M1951 1024q0 -320 -114 -556.5t-313.5 -366t-458.5 -129.5t-458.5 129.5t-313 366t-113.5 556.5t113.5 556.5t313.5 366t458 129.5q259 0 458.5 -129.5t313.5 -366t114 -556.5zM1769 1024q0 275 -92 471.5t-251 300.5t-361 104q-201 0 -360 -104t-251.5 -300t-92.5 -472
q0 -275 92 -471t251 -300.5t361 -104.5t361.5 104t251.5 300.5t91 471.5zM1249 2560h168q0 -143 -94.5 -232t-257.5 -89q-161 0 -255 89t-94 232h168q0 -78 42.5 -131.5t138.5 -53.5t140 53.5t44 131.5z" />
    <glyph glyph-name="uni0150" unicode="&#x150;" horiz-adv-x="2131" 
d="M1951 1024q0 -320 -114 -556.5t-313.5 -366t-458.5 -129.5t-458.5 129.5t-313 366t-113.5 556.5t113.5 556.5t313.5 366t458 129.5q259 0 458.5 -129.5t313.5 -366t114 -556.5zM1769 1024q0 275 -92 471.5t-251 300.5t-361 104q-201 0 -360 -104t-251.5 -300t-92.5 -472
q0 -275 92 -471t251 -300.5t361 -104.5t361.5 104t251.5 300.5t91 471.5zM1122 2213l325 427h203l-368 -427h-160zM749 2213l243 427h200l-296 -427h-147z" />
    <glyph glyph-name="uni01D1" unicode="&#x1d1;" horiz-adv-x="2131" 
d="M1951 1024q0 -320 -114 -556.5t-313.5 -366t-458.5 -129.5t-458.5 129.5t-313 366t-113.5 556.5t113.5 556.5t313.5 366t458 129.5q259 0 458.5 -129.5t313.5 -366t114 -556.5zM1769 1024q0 275 -92 471.5t-251 300.5t-361 104q-201 0 -360 -104t-251.5 -300t-92.5 -472
q0 -275 92 -471t251 -300.5t361 -104.5t361.5 104t251.5 300.5t91 471.5zM826 2658l239 -290l239 290h174v-14l-338 -402h-150l-338 402v14h174z" />
    <glyph glyph-name="uni01EA" unicode="&#x1ea;" horiz-adv-x="2131" 
d="M1951 1024q0 -320 -114 -556.5t-313.5 -366t-458.5 -129.5t-458.5 129.5t-313 366t-113.5 556.5t113.5 556.5t313.5 366t458 129.5q259 0 458.5 -129.5t313.5 -366t114 -556.5zM1769 1024q0 275 -92 471.5t-251 300.5t-361 104q-201 0 -360 -104t-251.5 -300t-92.5 -472
q0 -275 92 -471t251 -300.5t361 -104.5t361.5 104t251.5 300.5t91 471.5zM1070 -608q-116 0 -192 65t-76 189q0 74 33.5 144t103 135.5t179.5 125.5l94 -56q-95 -78 -161.5 -157t-66.5 -170q0 -60 30.5 -90.5t95.5 -30.5q45 0 79.5 12.5t60.5 28.5l23 -134
q-36 -25 -86.5 -43.5t-116.5 -18.5z" />
    <glyph glyph-name="uni01EC" unicode="&#x1ec;" horiz-adv-x="2131" 
d="M1951 1024q0 -320 -114 -556.5t-313.5 -366t-458.5 -129.5t-458.5 129.5t-313 366t-113.5 556.5t113.5 556.5t313.5 366t458 129.5q259 0 458.5 -129.5t313.5 -366t114 -556.5zM1769 1024q0 275 -92 471.5t-251 300.5t-361 104q-201 0 -360 -104t-251.5 -300t-92.5 -472
q0 -275 92 -471t251 -300.5t361 -104.5t361.5 104t251.5 300.5t91 471.5zM1070 -608q-116 0 -192 65t-76 189q0 74 33.5 144t103 135.5t179.5 125.5l94 -56q-95 -78 -161.5 -157t-66.5 -170q0 -60 30.5 -90.5t95.5 -30.5q45 0 79.5 12.5t60.5 28.5l23 -134
q-36 -25 -86.5 -43.5t-116.5 -18.5zM1484 2515v-155h-837v155h837z" />
    <glyph glyph-name="uni020C" unicode="&#x20c;" horiz-adv-x="2131" 
d="M1951 1024q0 -320 -114 -556.5t-313.5 -366t-458.5 -129.5t-458.5 129.5t-313 366t-113.5 556.5t113.5 556.5t313.5 366t458 129.5q259 0 458.5 -129.5t313.5 -366t114 -556.5zM1769 1024q0 275 -92 471.5t-251 300.5t-361 104q-201 0 -360 -104t-251.5 -300t-92.5 -472
q0 -275 92 -471t251 -300.5t361 -104.5t361.5 104t251.5 300.5t91 471.5zM817 2261l-325 454h223l262 -454h-160zM1173 2261l-247 454h226l180 -454h-159z" />
    <glyph glyph-name="uni020E" unicode="&#x20e;" horiz-adv-x="2131" 
d="M1951 1024q0 -320 -114 -556.5t-313.5 -366t-458.5 -129.5t-458.5 129.5t-313 366t-113.5 556.5t113.5 556.5t313.5 366t458 129.5q259 0 458.5 -129.5t313.5 -366t114 -556.5zM1769 1024q0 275 -92 471.5t-251 300.5t-361 104q-201 0 -360 -104t-251.5 -300t-92.5 -472
q0 -275 92 -471t251 -300.5t361 -104.5t361.5 104t251.5 300.5t91 471.5zM716 2338q0 144 94.5 234t257.5 90t256 -90t93 -234h-168q0 81 -43.5 134.5t-137.5 53.5q-98 0 -141 -54.5t-43 -133.5h-168z" />
    <glyph glyph-name="uni022A" unicode="&#x22a;" horiz-adv-x="2131" 
d="M1951 1024q0 -320 -114 -556.5t-313.5 -366t-458.5 -129.5t-458.5 129.5t-313 366t-113.5 556.5t113.5 556.5t313.5 366t458 129.5q259 0 458.5 -129.5t313.5 -366t114 -556.5zM1769 1024q0 275 -92 471.5t-251 300.5t-361 104q-201 0 -360 -104t-251.5 -300t-92.5 -472
q0 -275 92 -471t251 -300.5t361 -104.5t361.5 104t251.5 300.5t91 471.5zM810 2312q-51 0 -89.5 38.5t-38.5 89.5q0 55 38.5 91.5t89.5 36.5q55 0 91.5 -36.5t36.5 -91.5q0 -51 -36.5 -89.5t-91.5 -38.5zM1322 2312q-51 0 -89.5 38.5t-38.5 89.5q0 55 38.5 91.5t89.5 36.5
q55 0 91.5 -36.5t36.5 -91.5q0 -51 -36.5 -89.5t-91.5 -38.5zM1485 2986v-155h-837v155h837z" />
    <glyph glyph-name="uni022C" unicode="&#x22c;" horiz-adv-x="2131" 
d="M1951 1024q0 -320 -114 -556.5t-313.5 -366t-458.5 -129.5t-458.5 129.5t-313 366t-113.5 556.5t113.5 556.5t313.5 366t458 129.5q259 0 458.5 -129.5t313.5 -366t114 -556.5zM1769 1024q0 275 -92 471.5t-251 300.5t-361 104q-201 0 -360 -104t-251.5 -300t-92.5 -472
q0 -275 92 -471t251 -300.5t361 -104.5t361.5 104t251.5 300.5t91 471.5zM1330 2535l99 -24q-3 -94 -62 -162.5t-151 -69.5q-71 0 -116 29.5t-85 59t-98 29.5q-47 0 -78.5 -39.5t-34.5 -88.5l-99 24q3 92 62.5 163t150.5 71q65 0 110 -28.5t88 -57.5t99 -28q46 0 79 35.5
t36 86.5zM1483 2835v-160h-840v160h840z" />
    <glyph glyph-name="uni022E" unicode="&#x22e;" horiz-adv-x="2131" 
d="M1951 1024q0 -320 -114 -556.5t-313.5 -366t-458.5 -129.5t-458.5 129.5t-313 366t-113.5 556.5t113.5 556.5t313.5 366t458 129.5q259 0 458.5 -129.5t313.5 -366t114 -556.5zM1769 1024q0 275 -92 471.5t-251 300.5t-361 104q-201 0 -360 -104t-251.5 -300t-92.5 -472
q0 -275 92 -471t251 -300.5t361 -104.5t361.5 104t251.5 300.5t91 471.5zM1065 2312q-54 0 -93.5 37.5t-39.5 90.5t39.5 90.5t93.5 37.5q55 0 94.5 -37.5t39.5 -90.5t-39.5 -90.5t-94.5 -37.5z" />
    <glyph glyph-name="uni0230" unicode="&#x230;" horiz-adv-x="2131" 
d="M1951 1024q0 -320 -114 -556.5t-313.5 -366t-458.5 -129.5t-458.5 129.5t-313 366t-113.5 556.5t113.5 556.5t313.5 366t458 129.5q259 0 458.5 -129.5t313.5 -366t114 -556.5zM1769 1024q0 275 -92 471.5t-251 300.5t-361 104q-201 0 -360 -104t-251.5 -300t-92.5 -472
q0 -275 92 -471t251 -300.5t361 -104.5t361.5 104t251.5 300.5t91 471.5zM1065 2235q-54 0 -93.5 37.5t-39.5 90.5t39.5 90.5t93.5 37.5q55 0 94.5 -37.5t39.5 -90.5t-39.5 -90.5t-94.5 -37.5zM1460 2840v-155h-837v155h837z" />
    <glyph glyph-name="uni1E4C" unicode="&#x1e4c;" horiz-adv-x="2131" 
d="M1951 1024q0 -320 -114 -556.5t-313.5 -366t-458.5 -129.5t-458.5 129.5t-313 366t-113.5 556.5t113.5 556.5t313.5 366t458 129.5q259 0 458.5 -129.5t313.5 -366t114 -556.5zM1769 1024q0 275 -92 471.5t-251 300.5t-361 104q-201 0 -360 -104t-251.5 -300t-92.5 -472
q0 -275 92 -471t251 -300.5t361 -104.5t361.5 104t251.5 300.5t91 471.5zM963 2624l274 288h214l-324 -288h-164zM727 2236l-144 8q5 133 88 218t203 85q61 0 107 -21.5t86.5 -49t83 -48.5t96.5 -21q61 0 106.5 44t51.5 109l141 -16q-7 -134 -90.5 -214.5t-200.5 -80.5
q-67 0 -112.5 21.5t-82 49t-78 48.5t-100.5 21q-64 0 -107.5 -44t-47.5 -109z" />
    <glyph glyph-name="uni1E4E" unicode="&#x1e4e;" horiz-adv-x="2131" 
d="M1951 1024q0 -320 -114 -556.5t-313.5 -366t-458.5 -129.5t-458.5 129.5t-313 366t-113.5 556.5t113.5 556.5t313.5 366t458 129.5q259 0 458.5 -129.5t313.5 -366t114 -556.5zM1769 1024q0 275 -92 471.5t-251 300.5t-361 104q-201 0 -360 -104t-251.5 -300t-92.5 -472
q0 -275 92 -471t251 -300.5t361 -104.5t361.5 104t251.5 300.5t91 471.5zM1323 2557l100 -24q-4 -94 -63 -163t-151 -69q-71 0 -115.5 29t-85 58.5t-97.5 29.5q-47 0 -78.5 -38t-35.5 -90l-99 24q3 92 61.5 163.5t151.5 71.5q65 0 110.5 -29t88.5 -57.5t99 -28.5
q46 0 78.5 36.5t35.5 86.5zM639 2771q0 50 32 86t93 36t94.5 -35t33.5 -87q0 -51 -33.5 -85.5t-94.5 -34.5q-59 0 -92 34.5t-33 85.5zM1243 2769q0 52 33.5 88t94.5 36q58 0 91.5 -36t33.5 -86q0 -51 -32.5 -87t-93.5 -36q-60 0 -93.5 35t-33.5 86z" />
    <glyph glyph-name="uni1E50" unicode="&#x1e50;" horiz-adv-x="2131" 
d="M1951 1024q0 -320 -114 -556.5t-313.5 -366t-458.5 -129.5t-458.5 129.5t-313 366t-113.5 556.5t113.5 556.5t313.5 366t458 129.5q259 0 458.5 -129.5t313.5 -366t114 -556.5zM1769 1024q0 275 -92 471.5t-251 300.5t-361 104q-201 0 -360 -104t-251.5 -300t-92.5 -472
q0 -275 92 -471t251 -300.5t361 -104.5t361.5 104t251.5 300.5t91 471.5zM986 2603l-311 288h220l279 -288h-188zM1484 2448v-155h-837v155h837z" />
    <glyph glyph-name="uni1E52" unicode="&#x1e52;" horiz-adv-x="2131" 
d="M1951 1024q0 -320 -114 -556.5t-313.5 -366t-458.5 -129.5t-458.5 129.5t-313 366t-113.5 556.5t113.5 556.5t313.5 366t458 129.5q259 0 458.5 -129.5t313.5 -366t114 -556.5zM1769 1024q0 275 -92 471.5t-251 300.5t-361 104q-201 0 -360 -104t-251.5 -300t-92.5 -472
q0 -275 92 -471t251 -300.5t361 -104.5t361.5 104t251.5 300.5t91 471.5zM958 2603l279 288h220l-311 -288h-188zM1484 2448v-155h-837v155h837z" />
    <glyph glyph-name="uni1ECC" unicode="&#x1ecc;" horiz-adv-x="2131" 
d="M1951 1024q0 -320 -114 -556.5t-313.5 -366t-458.5 -129.5t-458.5 129.5t-313 366t-113.5 556.5t113.5 556.5t313.5 366t458 129.5q259 0 458.5 -129.5t313.5 -366t114 -556.5zM1769 1024q0 275 -92 471.5t-251 300.5t-361 104q-201 0 -360 -104t-251.5 -300t-92.5 -472
q0 -275 92 -471t251 -300.5t361 -104.5t361.5 104t251.5 300.5t91 471.5zM1065 -491q-54 0 -93.5 37.5t-39.5 90.5t39.5 90.5t93.5 37.5q55 0 94.5 -37.5t39.5 -90.5t-39.5 -90.5t-94.5 -37.5z" />
    <glyph glyph-name="uni1ECE" unicode="&#x1ece;" horiz-adv-x="2131" 
d="M1951 1024q0 -320 -114 -556.5t-313.5 -366t-458.5 -129.5t-458.5 129.5t-313 366t-113.5 556.5t113.5 556.5t313.5 366t458 129.5q259 0 458.5 -129.5t313.5 -366t114 -556.5zM1769 1024q0 275 -92 471.5t-251 300.5t-361 104q-201 0 -360 -104t-251.5 -300t-92.5 -472
q0 -275 92 -471t251 -300.5t361 -104.5t361.5 104t251.5 300.5t91 471.5zM1144 2252h-152v209q109 6 153 33t44 85q0 66 -61.5 96.5t-163.5 31.5l9 122q189 0 284.5 -69t95.5 -184q0 -100 -62.5 -150.5t-146.5 -60.5v-113z" />
    <glyph glyph-name="uni1ED0" unicode="&#x1ed0;" horiz-adv-x="2131" 
d="M1951 1024q0 -320 -114 -556.5t-313.5 -366t-458.5 -129.5t-458.5 129.5t-313 366t-113.5 556.5t113.5 556.5t313.5 366t458 129.5q259 0 458.5 -129.5t313.5 -366t114 -556.5zM1769 1024q0 275 -92 471.5t-251 300.5t-361 104q-201 0 -360 -104t-251.5 -300t-92.5 -472
q0 -275 92 -471t251 -300.5t361 -104.5t361.5 104t251.5 300.5t91 471.5zM728 2380l397 115h119l172 -140l-292 -103l-180 142l-27 -14h-189zM1464 2498l210 357h222l-272 -357h-160z" />
    <glyph glyph-name="uni1ED2" unicode="&#x1ed2;" horiz-adv-x="2131" 
d="M1951 1024q0 -320 -114 -556.5t-313.5 -366t-458.5 -129.5t-458.5 129.5t-313 366t-113.5 556.5t113.5 556.5t313.5 366t458 129.5q259 0 458.5 -129.5t313.5 -366t114 -556.5zM1769 1024q0 275 -92 471.5t-251 300.5t-361 104q-201 0 -360 -104t-251.5 -300t-92.5 -472
q0 -275 92 -471t251 -300.5t361 -104.5t361.5 104t251.5 300.5t91 471.5zM1141 2637l397 -370h-220l-252 244l-252 -244h-220l395 370h152zM475 2872l201 -360h-157l-268 360h224z" />
    <glyph glyph-name="uni1ED4" unicode="&#x1ed4;" horiz-adv-x="2131" 
d="M1951 1024q0 -320 -114 -556.5t-313.5 -366t-458.5 -129.5t-458.5 129.5t-313 366t-113.5 556.5t113.5 556.5t313.5 366t458 129.5q259 0 458.5 -129.5t313.5 -366t114 -556.5zM1769 1024q0 275 -92 471.5t-251 300.5t-361 104q-201 0 -360 -104t-251.5 -300t-92.5 -472
q0 -275 92 -471t251 -300.5t361 -104.5t361.5 104t251.5 300.5t91 471.5zM1160 2589l379 -371h-193l-282 271l-278 -271h-194l379 371h189zM1596 2412h-134v176q94 7 136 28.5t42 72.5q0 58 -55.5 84t-150.5 27l9 109q171 0 256.5 -61t86.5 -159q0 -87 -56.5 -132
t-133.5 -54v-91z" />
    <glyph glyph-name="uni1ED6" unicode="&#x1ed6;" horiz-adv-x="2131" 
d="M1951 1024q0 -320 -114 -556.5t-313.5 -366t-458.5 -129.5t-458.5 129.5t-313 366t-113.5 556.5t113.5 556.5t313.5 366t458 129.5q259 0 458.5 -129.5t313.5 -366t114 -556.5zM1769 1024q0 275 -92 471.5t-251 300.5t-361 104q-201 0 -360 -104t-251.5 -300t-92.5 -472
q0 -275 92 -471t251 -300.5t361 -104.5t361.5 104t251.5 300.5t91 471.5zM1122 2534l406 -352h-194l-278 244l-279 -244h-193l405 352h133zM1327 2877l96 -24q-5 -87 -71 -151t-156 -64q-53 0 -90 18t-66 41.5t-59.5 41.5t-72.5 18q-46 0 -86.5 -34.5t-44.5 -84.5l-93 22
q5 87 69.5 152t153.5 65q46 0 82 -17.5t67.5 -40t65 -40.5t74.5 -18q46 0 86.5 33.5t44.5 82.5z" />
    <glyph glyph-name="uni1ED8" unicode="&#x1ed8;" horiz-adv-x="2131" 
d="M1951 1024q0 -320 -114 -556.5t-313.5 -366t-458.5 -129.5t-458.5 129.5t-313 366t-113.5 556.5t113.5 556.5t313.5 366t458 129.5q259 0 458.5 -129.5t313.5 -366t114 -556.5zM1769 1024q0 275 -92 471.5t-251 300.5t-361 104q-201 0 -360 -104t-251.5 -300t-92.5 -472
q0 -275 92 -471t251 -300.5t361 -104.5t361.5 104t251.5 300.5t91 471.5zM826 2224h-174v13l338 403h150l338 -403v-13h-174l-239 289zM1065 -491q-54 0 -93.5 37.5t-39.5 90.5t39.5 90.5t93.5 37.5q55 0 94.5 -37.5t39.5 -90.5t-39.5 -90.5t-94.5 -37.5z" />
    <glyph glyph-name="uni1EDA" unicode="&#x1eda;" horiz-adv-x="2143" 
d="M1896 2199h179q0 -243 -116 -374t-355 -144v152q156 14 224 104.5t68 261.5zM1951 1024q0 -320 -114 -556.5t-313.5 -366t-458.5 -129.5t-458.5 129.5t-313 366t-113.5 556.5t113.5 556.5t313.5 366t458 129.5q259 0 458.5 -129.5t313.5 -366t114 -556.5zM1769 1024
q0 275 -92 471.5t-251 300.5t-361 104q-201 0 -360 -104t-251.5 -300t-92.5 -472q0 -275 92 -471t251 -300.5t361 -104.5t361.5 104t251.5 300.5t91 471.5zM982 2261l256 454h211l-307 -454h-160z" />
    <glyph glyph-name="uni1EDC" unicode="&#x1edc;" horiz-adv-x="2143" 
d="M1896 2199h179q0 -243 -116 -374t-355 -144v152q156 14 224 104.5t68 261.5zM1951 1024q0 -320 -114 -556.5t-313.5 -366t-458.5 -129.5t-458.5 129.5t-313 366t-113.5 556.5t113.5 556.5t313.5 366t458 129.5q259 0 458.5 -129.5t313.5 -366t114 -556.5zM1769 1024
q0 275 -92 471.5t-251 300.5t-361 104q-201 0 -360 -104t-251.5 -300t-92.5 -472q0 -275 92 -471t251 -300.5t361 -104.5t361.5 104t251.5 300.5t91 471.5zM989 2261l-307 454h211l256 -454h-160z" />
    <glyph glyph-name="uni1EDE" unicode="&#x1ede;" horiz-adv-x="2143" 
d="M1896 2199h179q0 -243 -116 -374t-355 -144v152q156 14 224 104.5t68 261.5zM1951 1024q0 -320 -114 -556.5t-313.5 -366t-458.5 -129.5t-458.5 129.5t-313 366t-113.5 556.5t113.5 556.5t313.5 366t458 129.5q259 0 458.5 -129.5t313.5 -366t114 -556.5zM1769 1024
q0 275 -92 471.5t-251 300.5t-361 104q-201 0 -360 -104t-251.5 -300t-92.5 -472q0 -275 92 -471t251 -300.5t361 -104.5t361.5 104t251.5 300.5t91 471.5zM1144 2252h-152v209q109 6 153 33t44 85q0 66 -61.5 96.5t-163.5 31.5l9 122q189 0 284.5 -69t95.5 -184
q0 -100 -62.5 -150.5t-146.5 -60.5v-113z" />
    <glyph glyph-name="uni1EE0" unicode="&#x1ee0;" horiz-adv-x="2143" 
d="M1896 2199h179q0 -243 -116 -374t-355 -144v152q156 14 224 104.5t68 261.5zM1951 1024q0 -320 -114 -556.5t-313.5 -366t-458.5 -129.5t-458.5 129.5t-313 366t-113.5 556.5t113.5 556.5t313.5 366t458 129.5q259 0 458.5 -129.5t313.5 -366t114 -556.5zM1769 1024
q0 275 -92 471.5t-251 300.5t-361 104q-201 0 -360 -104t-251.5 -300t-92.5 -472q0 -275 92 -471t251 -300.5t361 -104.5t361.5 104t251.5 300.5t91 471.5zM728 2260l-144 8q5 133 88 218t203 85q61 0 107 -21.5t86.5 -49t83 -48.5t96.5 -21q61 0 106.5 44t51.5 109l141 -16
q-7 -134 -90.5 -214.5t-200.5 -80.5q-67 0 -112.5 21.5t-82 49t-78 48.5t-100.5 21q-64 0 -107.5 -44t-47.5 -109z" />
    <glyph glyph-name="uni1EE2" unicode="&#x1ee2;" horiz-adv-x="2143" 
d="M1896 2199h179q0 -243 -116 -374t-355 -144v152q156 14 224 104.5t68 261.5zM1951 1024q0 -320 -114 -556.5t-313.5 -366t-458.5 -129.5t-458.5 129.5t-313 366t-113.5 556.5t113.5 556.5t313.5 366t458 129.5q259 0 458.5 -129.5t313.5 -366t114 -556.5zM1769 1024
q0 275 -92 471.5t-251 300.5t-361 104q-201 0 -360 -104t-251.5 -300t-92.5 -472q0 -275 92 -471t251 -300.5t361 -104.5t361.5 104t251.5 300.5t91 471.5zM1065 -491q-54 0 -93.5 37.5t-39.5 90.5t39.5 90.5t93.5 37.5q55 0 94.5 -37.5t39.5 -90.5t-39.5 -90.5t-94.5 -37.5
z" />
    <glyph glyph-name="uni01FE" unicode="&#x1fe;" horiz-adv-x="2131" 
d="M417 -72l-118 81l1409 2108l119 -81zM1951 1024q0 -320 -114 -556.5t-313.5 -366t-458.5 -129.5t-458.5 129.5t-313 366t-113.5 556.5t113.5 556.5t313.5 366t458 129.5q259 0 458.5 -129.5t313.5 -366t114 -556.5zM1769 1024q0 275 -92 471.5t-251 300.5t-361 104
q-201 0 -360 -104t-251.5 -300t-92.5 -472q0 -275 92 -471t251 -300.5t361 -104.5t361.5 104t251.5 300.5t91 471.5zM982 2261l256 454h211l-307 -454h-160z" />
    <glyph glyph-name="uni039F" unicode="&#x39f;" horiz-adv-x="2131" 
d="M1951 1024q0 -320 -114 -556.5t-313.5 -366t-458.5 -129.5t-458.5 129.5t-313 366t-113.5 556.5t113.5 556.5t313.5 366t458 129.5q259 0 458.5 -129.5t313.5 -366t114 -556.5zM1769 1024q0 275 -92 471.5t-251 300.5t-361 104q-201 0 -360 -104t-251.5 -300t-92.5 -472
q0 -275 92 -471t251 -300.5t361 -104.5t361.5 104t251.5 300.5t91 471.5z" />
    <glyph glyph-name="uni038C" unicode="&#x38c;" horiz-adv-x="2178" 
d="M1982 1024q0 -320 -114 -556.5t-313.5 -366t-458.5 -129.5t-458.5 129.5t-313 366t-113.5 556.5t113.5 556.5t313.5 366t458 129.5q259 0 458.5 -129.5t313.5 -366t114 -556.5zM1800 1024q0 275 -92 471.5t-251 300.5t-361 104q-201 0 -360 -104t-251.5 -300t-92.5 -472
q0 -275 92 -471t251 -300.5t361 -104.5t361.5 104t251.5 300.5t91 471.5zM-6 1704l58 465h198l-131 -465h-125z" />
    <glyph glyph-name="uni1F48" unicode="&#x1f48;" horiz-adv-x="2294" 
d="M2096 1024q0 -320 -114 -556.5t-313.5 -366t-458.5 -129.5t-458.5 129.5t-313 366t-113.5 556.5t113.5 556.5t313.5 366t458 129.5q259 0 458.5 -129.5t313.5 -366t114 -556.5zM1914 1024q0 275 -92 471.5t-251 300.5t-361 104q-201 0 -360 -104t-251.5 -300t-92.5 -472
q0 -275 92 -471t251 -300.5t361 -104.5t361.5 104t251.5 300.5t91 471.5zM314 2048v-92q0 -83 -24.5 -154t-75 -132t-128.5 -115l-88 64q47 53 75.5 104.5t41 109.5t12.5 131v84h187z" />
    <glyph glyph-name="uni1F49" unicode="&#x1f49;" horiz-adv-x="2390" 
d="M2194 1024q0 -320 -114 -556.5t-313.5 -366t-458.5 -129.5t-458.5 129.5t-313 366t-113.5 556.5t113.5 556.5t313.5 366t458 129.5q259 0 458.5 -129.5t313.5 -366t114 -556.5zM2012 1024q0 275 -92 471.5t-251 300.5t-361 104q-201 0 -360 -104t-251.5 -300t-92.5 -472
q0 -275 92 -471t251 -300.5t361 -104.5t361.5 104t251.5 300.5t91 471.5zM135 1959v92h186v-84q0 -73 12.5 -131t41 -109.5t75.5 -105.5l-87 -63q-116 80 -172 178t-56 223z" />
    <glyph glyph-name="uni1F4A" unicode="&#x1f4a;" horiz-adv-x="2862" 
d="M2666 1024q0 -320 -114 -556.5t-313.5 -366t-458.5 -129.5t-458.5 129.5t-313 366t-113.5 556.5t113.5 556.5t313.5 366t458 129.5q259 0 458.5 -129.5t313.5 -366t114 -556.5zM2484 1024q0 275 -92 471.5t-251 300.5t-361 104q-201 0 -360 -104t-251.5 -300t-92.5 -472
q0 -275 92 -471t251 -300.5t361 -104.5t361.5 104t251.5 300.5t91 471.5zM789 1603v-19h-101l-306 439v25h215zM318 2048v-92q0 -83 -24.5 -154t-75.5 -132t-128 -115l-87 64q69 80 99 158t30 187v84h186z" />
    <glyph glyph-name="uni1F4B" unicode="&#x1f4b;" horiz-adv-x="2703" 
d="M2507 1024q0 -320 -114 -556.5t-313.5 -366t-458.5 -129.5t-458.5 129.5t-313 366t-113.5 556.5t113.5 556.5t313.5 366t458 129.5q259 0 458.5 -129.5t313.5 -366t114 -556.5zM2325 1024q0 275 -92 471.5t-251 300.5t-361 104q-201 0 -360 -104t-251.5 -300t-92.5 -472
q0 -275 92 -471t251 -300.5t361 -104.5t361.5 104t251.5 300.5t91 471.5zM594 1606v-19h-101l-305 439v25h217zM-84 1959v92h187v-84q0 -109 29 -187t100 -159l-88 -63q-115 80 -171.5 177.5t-56.5 223.5z" />
    <glyph glyph-name="uni1F4C" unicode="&#x1f4c;" horiz-adv-x="2604" 
d="M2407 1024q0 -320 -114 -556.5t-313.5 -366t-458.5 -129.5t-458.5 129.5t-313 366t-113.5 556.5t113.5 556.5t313.5 366t458 129.5q259 0 458.5 -129.5t313.5 -366t114 -556.5zM2225 1024q0 275 -92 471.5t-251 300.5t-361 104q-201 0 -360 -104t-251.5 -300t-92.5 -472
q0 -275 92 -471t251 -300.5t361 -104.5t361.5 104t251.5 300.5t91 471.5zM317 1593l88 162l126 296l192 -6l-94 -168l-227 -290zM295 2051v-92q0 -84 -24.5 -155t-75.5 -132t-128 -114l-87 63q69 81 99 159t30 187v84h186z" />
    <glyph glyph-name="uni1F4D" unicode="&#x1f4d;" horiz-adv-x="2636" 
d="M2439 1024q0 -320 -114 -556.5t-313.5 -366t-458.5 -129.5t-458.5 129.5t-313 366t-113.5 556.5t113.5 556.5t313.5 366t458 129.5q259 0 458.5 -129.5t313.5 -366t114 -556.5zM2257 1024q0 275 -92 471.5t-251 300.5t-361 104q-201 0 -360 -104t-251.5 -300t-92.5 -472
q0 -275 92 -471t251 -300.5t361 -104.5t361.5 104t251.5 300.5t91 471.5zM348 1593l88 162l124 296l194 -6l-94 -168l-227 -290zM-16 1959v92h187v-84q0 -109 30 -187t99 -159l-88 -63q-115 80 -171.5 177.5t-56.5 223.5z" />
    <glyph glyph-name="uni1FF8" unicode="&#x1ff8;" horiz-adv-x="2434" 
d="M2238 1024q0 -320 -114 -556.5t-313.5 -366t-458.5 -129.5t-458.5 129.5t-313 366t-113.5 556.5t113.5 556.5t313.5 366t458 129.5q259 0 458.5 -129.5t313.5 -366t114 -556.5zM2056 1024q0 275 -92 471.5t-251 300.5t-361 104q-201 0 -360 -104t-251.5 -300t-92.5 -472
q0 -275 92 -471t251 -300.5t361 -104.5t361.5 104t251.5 300.5t91 471.5zM392 1586l-86 -6l-226 293l-95 168l192 6l127 -296z" />
    <glyph glyph-name="uni03F4" unicode="&#x3f4;" horiz-adv-x="2131" 
d="M1817 1106v-163q-149 -70 -277.5 -81.5t-245 11.5t-228.5 58.5t-228.5 62t-245 21t-277.5 -67.5v164q149 69 277.5 79.5t245 -13t228.5 -59.5t228.5 -61.5t245 -19.5t277.5 69zM1951 1024q0 -320 -114 -556.5t-313.5 -366t-458.5 -129.5t-458.5 129.5t-313 366
t-113.5 556.5t113.5 556.5t313.5 366t458 129.5q259 0 458.5 -129.5t313.5 -366t114 -556.5zM1769 1024q0 275 -92 471.5t-251 300.5t-361 104q-201 0 -360 -104t-251.5 -300t-92.5 -472q0 -275 92 -471t251 -300.5t361 -104.5t361.5 104t251.5 300.5t91 471.5z" />
    <glyph glyph-name="uni1FF9" unicode="&#x1ff9;" horiz-adv-x="2227" 
d="M2031 1024q0 -320 -114 -556.5t-313.5 -366t-458.5 -129.5t-458.5 129.5t-313 366t-113.5 556.5t113.5 556.5t313.5 366t458 129.5q259 0 458.5 -129.5t313.5 -366t114 -556.5zM1849 1024q0 275 -92 471.5t-251 300.5t-361 104q-201 0 -360 -104t-251.5 -300t-92.5 -472
q0 -275 92 -471t251 -300.5t361 -104.5t361.5 104t251.5 300.5t91 471.5zM146 1728v17l185 451h220v-20l-302 -448h-103z" />
    <glyph glyph-name="uni041E" unicode="&#x41e;" horiz-adv-x="2131" 
d="M1951 1024q0 -320 -114 -556.5t-313.5 -366t-458.5 -129.5t-458.5 129.5t-313 366t-113.5 556.5t113.5 556.5t313.5 366t458 129.5q259 0 458.5 -129.5t313.5 -366t114 -556.5zM1769 1024q0 275 -92 471.5t-251 300.5t-361 104q-201 0 -360 -104t-251.5 -300t-92.5 -472
q0 -275 92 -471t251 -300.5t361 -104.5t361.5 104t251.5 300.5t91 471.5z" />
    <glyph glyph-name="uni04E6" unicode="&#x4e6;" horiz-adv-x="2131" 
d="M1951 1024q0 -320 -114 -556.5t-313.5 -366t-458.5 -129.5t-458.5 129.5t-313 366t-113.5 556.5t113.5 556.5t313.5 366t458 129.5q259 0 458.5 -129.5t313.5 -366t114 -556.5zM1769 1024q0 275 -92 471.5t-251 300.5t-361 104q-201 0 -360 -104t-251.5 -300t-92.5 -472
q0 -275 92 -471t251 -300.5t361 -104.5t361.5 104t251.5 300.5t91 471.5zM809 2312q-51 0 -89.5 38.5t-38.5 89.5q0 55 38.5 91.5t89.5 36.5q55 0 91.5 -36.5t36.5 -91.5q0 -51 -36.5 -89.5t-91.5 -38.5zM1321 2312q-51 0 -89.5 38.5t-38.5 89.5q0 55 38.5 91.5t89.5 36.5
q55 0 91.5 -36.5t36.5 -91.5q0 -51 -36.5 -89.5t-91.5 -38.5z" />
    <glyph glyph-name="uni019F" unicode="&#x19f;" horiz-adv-x="2131" 
d="M1817 1106v-163q-149 -70 -277.5 -81.5t-245 11.5t-228.5 58.5t-228.5 62t-245 21t-277.5 -67.5v164q149 69 277.5 79.5t245 -13t228.5 -59.5t228.5 -61.5t245 -19.5t277.5 69zM1951 1024q0 -320 -114 -556.5t-313.5 -366t-458.5 -129.5t-458.5 129.5t-313 366
t-113.5 556.5t113.5 556.5t313.5 366t458 129.5q259 0 458.5 -129.5t313.5 -366t114 -556.5zM1769 1024q0 275 -92 471.5t-251 300.5t-361 104q-201 0 -360 -104t-251.5 -300t-92.5 -472q0 -275 92 -471t251 -300.5t361 -104.5t361.5 104t251.5 300.5t91 471.5z" />
    <glyph glyph-name="uni04E8" unicode="&#x4e8;" horiz-adv-x="2131" 
d="M1817 1106v-163q-149 -70 -277.5 -81.5t-245 11.5t-228.5 58.5t-228.5 62t-245 21t-277.5 -67.5v164q149 69 277.5 79.5t245 -13t228.5 -59.5t228.5 -61.5t245 -19.5t277.5 69zM1951 1024q0 -320 -114 -556.5t-313.5 -366t-458.5 -129.5t-458.5 129.5t-313 366
t-113.5 556.5t113.5 556.5t313.5 366t458 129.5q259 0 458.5 -129.5t313.5 -366t114 -556.5zM1769 1024q0 275 -92 471.5t-251 300.5t-361 104q-201 0 -360 -104t-251.5 -300t-92.5 -472q0 -275 92 -471t251 -300.5t361 -104.5t361.5 104t251.5 300.5t91 471.5z" />
    <glyph glyph-name="uni04EA" unicode="&#x4ea;" horiz-adv-x="2131" 
d="M1817 1106v-163q-149 -70 -277.5 -81.5t-245 11.5t-228.5 58.5t-228.5 62t-245 21t-277.5 -67.5v164q149 69 277.5 79.5t245 -13t228.5 -59.5t228.5 -61.5t245 -19.5t277.5 69zM1951 1024q0 -320 -114 -556.5t-313.5 -366t-458.5 -129.5t-458.5 129.5t-313 366
t-113.5 556.5t113.5 556.5t313.5 366t458 129.5q259 0 458.5 -129.5t313.5 -366t114 -556.5zM1769 1024q0 275 -92 471.5t-251 300.5t-361 104q-201 0 -360 -104t-251.5 -300t-92.5 -472q0 -275 92 -471t251 -300.5t361 -104.5t361.5 104t251.5 300.5t91 471.5zM809 2312
q-51 0 -89.5 38.5t-38.5 89.5q0 55 38.5 91.5t89.5 36.5q55 0 91.5 -36.5t36.5 -91.5q0 -51 -36.5 -89.5t-91.5 -38.5zM1321 2312q-51 0 -89.5 38.5t-38.5 89.5q0 55 38.5 91.5t89.5 36.5q55 0 91.5 -36.5t36.5 -91.5q0 -51 -36.5 -89.5t-91.5 -38.5z" />
    <glyph glyph-name="uni0152" unicode="&#x152;" horiz-adv-x="2655" 
d="M1065 0q-264 0 -463.5 129t-310.5 359.5t-111 535.5q0 307 111.5 537.5t310.5 358.5t463 128h1379v-168h-1001v-771h938v-168h-938v-773h1021v-168h-1399zM1256 168v1712h-191q-209 0 -367.5 -106.5t-247.5 -299.5t-89 -450q0 -255 88.5 -447.5t247 -300.5t368.5 -108
h191z" />
    <glyph glyph-name="uni0050" unicode="P" horiz-adv-x="1761" 
d="M272 0v2048h661q218 0 364.5 -83.5t221 -226.5t74.5 -322t-74 -322.5t-220 -227t-363 -83.5h-520v168h515q161 0 267 60.5t158.5 165.5t52.5 239t-52.5 239t-159 165t-269.5 60h-469v-1880h-187z" />
    <glyph glyph-name="uni1E54" unicode="&#x1e54;" horiz-adv-x="1761" 
d="M272 0v2048h661q218 0 364.5 -83.5t221 -226.5t74.5 -322t-74 -322.5t-220 -227t-363 -83.5h-520v168h515q161 0 267 60.5t158.5 165.5t52.5 239t-52.5 239t-159 165t-269.5 60h-469v-1880h-187zM803 2261l256 454h211l-307 -454h-160z" />
    <glyph glyph-name="uni1E56" unicode="&#x1e56;" horiz-adv-x="1761" 
d="M272 0v2048h661q218 0 364.5 -83.5t221 -226.5t74.5 -322t-74 -322.5t-220 -227t-363 -83.5h-520v168h515q161 0 267 60.5t158.5 165.5t52.5 239t-52.5 239t-159 165t-269.5 60h-469v-1880h-187zM886 2312q-54 0 -93.5 37.5t-39.5 90.5t39.5 90.5t93.5 37.5
q55 0 94.5 -37.5t39.5 -90.5t-39.5 -90.5t-94.5 -37.5z" />
    <glyph glyph-name="uni048E" unicode="&#x48e;" horiz-adv-x="1763" 
d="M1137 1299l386 -588l-141 -92l-385 592zM268 0v2048h661q218 0 364.5 -83.5t221 -226.5t74.5 -322t-74 -322.5t-220 -227t-363 -83.5h-520v168h515q161 0 267 60.5t158.5 165.5t52.5 239t-52.5 239t-159 165t-269.5 60h-469v-1880h-187z" />
    <glyph glyph-name="uni01A4" unicode="&#x1a4;" horiz-adv-x="2116" 
d="M324 1565h-176v115q0 106 42 189t122.5 131t198.5 48h762q218 0 364.5 -83.5t221 -226.5t74.5 -322t-74 -322.5t-220 -227t-363 -83.5h-477v-783h-187v1880h-97q-79 0 -120.5 -32.5t-56 -89t-14.5 -130.5v-63zM799 951h472q161 0 267 60.5t158.5 165.5t52.5 239
t-52.5 239t-159 165t-269.5 60h-469v-929z" />
    <glyph glyph-name="uni03A1" unicode="&#x3a1;" horiz-adv-x="1761" 
d="M272 0v2048h661q218 0 364.5 -83.5t221 -226.5t74.5 -322t-74 -322.5t-220 -227t-363 -83.5h-520v168h515q161 0 267 60.5t158.5 165.5t52.5 239t-52.5 239t-159 165t-269.5 60h-469v-1880h-187z" />
    <glyph glyph-name="uni1FEC" unicode="&#x1fec;" horiz-adv-x="2095" 
d="M608 0v2048h661q218 0 364.5 -83.5t221 -226.5t74.5 -322t-74 -322.5t-220 -227t-363 -83.5h-520v168h515q161 0 267 60.5t158.5 165.5t52.5 239t-52.5 239t-159 165t-269.5 60h-469v-1880h-187zM167 1959v92h186v-84q0 -73 12.5 -131t41 -109.5t75.5 -105.5l-87 -63
q-116 80 -172 178t-56 223z" />
    </font>
</defs>
</svg>
