<?xml version="1.0" standalone="no"?>
<!DOCTYPE svg PUBLIC "-//W3C//DTD SVG 1.1//EN" "http://www.w3.org/Graphics/SVG/1.1/DTD/svg11.dtd" >
<svg xmlns="http://www.w3.org/2000/svg" xmlns:xlink="http://www.w3.org/1999/xlink" version="1.1">
<metadata>
Created by FontForge 20190801 at Thu Jan 23 23:42:53 2020
 By Jimmy Wärting
Copyright 2020 The Inter Project Authors (https://github.com/rsms/inter)
</metadata>
<defs>
<font id="Inter-ExtraLight" horiz-adv-x="0" >
  <font-face 
    font-family="Inter ExtraLight"
    font-weight="250"
    font-stretch="normal"
    units-per-em="2816"
    panose-1="2 11 5 2 3 0 0 0 0 4"
    ascent="2252"
    descent="-564"
    x-height="1536"
    cap-height="2048"
    bbox="-2021 -900 7274 3023"
    underline-thickness="192"
    underline-position="-560"
    unicode-range="U+0020-1F852"
  />
<missing-glyph horiz-adv-x="2696" 
d="M219 -640v512h2258v-512h-2258zM219 1472v512h2258v-512h-2258zM219 2176v512h2258v-512h-2258zM219 64v512h2258v-512h-2258zM219 768v512h2258v-512h-2258z" />
    <glyph glyph-name="uni24B6" unicode="A&#x20dd;" horiz-adv-x="3912" 
d="M1277 0h-132l739 2048h144l739 -2048h-132l-674 1887h-10zM1464 771h984v-116h-984v116zM1956 -900q-319 0 -607.5 97t-529 273.5t-417 417t-273.5 529t-97 607.5t97 607.5t273.5 529t417 417t529 273.5t607.5 97t607.5 -97t529 -273.5t417 -417t273.5 -529t97 -607.5
t-97 -607.5t-273.5 -529t-417 -417t-529 -273.5t-607.5 -97zM1956 -780q299 0 569 91t496 256.5t391.5 391t256.5 496t91 569.5t-91 569.5t-256.5 496t-391 391t-496 256.5t-569.5 91t-569.5 -91t-496 -256.5t-391 -391t-256.5 -496t-91 -569.5t91 -569.5t256.5 -496
t391 -391t496 -256.5t569.5 -91z" />
    <glyph glyph-name="uni24B7" unicode="B&#x20dd;" horiz-adv-x="3912" 
d="M1375 0v2048h665q186 0 314 -66t194.5 -185t66.5 -277q0 -124 -40 -220t-111.5 -158.5t-167.5 -86.5v-12q106 -8 197 -73.5t146.5 -177.5t55.5 -261q0 -157 -67.5 -276.5t-201.5 -187t-332 -67.5h-719zM1500 116h594q231 0 355.5 116t124.5 299q0 129 -60.5 231
t-167.5 161.5t-248 59.5h-598v-867zM1500 1097h583q131 0 222.5 57t140 153t48.5 213q0 190 -118 301t-336 111h-540v-835zM1956 -900q-319 0 -607.5 97t-529 273.5t-417 417t-273.5 529t-97 607.5t97 607.5t273.5 529t417 417t529 273.5t607.5 97t607.5 -97t529 -273.5
t417 -417t273.5 -529t97 -607.5t-97 -607.5t-273.5 -529t-417 -417t-529 -273.5t-607.5 -97zM1956 -780q299 0 569 91t496 256.5t391.5 391t256.5 496t91 569.5t-91 569.5t-256.5 496t-391 391t-496 256.5t-569.5 91t-569.5 -91t-496 -256.5t-391 -391t-256.5 -496
t-91 -569.5t91 -569.5t256.5 -496t391 -391t496 -256.5t569.5 -91z" />
    <glyph glyph-name="uni24B8" unicode="C&#x20dd;" horiz-adv-x="3912" 
d="M2788 1408h-128q-20 104 -75 201.5t-141.5 176t-200.5 124.5t-252 46q-202 0 -371.5 -107.5t-271 -315.5t-101.5 -509q0 -303 101.5 -511t271 -314.5t371.5 -106.5q138 0 252 45.5t200.5 124t141.5 176.5t75 202h128q-22 -124 -84.5 -243t-164 -215.5t-239 -153
t-309.5 -56.5q-256 0 -451 130.5t-305.5 367.5t-110.5 554t110.5 554t305.5 367.5t451 130.5q172 0 309.5 -56.5t239 -152t164 -214.5t84.5 -245zM1956 -900q-319 0 -607.5 97t-529 273.5t-417 417t-273.5 529t-97 607.5t97 607.5t273.5 529t417 417t529 273.5t607.5 97
t607.5 -97t529 -273.5t417 -417t273.5 -529t97 -607.5t-97 -607.5t-273.5 -529t-417 -417t-529 -273.5t-607.5 -97zM1956 -780q299 0 569 91t496 256.5t391.5 391t256.5 496t91 569.5t-91 569.5t-256.5 496t-391 391t-496 256.5t-569.5 91t-569.5 -91t-496 -256.5t-391 -391
t-256.5 -496t-91 -569.5t91 -569.5t256.5 -496t391 -391t496 -256.5t569.5 -91z" />
    <glyph glyph-name="uni24B9" unicode="D&#x20dd;" horiz-adv-x="3912" 
d="M1876 0h-568v2048h612q288 0 493 -122t314.5 -349.5t108.5 -545.5q-1 -325 -114 -555.5t-327 -353t-519 -122.5zM1433 116h438q274 0 462 109.5t284.5 314.5t95.5 491q0 282 -93 483.5t-270.5 309.5t-434.5 108h-482v-1816zM1956 -900q-319 0 -607.5 97t-529 273.5
t-417 417t-273.5 529t-97 607.5t97 607.5t273.5 529t417 417t529 273.5t607.5 97t607.5 -97t529 -273.5t417 -417t273.5 -529t97 -607.5t-97 -607.5t-273.5 -529t-417 -417t-529 -273.5t-607.5 -97zM1956 -780q299 0 569 91t496 256.5t391.5 391t256.5 496t91 569.5
t-91 569.5t-256.5 496t-391 391t-496 256.5t-569.5 91t-569.5 -91t-496 -256.5t-391 -391t-256.5 -496t-91 -569.5t91 -569.5t256.5 -496t391 -391t496 -256.5t569.5 -91z" />
    <glyph glyph-name="uni24BA" unicode="E&#x20dd;" horiz-adv-x="3912" 
d="M1374 0v2048h1140v-116h-1015v-849h954v-116h-954v-851h1039v-116h-1164zM1956 -900q-319 0 -607.5 97t-529 273.5t-417 417t-273.5 529t-97 607.5t97 607.5t273.5 529t417 417t529 273.5t607.5 97t607.5 -97t529 -273.5t417 -417t273.5 -529t97 -607.5t-97 -607.5
t-273.5 -529t-417 -417t-529 -273.5t-607.5 -97zM1956 -780q299 0 569 91t496 256.5t391.5 391t256.5 496t91 569.5t-91 569.5t-256.5 496t-391 391t-496 256.5t-569.5 91t-569.5 -91t-496 -256.5t-391 -391t-256.5 -496t-91 -569.5t91 -569.5t256.5 -496t391 -391
t496 -256.5t569.5 -91z" />
    <glyph glyph-name="uni24BB" unicode="F&#x20dd;" horiz-adv-x="3912" 
d="M1385 0v2048h1143v-116h-1018v-849h923v-116h-923v-967h-125zM1956 -900q-319 0 -607.5 97t-529 273.5t-417 417t-273.5 529t-97 607.5t97 607.5t273.5 529t417 417t529 273.5t607.5 97t607.5 -97t529 -273.5t417 -417t273.5 -529t97 -607.5t-97 -607.5t-273.5 -529
t-417 -417t-529 -273.5t-607.5 -97zM1956 -780q299 0 569 91t496 256.5t391.5 391t256.5 496t91 569.5t-91 569.5t-256.5 496t-391 391t-496 256.5t-569.5 91t-569.5 -91t-496 -256.5t-391 -391t-256.5 -496t-91 -569.5t91 -569.5t256.5 -496t391 -391t496 -256.5t569.5 -91
z" />
    <glyph glyph-name="uni24BC" unicode="G&#x20dd;" horiz-adv-x="3912" 
d="M2654 1408q-23 104 -78 201.5t-140.5 176t-200 124.5t-256.5 46q-217 0 -384.5 -113.5t-262 -323t-94.5 -495.5q0 -283 94 -493t263.5 -324.5t394.5 -114.5q201 0 356.5 93t242.5 266t85 414l44 -21h-696v116h774v-116q0 -271 -103.5 -466.5t-286 -300.5t-416.5 -105
q-264 0 -461 131t-305.5 367.5t-108.5 553.5q0 238 62 432t177 332.5t274 213t351 74.5q174 0 313 -57.5t240.5 -154t164.5 -215t85 -241.5h-128zM1956 -900q-319 0 -607.5 97t-529 273.5t-417 417t-273.5 529t-97 607.5t97 607.5t273.5 529t417 417t529 273.5t607.5 97
t607.5 -97t529 -273.5t417 -417t273.5 -529t97 -607.5t-97 -607.5t-273.5 -529t-417 -417t-529 -273.5t-607.5 -97zM1956 -780q299 0 569 91t496 256.5t391.5 391t256.5 496t91 569.5t-91 569.5t-256.5 496t-391 391t-496 256.5t-569.5 91t-569.5 -91t-496 -256.5t-391 -391
t-256.5 -496t-91 -569.5t91 -569.5t256.5 -496t391 -391t496 -256.5t569.5 -91z" />
    <glyph glyph-name="uni24BD" unicode="H&#x20dd;" horiz-adv-x="3912" 
d="M1214 0v2048h125v-965h1234v965h125v-2048h-125v967h-1234v-967h-125zM1956 -900q-319 0 -607.5 97t-529 273.5t-417 417t-273.5 529t-97 607.5t97 607.5t273.5 529t417 417t529 273.5t607.5 97t607.5 -97t529 -273.5t417 -417t273.5 -529t97 -607.5t-97 -607.5
t-273.5 -529t-417 -417t-529 -273.5t-607.5 -97zM1956 -780q299 0 569 91t496 256.5t391.5 391t256.5 496t91 569.5t-91 569.5t-256.5 496t-391 391t-496 256.5t-569.5 91t-569.5 -91t-496 -256.5t-391 -391t-256.5 -496t-91 -569.5t91 -569.5t256.5 -496t391 -391
t496 -256.5t569.5 -91z" />
    <glyph glyph-name="uni24BE" unicode="I&#x20dd;" horiz-adv-x="3912" 
d="M2018 2048v-2048h-125v2048h125zM1956 -900q-319 0 -607.5 97t-529 273.5t-417 417t-273.5 529t-97 607.5t97 607.5t273.5 529t417 417t529 273.5t607.5 97t607.5 -97t529 -273.5t417 -417t273.5 -529t97 -607.5t-97 -607.5t-273.5 -529t-417 -417t-529 -273.5
t-607.5 -97zM1956 -780q299 0 569 91t496 256.5t391.5 391t256.5 496t91 569.5t-91 569.5t-256.5 496t-391 391t-496 256.5t-569.5 91t-569.5 -91t-496 -256.5t-391 -391t-256.5 -496t-91 -569.5t91 -569.5t256.5 -496t391 -391t496 -256.5t569.5 -91z" />
    <glyph glyph-name="uni24BF" unicode="J&#x20dd;" horiz-adv-x="3912" 
d="M2275 2048h125v-1491q0 -204 -70.5 -333t-189 -190.5t-265.5 -61.5q-150 0 -268.5 56.5t-187.5 156.5t-68 231h124q-1 -96 51.5 -169.5t143.5 -116t205 -42.5q110 0 201 47t144.5 150t54.5 272v1491zM1956 -900q-319 0 -607.5 97t-529 273.5t-417 417t-273.5 529
t-97 607.5t97 607.5t273.5 529t417 417t529 273.5t607.5 97t607.5 -97t529 -273.5t417 -417t273.5 -529t97 -607.5t-97 -607.5t-273.5 -529t-417 -417t-529 -273.5t-607.5 -97zM1956 -780q299 0 569 91t496 256.5t391.5 391t256.5 496t91 569.5t-91 569.5t-256.5 496
t-391 391t-496 256.5t-569.5 91t-569.5 -91t-496 -256.5t-391 -391t-256.5 -496t-91 -569.5t91 -569.5t256.5 -496t391 -391t496 -256.5t569.5 -91z" />
    <glyph glyph-name="uni24C0" unicode="K&#x20dd;" horiz-adv-x="3912" 
d="M1324 0v2048h125v-1189h14l1080 1189h166l-889 -969l881 -1079h-156l-805 989l-291 -322v-667h-125zM1956 -900q-319 0 -607.5 97t-529 273.5t-417 417t-273.5 529t-97 607.5t97 607.5t273.5 529t417 417t529 273.5t607.5 97t607.5 -97t529 -273.5t417 -417t273.5 -529
t97 -607.5t-97 -607.5t-273.5 -529t-417 -417t-529 -273.5t-607.5 -97zM1956 -780q299 0 569 91t496 256.5t391.5 391t256.5 496t91 569.5t-91 569.5t-256.5 496t-391 391t-496 256.5t-569.5 91t-569.5 -91t-496 -256.5t-391 -391t-256.5 -496t-91 -569.5t91 -569.5
t256.5 -496t391 -391t496 -256.5t569.5 -91z" />
    <glyph glyph-name="uni24C1" unicode="L&#x20dd;" horiz-adv-x="3912" 
d="M1440 0v2048h125v-1932h1000v-116h-1125zM1956 -900q-319 0 -607.5 97t-529 273.5t-417 417t-273.5 529t-97 607.5t97 607.5t273.5 529t417 417t529 273.5t607.5 97t607.5 -97t529 -273.5t417 -417t273.5 -529t97 -607.5t-97 -607.5t-273.5 -529t-417 -417t-529 -273.5
t-607.5 -97zM1956 -780q299 0 569 91t496 256.5t391.5 391t256.5 496t91 569.5t-91 569.5t-256.5 496t-391 391t-496 256.5t-569.5 91t-569.5 -91t-496 -256.5t-391 -391t-256.5 -496t-91 -569.5t91 -569.5t256.5 -496t391 -391t496 -256.5t569.5 -91z" />
    <glyph glyph-name="uni24C2" unicode="M&#x20dd;" horiz-adv-x="3912" 
d="M1024 2048h136l789 -1868h14l789 1868h136v-2048h-120v1751h-12l-741 -1751h-118l-741 1751h-12v-1751h-120v2048zM1956 -900q-319 0 -607.5 97t-529 273.5t-417 417t-273.5 529t-97 607.5t97 607.5t273.5 529t417 417t529 273.5t607.5 97t607.5 -97t529 -273.5t417 -417
t273.5 -529t97 -607.5t-97 -607.5t-273.5 -529t-417 -417t-529 -273.5t-607.5 -97zM1956 -780q299 0 569 91t496 256.5t391.5 391t256.5 496t91 569.5t-91 569.5t-256.5 496t-391 391t-496 256.5t-569.5 91t-569.5 -91t-496 -256.5t-391 -391t-256.5 -496t-91 -569.5
t91 -569.5t256.5 -496t391 -391t496 -256.5t569.5 -91z" />
    <glyph glyph-name="uni24C3" unicode="N&#x20dd;" horiz-adv-x="3912" 
d="M2738 2048v-2048h-122l-1306 1821h-12v-1821h-125v2048h123l1306 -1823h12v1823h124zM1956 -900q-319 0 -607.5 97t-529 273.5t-417 417t-273.5 529t-97 607.5t97 607.5t273.5 529t417 417t529 273.5t607.5 97t607.5 -97t529 -273.5t417 -417t273.5 -529t97 -607.5
t-97 -607.5t-273.5 -529t-417 -417t-529 -273.5t-607.5 -97zM1956 -780q299 0 569 91t496 256.5t391.5 391t256.5 496t91 569.5t-91 569.5t-256.5 496t-391 391t-496 256.5t-569.5 91t-569.5 -91t-496 -256.5t-391 -391t-256.5 -496t-91 -569.5t91 -569.5t256.5 -496
t391 -391t496 -256.5t569.5 -91z" />
    <glyph glyph-name="uni24C4" unicode="O&#x20dd;" horiz-adv-x="3912" 
d="M2822 1024q0 -317 -110 -553.5t-305.5 -367.5t-450.5 -131q-256 0 -451.5 131.5t-305.5 368t-110 552.5q0 317 110.5 553t305.5 367.5t451 131.5q255 0 450.5 -131t305.5 -367.5t110 -553.5zM2700 1024q0 285 -95.5 494t-263.5 323.5t-385 114.5t-385 -113.5t-263.5 -323
t-95.5 -495.5q0 -283 94.5 -492.5t262.5 -324.5t387 -115q217 0 385 114.5t263.5 323.5t95.5 494zM1956 -900q-319 0 -607.5 97t-529 273.5t-417 417t-273.5 529t-97 607.5t97 607.5t273.5 529t417 417t529 273.5t607.5 97t607.5 -97t529 -273.5t417 -417t273.5 -529
t97 -607.5t-97 -607.5t-273.5 -529t-417 -417t-529 -273.5t-607.5 -97zM1956 -780q299 0 569 91t496 256.5t391.5 391t256.5 496t91 569.5t-91 569.5t-256.5 496t-391 391t-496 256.5t-569.5 91t-569.5 -91t-496 -256.5t-391 -391t-256.5 -496t-91 -569.5t91 -569.5
t256.5 -496t391 -391t496 -256.5t569.5 -91z" />
    <glyph glyph-name="uni24C5" unicode="P&#x20dd;" horiz-adv-x="3912" 
d="M1415 0v2048h631q195 0 334.5 -80t214.5 -219t75 -317q0 -176 -75 -315t-214.5 -219.5t-333.5 -80.5h-544v116h541q158 0 270 64.5t172 177t60 257.5q0 146 -60 259t-172.5 177t-270.5 64h-503v-1932h-125zM1956 -900q-319 0 -607.5 97t-529 273.5t-417 417t-273.5 529
t-97 607.5t97 607.5t273.5 529t417 417t529 273.5t607.5 97t607.5 -97t529 -273.5t417 -417t273.5 -529t97 -607.5t-97 -607.5t-273.5 -529t-417 -417t-529 -273.5t-607.5 -97zM1956 -780q299 0 569 91t496 256.5t391.5 391t256.5 496t91 569.5t-91 569.5t-256.5 496
t-391 391t-496 256.5t-569.5 91t-569.5 -91t-496 -256.5t-391 -391t-256.5 -496t-91 -569.5t91 -569.5t256.5 -496t391 -391t496 -256.5t569.5 -91z" />
    <glyph glyph-name="uni24C6" unicode="Q&#x20dd;" horiz-adv-x="3912" 
d="M1982 640h144l298 -393l28 -38l302 -401h-144l-248 329l-26 36zM2822 1024q0 -317 -110 -553.5t-305.5 -367.5t-450.5 -131q-256 0 -451.5 131.5t-305.5 368t-110 552.5q0 317 110.5 553t305.5 367.5t451 131.5q255 0 450.5 -131t305.5 -367.5t110 -553.5zM2700 1024
q0 285 -95.5 494t-263.5 323.5t-385 114.5t-385 -113.5t-263.5 -323t-95.5 -495.5q0 -283 94.5 -492.5t262.5 -324.5t387 -115q217 0 385 114.5t263.5 323.5t95.5 494zM1956 -900q-319 0 -607.5 97t-529 273.5t-417 417t-273.5 529t-97 607.5t97 607.5t273.5 529t417 417
t529 273.5t607.5 97t607.5 -97t529 -273.5t417 -417t273.5 -529t97 -607.5t-97 -607.5t-273.5 -529t-417 -417t-529 -273.5t-607.5 -97zM1956 -780q299 0 569 91t496 256.5t391.5 391t256.5 496t91 569.5t-91 569.5t-256.5 496t-391 391t-496 256.5t-569.5 91t-569.5 -91
t-496 -256.5t-391 -391t-256.5 -496t-91 -569.5t91 -569.5t256.5 -496t391 -391t496 -256.5t569.5 -91z" />
    <glyph glyph-name="uni24C7" unicode="R&#x20dd;" horiz-adv-x="3912" 
d="M1370 0v2048h631q194 0 334 -76t215 -210.5t75 -312.5q0 -176 -75 -309.5t-214.5 -208.5t-333.5 -75h-565v117h562q158 0 270 59t172 165.5t60 251.5q0 146 -60 254.5t-172.5 168.5t-270.5 60h-503v-1932h-125zM2211 928l504 -928h-144l-501 928h141zM1956 -900
q-319 0 -607.5 97t-529 273.5t-417 417t-273.5 529t-97 607.5t97 607.5t273.5 529t417 417t529 273.5t607.5 97t607.5 -97t529 -273.5t417 -417t273.5 -529t97 -607.5t-97 -607.5t-273.5 -529t-417 -417t-529 -273.5t-607.5 -97zM1956 -780q299 0 569 91t496 256.5
t391.5 391t256.5 496t91 569.5t-91 569.5t-256.5 496t-391 391t-496 256.5t-569.5 91t-569.5 -91t-496 -256.5t-391 -391t-256.5 -496t-91 -569.5t91 -569.5t256.5 -496t391 -391t496 -256.5t569.5 -91z" />
    <glyph glyph-name="uni24C8" unicode="S&#x20dd;" horiz-adv-x="3912" 
d="M2482 1536q-16 191 -155.5 309t-360.5 118q-149 0 -265 -55t-182 -150t-66 -218q0 -79 30.5 -142.5t86.5 -113t133 -86.5t170 -65l224 -66q115 -35 212.5 -81t170 -109.5t113 -148.5t40.5 -196q0 -162 -83.5 -290t-237 -201.5t-361.5 -73.5q-198 0 -344.5 67
t-231.5 186.5t-96 275.5h128q10 -127 81.5 -219.5t190.5 -142.5t272 -50q165 0 291 56.5t197 157.5t71 235q0 108 -51 185t-150.5 133t-246.5 100l-239 72q-240 73 -366.5 199t-126.5 314q0 158 84 280.5t228.5 192.5t326.5 70q183 0 323 -70.5t222 -193t91 -279.5h-123z
M1956 -900q-319 0 -607.5 97t-529 273.5t-417 417t-273.5 529t-97 607.5t97 607.5t273.5 529t417 417t529 273.5t607.5 97t607.5 -97t529 -273.5t417 -417t273.5 -529t97 -607.5t-97 -607.5t-273.5 -529t-417 -417t-529 -273.5t-607.5 -97zM1956 -780q299 0 569 91
t496 256.5t391.5 391t256.5 496t91 569.5t-91 569.5t-256.5 496t-391 391t-496 256.5t-569.5 91t-569.5 -91t-496 -256.5t-391 -391t-256.5 -496t-91 -569.5t91 -569.5t256.5 -496t391 -391t496 -256.5t569.5 -91z" />
    <glyph glyph-name="uni24C9" unicode="T&#x20dd;" horiz-adv-x="3912" 
d="M1239 1932v116h1435v-116h-655v-1932h-125v1932h-655zM1956 -900q-319 0 -607.5 97t-529 273.5t-417 417t-273.5 529t-97 607.5t97 607.5t273.5 529t417 417t529 273.5t607.5 97t607.5 -97t529 -273.5t417 -417t273.5 -529t97 -607.5t-97 -607.5t-273.5 -529t-417 -417
t-529 -273.5t-607.5 -97zM1956 -780q299 0 569 91t496 256.5t391.5 391t256.5 496t91 569.5t-91 569.5t-256.5 496t-391 391t-496 256.5t-569.5 91t-569.5 -91t-496 -256.5t-391 -391t-256.5 -496t-91 -569.5t91 -569.5t256.5 -496t391 -391t496 -256.5t569.5 -91z" />
    <glyph glyph-name="uni24CA" unicode="U&#x20dd;" horiz-adv-x="3912" 
d="M2587 2048h125v-1356q0 -209 -97 -372.5t-267.5 -258t-391.5 -94.5q-220 0 -391 94.5t-268.5 258.5t-96.5 372v1356h125v-1349q0 -177 80.5 -315t222.5 -217.5t328 -79.5t328 79.5t222.5 217.5t80.5 315v1349zM1956 -900q-319 0 -607.5 97t-529 273.5t-417 417
t-273.5 529t-97 607.5t97 607.5t273.5 529t417 417t529 273.5t607.5 97t607.5 -97t529 -273.5t417 -417t273.5 -529t97 -607.5t-97 -607.5t-273.5 -529t-417 -417t-529 -273.5t-607.5 -97zM1956 -780q299 0 569 91t496 256.5t391.5 391t256.5 496t91 569.5t-91 569.5
t-256.5 496t-391 391t-496 256.5t-569.5 91t-569.5 -91t-496 -256.5t-391 -391t-256.5 -496t-91 -569.5t91 -569.5t256.5 -496t391 -391t496 -256.5t569.5 -91z" />
    <glyph glyph-name="uni24CB" unicode="V&#x20dd;" horiz-adv-x="3912" 
d="M1277 2048l672 -1887h14l672 1887h132l-739 -2048h-144l-739 2048h132zM1956 -900q-319 0 -607.5 97t-529 273.5t-417 417t-273.5 529t-97 607.5t97 607.5t273.5 529t417 417t529 273.5t607.5 97t607.5 -97t529 -273.5t417 -417t273.5 -529t97 -607.5t-97 -607.5
t-273.5 -529t-417 -417t-529 -273.5t-607.5 -97zM1956 -780q299 0 569 91t496 256.5t391.5 391t256.5 496t91 569.5t-91 569.5t-256.5 496t-391 391t-496 256.5t-569.5 91t-569.5 -91t-496 -256.5t-391 -391t-256.5 -496t-91 -569.5t91 -569.5t256.5 -496t391 -391
t496 -256.5t569.5 -91z" />
    <glyph glyph-name="uni24CC" unicode="W&#x20dd;" horiz-adv-x="3912" 
d="M1309 0l-563 2048h130l500 -1855h12l492 1855h152l492 -1855h12l500 1855h129l-563 -2048h-144l-497 1843h-11l-497 -1843h-144zM1956 -900q-319 0 -607.5 97t-529 273.5t-417 417t-273.5 529t-97 607.5t97 607.5t273.5 529t417 417t529 273.5t607.5 97t607.5 -97
t529 -273.5t417 -417t273.5 -529t97 -607.5t-97 -607.5t-273.5 -529t-417 -417t-529 -273.5t-607.5 -97zM1956 -780q299 0 569 91t496 256.5t391.5 391t256.5 496t91 569.5t-91 569.5t-256.5 496t-391 391t-496 256.5t-569.5 91t-569.5 -91t-496 -256.5t-391 -391
t-256.5 -496t-91 -569.5t91 -569.5t256.5 -496t391 -391t496 -256.5t569.5 -91z" />
    <glyph glyph-name="uni24CD" unicode="X&#x20dd;" horiz-adv-x="3912" 
d="M1345 2048l605 -927h11l605 927h151l-673 -1024l673 -1024h-151l-605 921h-11l-605 -921h-151l679 1024l-679 1024h151zM1956 -900q-319 0 -607.5 97t-529 273.5t-417 417t-273.5 529t-97 607.5t97 607.5t273.5 529t417 417t529 273.5t607.5 97t607.5 -97t529 -273.5
t417 -417t273.5 -529t97 -607.5t-97 -607.5t-273.5 -529t-417 -417t-529 -273.5t-607.5 -97zM1956 -780q299 0 569 91t496 256.5t391.5 391t256.5 496t91 569.5t-91 569.5t-256.5 496t-391 391t-496 256.5t-569.5 91t-569.5 -91t-496 -256.5t-391 -391t-256.5 -496
t-91 -569.5t91 -569.5t256.5 -496t391 -391t496 -256.5t569.5 -91z" />
    <glyph glyph-name="uni24CE" unicode="Y&#x20dd;" horiz-adv-x="3912" 
d="M1156 2048h148l645 -988h14l645 988h148l-737 -1119v-929h-126v929zM1956 -900q-319 0 -607.5 97t-529 273.5t-417 417t-273.5 529t-97 607.5t97 607.5t273.5 529t417 417t529 273.5t607.5 97t607.5 -97t529 -273.5t417 -417t273.5 -529t97 -607.5t-97 -607.5
t-273.5 -529t-417 -417t-529 -273.5t-607.5 -97zM1956 -780q299 0 569 91t496 256.5t391.5 391t256.5 496t91 569.5t-91 569.5t-256.5 496t-391 391t-496 256.5t-569.5 91t-569.5 -91t-496 -256.5t-391 -391t-256.5 -496t-91 -569.5t91 -569.5t256.5 -496t391 -391
t496 -256.5t569.5 -91z" />
    <glyph glyph-name="uni24CF" unicode="Z&#x20dd;" horiz-adv-x="3912" 
d="M1293 0v103l1171 1829h-1169v116h1318v-103l-1170 -1829h1180v-116h-1330zM1956 -900q-319 0 -607.5 97t-529 273.5t-417 417t-273.5 529t-97 607.5t97 607.5t273.5 529t417 417t529 273.5t607.5 97t607.5 -97t529 -273.5t417 -417t273.5 -529t97 -607.5t-97 -607.5
t-273.5 -529t-417 -417t-529 -273.5t-607.5 -97zM1956 -780q299 0 569 91t496 256.5t391.5 391t256.5 496t91 569.5t-91 569.5t-256.5 496t-391 391t-496 256.5t-569.5 91t-569.5 -91t-496 -256.5t-391 -391t-256.5 -496t-91 -569.5t91 -569.5t256.5 -496t391 -391
t496 -256.5t569.5 -91z" />
    <glyph glyph-name="uni24EA" unicode="&#x30;&#x20dd;" horiz-adv-x="3912" 
d="M1956 -28q-205 0 -352 126t-225.5 361.5t-78.5 564.5q0 328 79 564t225.5 362t351.5 126t351.5 -126t225.5 -362t79 -564q0 -329 -78.5 -564.5t-225.5 -361.5t-352 -126zM1956 88q249 0 391 247.5t142 688.5q0 294 -64.5 504t-183.5 321.5t-285 111.5q-249 0 -391 -248
t-142 -689q0 -294 64 -503.5t183.5 -321t285.5 -111.5zM1956 -900q-319 0 -607.5 97t-529 273.5t-417 417t-273.5 529t-97 607.5t97 607.5t273.5 529t417 417t529 273.5t607.5 97t607.5 -97t529 -273.5t417 -417t273.5 -529t97 -607.5t-97 -607.5t-273.5 -529t-417 -417
t-529 -273.5t-607.5 -97zM1956 -780q299 0 569 91t496 256.5t391.5 391t256.5 496t91 569.5t-91 569.5t-256.5 496t-391 391t-496 256.5t-569.5 91t-569.5 -91t-496 -256.5t-391 -391t-256.5 -496t-91 -569.5t91 -569.5t256.5 -496t391 -391t496 -256.5t569.5 -91z" />
    <glyph glyph-name="uni2460" unicode="&#x31;&#x20dd;" horiz-adv-x="3912" 
d="M2066 2048v-2048h-125v1916h-12l-460 -305v134l456 303h141zM1956 -900q-319 0 -607.5 97t-529 273.5t-417 417t-273.5 529t-97 607.5t97 607.5t273.5 529t417 417t529 273.5t607.5 97t607.5 -97t529 -273.5t417 -417t273.5 -529t97 -607.5t-97 -607.5t-273.5 -529
t-417 -417t-529 -273.5t-607.5 -97zM1956 -780q299 0 569 91t496 256.5t391.5 391t256.5 496t91 569.5t-91 569.5t-256.5 496t-391 391t-496 256.5t-569.5 91t-569.5 -91t-496 -256.5t-391 -391t-256.5 -496t-91 -569.5t91 -569.5t256.5 -496t391 -391t496 -256.5t569.5 -91
z" />
    <glyph glyph-name="uni2461" unicode="&#x32;&#x20dd;" horiz-adv-x="3912" 
d="M1329 0v95l663 764q142 164 225 278t119 206t36 192q0 125 -58.5 221.5t-159 150.5t-228.5 54q-134 0 -235 -59t-157.5 -160t-56.5 -227h-121q0 159 74 286t203.5 201t295.5 74q163 0 290 -71t200 -193.5t73 -276.5q0 -113 -38.5 -217.5t-131.5 -233t-257 -316.5
l-556 -641v-11h1075v-116h-1255zM1956 -900q-319 0 -607.5 97t-529 273.5t-417 417t-273.5 529t-97 607.5t97 607.5t273.5 529t417 417t529 273.5t607.5 97t607.5 -97t529 -273.5t417 -417t273.5 -529t97 -607.5t-97 -607.5t-273.5 -529t-417 -417t-529 -273.5t-607.5 -97z
M1956 -780q299 0 569 91t496 256.5t391.5 391t256.5 496t91 569.5t-91 569.5t-256.5 496t-391 391t-496 256.5t-569.5 91t-569.5 -91t-496 -256.5t-391 -391t-256.5 -496t-91 -569.5t91 -569.5t256.5 -496t391 -391t496 -256.5t569.5 -91z" />
    <glyph glyph-name="uni2462" unicode="&#x33;&#x20dd;" horiz-adv-x="3912" 
d="M1970 -28q-182 0 -325 69.5t-226.5 191t-86.5 279.5h127q3 -125 71 -220.5t182.5 -149.5t255.5 -54q153 0 268.5 60t180.5 162.5t65 229.5q0 136 -71 238.5t-198 160t-295 57.5h-76v116h76q143 0 256 52.5t178.5 148.5t65.5 227q0 123 -57 218t-157.5 149t-235.5 54
q-130 0 -235.5 -53t-167.5 -149t-63 -223h-123q2 159 80.5 281t211 190.5t299.5 68.5q170 0 298.5 -71t200 -192t71.5 -269q0 -178 -98.5 -304.5t-266.5 -175.5v-11q199 -44 315 -181t116 -332q0 -160 -82 -289t-225.5 -204t-328.5 -75zM1956 -900q-319 0 -607.5 97
t-529 273.5t-417 417t-273.5 529t-97 607.5t97 607.5t273.5 529t417 417t529 273.5t607.5 97t607.5 -97t529 -273.5t417 -417t273.5 -529t97 -607.5t-97 -607.5t-273.5 -529t-417 -417t-529 -273.5t-607.5 -97zM1956 -780q299 0 569 91t496 256.5t391.5 391t256.5 496
t91 569.5t-91 569.5t-256.5 496t-391 391t-496 256.5t-569.5 91t-569.5 -91t-496 -256.5t-391 -391t-256.5 -496t-91 -569.5t91 -569.5t256.5 -496t391 -391t496 -256.5t569.5 -91z" />
    <glyph glyph-name="uni2463" unicode="&#x34;&#x20dd;" horiz-adv-x="3912" 
d="M1156 460v100l927 1488h76v-193h-65l-787 -1268v-11h1183v-116h-1334zM2104 0v494v45v1509h122v-2048h-122zM1956 -900q-319 0 -607.5 97t-529 273.5t-417 417t-273.5 529t-97 607.5t97 607.5t273.5 529t417 417t529 273.5t607.5 97t607.5 -97t529 -273.5t417 -417
t273.5 -529t97 -607.5t-97 -607.5t-273.5 -529t-417 -417t-529 -273.5t-607.5 -97zM1956 -780q299 0 569 91t496 256.5t391.5 391t256.5 496t91 569.5t-91 569.5t-256.5 496t-391 391t-496 256.5t-569.5 91t-569.5 -91t-496 -256.5t-391 -391t-256.5 -496t-91 -569.5
t91 -569.5t256.5 -496t391 -391t496 -256.5t569.5 -91z" />
    <glyph glyph-name="uni2464" unicode="&#x35;&#x20dd;" horiz-adv-x="3912" 
d="M1926 -28q-164 0 -292.5 69.5t-203 191.5t-76.5 279h123q4 -186 129 -305t320 -119q150 0 264.5 72.5t179.5 197.5t64 282q0 166 -70 290t-187 192t-259 69q-112 0 -210 -40.5t-167 -103.5l-141 20l121 981h960v-116h-853l-94 -767h10q72 64 171.5 103.5t216.5 39.5
q172 0 314.5 -84t227 -234t83.5 -349q-1 -192 -82 -343t-223.5 -238.5t-325.5 -87.5zM1956 -900q-319 0 -607.5 97t-529 273.5t-417 417t-273.5 529t-97 607.5t97 607.5t273.5 529t417 417t529 273.5t607.5 97t607.5 -97t529 -273.5t417 -417t273.5 -529t97 -607.5
t-97 -607.5t-273.5 -529t-417 -417t-529 -273.5t-607.5 -97zM1956 -780q299 0 569 91t496 256.5t391.5 391t256.5 496t91 569.5t-91 569.5t-256.5 496t-391 391t-496 256.5t-569.5 91t-569.5 -91t-496 -256.5t-391 -391t-256.5 -496t-91 -569.5t91 -569.5t256.5 -496
t391 -391t496 -256.5t569.5 -91z" />
    <glyph glyph-name="uni2465" unicode="&#x36;&#x20dd;" horiz-adv-x="3912" 
d="M1972 -28q-129 1 -245 55.5t-205.5 170t-141 298t-51.5 437.5q0 229 36.5 435.5t115.5 366t206.5 251t308.5 91.5q158 0 278.5 -68.5t192.5 -190.5t87 -282h-124q-21 188 -133.5 306.5t-300.5 118.5q-266 0 -406.5 -260t-140.5 -745h11q40 96 118.5 169.5t181.5 114.5
t217 41q166 0 303.5 -85t220.5 -233t83 -335q0 -177 -77 -326.5t-214.5 -240t-320.5 -89.5zM1972 88q140 0 250.5 73t174.5 195.5t64 271.5q0 150 -66 272t-178.5 193.5t-252.5 71.5q-110 0 -204 -44.5t-161.5 -122.5t-99 -178.5t-17.5 -211.5q23 -161 90.5 -277.5
t170 -179.5t229.5 -63zM1956 -900q-319 0 -607.5 97t-529 273.5t-417 417t-273.5 529t-97 607.5t97 607.5t273.5 529t417 417t529 273.5t607.5 97t607.5 -97t529 -273.5t417 -417t273.5 -529t97 -607.5t-97 -607.5t-273.5 -529t-417 -417t-529 -273.5t-607.5 -97zM1956 -780
q299 0 569 91t496 256.5t391.5 391t256.5 496t91 569.5t-91 569.5t-256.5 496t-391 391t-496 256.5t-569.5 91t-569.5 -91t-496 -256.5t-391 -391t-256.5 -496t-91 -569.5t91 -569.5t256.5 -496t391 -391t496 -256.5t569.5 -91z" />
    <glyph glyph-name="uni2466" unicode="&#x37;&#x20dd;" horiz-adv-x="3912" 
d="M1542 0l951 1921v11h-1093v116h1229v-120l-952 -1928h-135zM1956 -900q-319 0 -607.5 97t-529 273.5t-417 417t-273.5 529t-97 607.5t97 607.5t273.5 529t417 417t529 273.5t607.5 97t607.5 -97t529 -273.5t417 -417t273.5 -529t97 -607.5t-97 -607.5t-273.5 -529
t-417 -417t-529 -273.5t-607.5 -97zM1956 -780q299 0 569 91t496 256.5t391.5 391t256.5 496t91 569.5t-91 569.5t-256.5 496t-391 391t-496 256.5t-569.5 91t-569.5 -91t-496 -256.5t-391 -391t-256.5 -496t-91 -569.5t91 -569.5t256.5 -496t391 -391t496 -256.5t569.5 -91
z" />
    <glyph glyph-name="uni2467" unicode="&#x38;&#x20dd;" horiz-adv-x="3912" 
d="M1956 -28q-186 0 -335 74.5t-235.5 201.5t-85.5 285q-1 125 53.5 235t149.5 187.5t217 103.5v9q-155 49 -252.5 181t-97.5 299q0 149 77.5 268.5t210.5 189.5t298 70q162 0 295 -69.5t211.5 -189t78.5 -269.5q0 -166 -96.5 -298.5t-252.5 -181.5v-9q121 -25 215.5 -102.5
t149 -188t55.5 -235.5q-1 -158 -87.5 -285t-235 -201.5t-333.5 -74.5zM1956 88q153 0 273 60t189 162.5t70 229.5q-1 129 -71.5 234t-190.5 167t-270 62q-151 0 -271.5 -62t-191 -167t-69.5 -234q-1 -127 68.5 -229.5t190 -162.5t273.5 -60zM1956 1111q129 0 233.5 58
t166.5 156t62 218t-61.5 214.5t-166 149t-234.5 54.5q-131 0 -236 -54.5t-166 -149t-61 -214.5t61.5 -218t166.5 -156t235 -58zM1956 -900q-319 0 -607.5 97t-529 273.5t-417 417t-273.5 529t-97 607.5t97 607.5t273.5 529t417 417t529 273.5t607.5 97t607.5 -97t529 -273.5
t417 -417t273.5 -529t97 -607.5t-97 -607.5t-273.5 -529t-417 -417t-529 -273.5t-607.5 -97zM1956 -780q299 0 569 91t496 256.5t391.5 391t256.5 496t91 569.5t-91 569.5t-256.5 496t-391 391t-496 256.5t-569.5 91t-569.5 -91t-496 -256.5t-391 -391t-256.5 -496
t-91 -569.5t91 -569.5t256.5 -496t391 -391t496 -256.5t569.5 -91z" />
    <glyph glyph-name="uni2468" unicode="&#x39;&#x20dd;" horiz-adv-x="3912" 
d="M1941 2080q129 0 245 -55t205.5 -170.5t141 -297.5t51.5 -438q0 -229 -36.5 -435.5t-115.5 -367t-206 -252.5t-309 -92q-159 0 -279 69t-192.5 191.5t-87.5 283.5h124q21 -187 134 -307.5t301 -120.5q265 0 406 261t141 747h-11q-40 -96 -118.5 -169.5t-181.5 -114.5
t-217 -41q-167 0 -305 85t-220 233t-82 335q0 177 76.5 326.5t214 240t321.5 89.5zM1941 1964q-141 0 -251.5 -73t-174 -195.5t-63.5 -271.5q0 -151 65.5 -272.5t178 -193t253.5 -71.5q110 0 204 44.5t161.5 123t99.5 179t16 210.5q-22 161 -89.5 277.5t-170 179.5
t-229.5 63zM1956 -900q-319 0 -607.5 97t-529 273.5t-417 417t-273.5 529t-97 607.5t97 607.5t273.5 529t417 417t529 273.5t607.5 97t607.5 -97t529 -273.5t417 -417t273.5 -529t97 -607.5t-97 -607.5t-273.5 -529t-417 -417t-529 -273.5t-607.5 -97zM1956 -780
q299 0 569 91t496 256.5t391.5 391t256.5 496t91 569.5t-91 569.5t-256.5 496t-391 391t-496 256.5t-569.5 91t-569.5 -91t-496 -256.5t-391 -391t-256.5 -496t-91 -569.5t91 -569.5t256.5 -496t391 -391t496 -256.5t569.5 -91z" />
    <glyph glyph-name="uniE12B" unicode="&#xe06b;&#x20dd;" horiz-adv-x="3912" 
d="M2293 1868l72 -69l-784 -1578l-66 82zM1956 -31q-205 0 -352 126t-225.5 362t-78.5 564t79 564t225.5 362t351.5 126t351.5 -126t225.5 -362t79 -564t-78.5 -564t-225.5 -362t-352 -126zM1956 85q249 0 391 247.5t142 688.5q0 294 -64.5 504t-183.5 322t-285 112
q-249 0 -391 -248.5t-142 -689.5q0 -294 64 -503.5t183.5 -321t285.5 -111.5zM1956 -900q-319 0 -607.5 97t-529 273.5t-417 417t-273.5 529t-97 607.5t97 607.5t273.5 529t417 417t529 273.5t607.5 97t607.5 -97t529 -273.5t417 -417t273.5 -529t97 -607.5t-97 -607.5
t-273.5 -529t-417 -417t-529 -273.5t-607.5 -97zM1956 -780q299 0 569 91t496 256.5t391.5 391t256.5 496t91 569.5t-91 569.5t-256.5 496t-391 391t-496 256.5t-569.5 91t-569.5 -91t-496 -256.5t-391 -391t-256.5 -496t-91 -569.5t91 -569.5t256.5 -496t391 -391
t496 -256.5t569.5 -91z" />
    <glyph glyph-name="uniE12C" unicode="&#xe06c;&#x20dd;" horiz-adv-x="3912" 
d="M2100 2048v-2048h-126v1832h-16q-14 -23 -71 -72.5t-147 -92t-208 -46.5v112q107 4 190 49t141 104t90 107t36 55h111zM1956 -900q-319 0 -607.5 97t-529 273.5t-417 417t-273.5 529t-97 607.5t97 607.5t273.5 529t417 417t529 273.5t607.5 97t607.5 -97t529 -273.5
t417 -417t273.5 -529t97 -607.5t-97 -607.5t-273.5 -529t-417 -417t-529 -273.5t-607.5 -97zM1956 -780q299 0 569 91t496 256.5t391.5 391t256.5 496t91 569.5t-91 569.5t-256.5 496t-391 391t-496 256.5t-569.5 91t-569.5 -91t-496 -256.5t-391 -391t-256.5 -496
t-91 -569.5t91 -569.5t256.5 -496t391 -391t496 -256.5t569.5 -91z" />
    <glyph glyph-name="uniE12D" unicode="&#xe06d;&#x20dd;" horiz-adv-x="3912" 
d="M1318 512h127q4 -127 72 -222.5t182.5 -148.5t256.5 -53q158 0 273 63.5t177.5 173t62.5 246.5q0 142 -72 254t-218 177.5t-367 65.5h-58v109l600 744v11h-946v116h1124v-95l-620 -770v-11q150 -7 274.5 -51.5t215.5 -123t141 -186.5t50 -240q0 -167 -79 -302.5
t-222 -216t-338 -80.5q-175 0 -318 68t-228.5 189.5t-89.5 282.5zM1956 -900q-319 0 -607.5 97t-529 273.5t-417 417t-273.5 529t-97 607.5t97 607.5t273.5 529t417 417t529 273.5t607.5 97t607.5 -97t529 -273.5t417 -417t273.5 -529t97 -607.5t-97 -607.5t-273.5 -529
t-417 -417t-529 -273.5t-607.5 -97zM1956 -780q299 0 569 91t496 256.5t391.5 391t256.5 496t91 569.5t-91 569.5t-256.5 496t-391 391t-496 256.5t-569.5 91t-569.5 -91t-496 -256.5t-391 -391t-256.5 -496t-91 -569.5t91 -569.5t256.5 -496t391 -391t496 -256.5t569.5 -91
z" />
    <glyph glyph-name="uniE12E" unicode="&#xe06e;&#x20dd;" horiz-adv-x="3912" 
d="M1202 460v100l898 1488h132l-880 -1461v-11h1184v-116h-1334zM2150 0v493v46v741h122v-1280h-122zM1956 -900q-319 0 -607.5 97t-529 273.5t-417 417t-273.5 529t-97 607.5t97 607.5t273.5 529t417 417t529 273.5t607.5 97t607.5 -97t529 -273.5t417 -417t273.5 -529
t97 -607.5t-97 -607.5t-273.5 -529t-417 -417t-529 -273.5t-607.5 -97zM1956 -780q299 0 569 91t496 256.5t391.5 391t256.5 496t91 569.5t-91 569.5t-256.5 496t-391 391t-496 256.5t-569.5 91t-569.5 -91t-496 -256.5t-391 -391t-256.5 -496t-91 -569.5t91 -569.5
t256.5 -496t391 -391t496 -256.5t569.5 -91z" />
    <glyph glyph-name="uniE12F" unicode="&#xe06f;&#x20dd;" horiz-adv-x="3912" 
d="M1346 624q1 84 21.5 166t62.5 167.5t106 178.5l625 912h141l-577 -839q52 26 110 40.5t119 14.5q172 0 310 -86.5t219.5 -232.5t81.5 -328q0 -180 -81 -326.5t-219 -232.5t-309 -86q-172 0 -310 87t-219 234.5t-81 330.5zM1468 619q0 -150 65 -270t175.5 -191t247.5 -71
t247.5 70.5t175.5 191t65 268.5q0 150 -65 270t-175.5 190.5t-247.5 70.5t-247.5 -70t-175.5 -190.5t-65 -268.5zM1956 -900q-319 0 -607.5 97t-529 273.5t-417 417t-273.5 529t-97 607.5t97 607.5t273.5 529t417 417t529 273.5t607.5 97t607.5 -97t529 -273.5t417 -417
t273.5 -529t97 -607.5t-97 -607.5t-273.5 -529t-417 -417t-529 -273.5t-607.5 -97zM1956 -780q299 0 569 91t496 256.5t391.5 391t256.5 496t91 569.5t-91 569.5t-256.5 496t-391 391t-496 256.5t-569.5 91t-569.5 -91t-496 -256.5t-391 -391t-256.5 -496t-91 -569.5
t91 -569.5t256.5 -496t391 -391t496 -256.5t569.5 -91z" />
    <glyph glyph-name="uniE130" unicode="&#xe070;&#x20dd;" horiz-adv-x="3912" 
d="M1346 1431q0 180 81 326.5t219 232.5t310 86t310 -87t219 -234.5t80 -330.5q-1 -84 -21.5 -166t-62 -167t-105.5 -179l-626 -912h-141l577 839q-52 -26 -110 -40.5t-119 -14.5q-171 0 -309.5 86.5t-220 233t-81.5 327.5zM1468 1431q0 -150 64.5 -270t175 -190.5
t248.5 -70.5q137 0 247.5 70t175.5 190t65 269t-65 269.5t-175.5 191.5t-247.5 71q-138 0 -248.5 -70.5t-175 -191t-64.5 -268.5zM1956 -900q-319 0 -607.5 97t-529 273.5t-417 417t-273.5 529t-97 607.5t97 607.5t273.5 529t417 417t529 273.5t607.5 97t607.5 -97
t529 -273.5t417 -417t273.5 -529t97 -607.5t-97 -607.5t-273.5 -529t-417 -417t-529 -273.5t-607.5 -97zM1956 -780q299 0 569 91t496 256.5t391.5 391t256.5 496t91 569.5t-91 569.5t-256.5 496t-391 391t-496 256.5t-569.5 91t-569.5 -91t-496 -256.5t-391 -391
t-256.5 -496t-91 -569.5t91 -569.5t256.5 -496t391 -391t496 -256.5t569.5 -91z" />
    <glyph glyph-name="uniE131" unicode="&#x21;&#x20dd;" horiz-adv-x="3912" 
d="M2023 2048l-7 -1451h-120l-7 1451h134zM1956 -13q-45 0 -76.5 31.5t-31.5 76.5q0 44 32 76t76 32t76 -32t32 -76q0 -30 -14.5 -54.5t-39 -39t-54.5 -14.5zM1956 -900q-319 0 -607.5 97t-529 273.5t-417 417t-273.5 529t-97 607.5t97 607.5t273.5 529t417 417t529 273.5
t607.5 97t607.5 -97t529 -273.5t417 -417t273.5 -529t97 -607.5t-97 -607.5t-273.5 -529t-417 -417t-529 -273.5t-607.5 -97zM1956 -780q299 0 569 91t496 256.5t391.5 391t256.5 496t91 569.5t-91 569.5t-256.5 496t-391 391t-496 256.5t-569.5 91t-569.5 -91t-496 -256.5
t-391 -391t-256.5 -496t-91 -569.5t91 -569.5t256.5 -496t391 -391t496 -256.5t569.5 -91z" />
    <glyph glyph-name="uniE132" unicode="&#x3f;&#x20dd;" horiz-adv-x="3912" 
d="M1879 597v98q1 125 30 210t92 151.5t165 134.5q87 60 142 117.5t80.5 120.5t25.5 138q0 117 -55.5 206.5t-150 140t-212.5 50.5t-214 -53t-154 -149t-61 -226h-127q3 159 76.5 281t198.5 190.5t281 68.5q157 0 279 -66.5t191.5 -182.5t69.5 -264q0 -93 -30 -170.5
t-94 -146.5t-166 -140q-93 -64 -146.5 -122t-75.5 -126t-22 -163v-98h-123zM1943 -13q-45 0 -76.5 31.5t-31.5 76.5q0 44 31.5 76t76.5 32t76.5 -32t31.5 -76q0 -30 -14.5 -54.5t-39 -39t-54.5 -14.5zM1956 -900q-319 0 -607.5 97t-529 273.5t-417 417t-273.5 529t-97 607.5
t97 607.5t273.5 529t417 417t529 273.5t607.5 97t607.5 -97t529 -273.5t417 -417t273.5 -529t97 -607.5t-97 -607.5t-273.5 -529t-417 -417t-529 -273.5t-607.5 -97zM1956 -780q299 0 569 91t496 256.5t391.5 391t256.5 496t91 569.5t-91 569.5t-256.5 496t-391 391
t-496 256.5t-569.5 91t-569.5 -91t-496 -256.5t-391 -391t-256.5 -496t-91 -569.5t91 -569.5t256.5 -496t391 -391t496 -256.5t569.5 -91z" />
    <glyph glyph-name="uniE133" unicode="&#x23;&#x20dd;" horiz-adv-x="3912" 
d="M2093 0l336 2048h109l-336 -2048h-109zM1124 613l18 110h1528l-18 -110h-1528zM1373 0l336 2048h109l-336 -2048h-109zM1241 1325l19 110h1528l-19 -110h-1528zM1956 -900q-319 0 -607.5 97t-529 273.5t-417 417t-273.5 529t-97 607.5t97 607.5t273.5 529t417 417
t529 273.5t607.5 97t607.5 -97t529 -273.5t417 -417t273.5 -529t97 -607.5t-97 -607.5t-273.5 -529t-417 -417t-529 -273.5t-607.5 -97zM1956 -780q299 0 569 91t496 256.5t391.5 391t256.5 496t91 569.5t-91 569.5t-256.5 496t-391 391t-496 256.5t-569.5 91t-569.5 -91
t-496 -256.5t-391 -391t-256.5 -496t-91 -569.5t91 -569.5t256.5 -496t391 -391t496 -256.5t569.5 -91z" />
    <glyph glyph-name="uniE134" unicode="&#x2d;&#x20dd;" horiz-adv-x="3912" 
d="M2360 1082v-116h-808v116h808zM1956 -900q-319 0 -607.5 97t-529 273.5t-417 417t-273.5 529t-97 607.5t97 607.5t273.5 529t417 417t529 273.5t607.5 97t607.5 -97t529 -273.5t417 -417t273.5 -529t97 -607.5t-97 -607.5t-273.5 -529t-417 -417t-529 -273.5t-607.5 -97z
M1956 -780q299 0 569 91t496 256.5t391.5 391t256.5 496t91 569.5t-91 569.5t-256.5 496t-391 391t-496 256.5t-569.5 91t-569.5 -91t-496 -256.5t-391 -391t-256.5 -496t-91 -569.5t91 -569.5t256.5 -496t391 -391t496 -256.5t569.5 -91z" />
    <glyph glyph-name="uniE135" unicode="&#x3c;&#x20dd;" horiz-adv-x="3912" 
d="M1336 965v96l1160 693v-136l-1020 -606l10 18v-34l-10 18l1020 -606v-136zM1956 -900q-319 0 -607.5 97t-529 273.5t-417 417t-273.5 529t-97 607.5t97 607.5t273.5 529t417 417t529 273.5t607.5 97t607.5 -97t529 -273.5t417 -417t273.5 -529t97 -607.5t-97 -607.5
t-273.5 -529t-417 -417t-529 -273.5t-607.5 -97zM1956 -780q299 0 569 91t496 256.5t391.5 391t256.5 496t91 569.5t-91 569.5t-256.5 496t-391 391t-496 256.5t-569.5 91t-569.5 -91t-496 -256.5t-391 -391t-256.5 -496t-91 -569.5t91 -569.5t256.5 -496t391 -391
t496 -256.5t569.5 -91z" />
    <glyph glyph-name="uniE136" unicode="&#x3e;&#x20dd;" horiz-adv-x="3912" 
d="M2576 965l-1160 -693v136l1020 606l-11 -18v34l11 -18l-1020 606v136l1160 -693v-96zM1956 -900q-319 0 -607.5 97t-529 273.5t-417 417t-273.5 529t-97 607.5t97 607.5t273.5 529t417 417t529 273.5t607.5 97t607.5 -97t529 -273.5t417 -417t273.5 -529t97 -607.5
t-97 -607.5t-273.5 -529t-417 -417t-529 -273.5t-607.5 -97zM1956 -780q299 0 569 91t496 256.5t391.5 391t256.5 496t91 569.5t-91 569.5t-256.5 496t-391 391t-496 256.5t-569.5 91t-569.5 -91t-496 -256.5t-391 -391t-256.5 -496t-91 -569.5t91 -569.5t256.5 -496
t391 -391t496 -256.5t569.5 -91z" />
    <glyph glyph-name="uniE137" unicode="&#x3d;&#x20dd;" horiz-adv-x="3912" 
d="M1433 1244v115h1045v-115h-1045zM1433 689v115h1045v-115h-1045zM1956 -900q-319 0 -607.5 97t-529 273.5t-417 417t-273.5 529t-97 607.5t97 607.5t273.5 529t417 417t529 273.5t607.5 97t607.5 -97t529 -273.5t417 -417t273.5 -529t97 -607.5t-97 -607.5t-273.5 -529
t-417 -417t-529 -273.5t-607.5 -97zM1956 -780q299 0 569 91t496 256.5t391.5 391t256.5 496t91 569.5t-91 569.5t-256.5 496t-391 391t-496 256.5t-569.5 91t-569.5 -91t-496 -256.5t-391 -391t-256.5 -496t-91 -569.5t91 -569.5t256.5 -496t391 -391t496 -256.5t569.5 -91
z" />
    <glyph glyph-name="uni2295" unicode="&#x2b;&#x20dd;" horiz-adv-x="3912" 
d="M1897 416v1214h117v-1214h-117zM1349 964v118h1213v-118h-1213zM1956 -900q-319 0 -607.5 97t-529 273.5t-417 417t-273.5 529t-97 607.5t97 607.5t273.5 529t417 417t529 273.5t607.5 97t607.5 -97t529 -273.5t417 -417t273.5 -529t97 -607.5t-97 -607.5t-273.5 -529
t-417 -417t-529 -273.5t-607.5 -97zM1956 -780q299 0 569 91t496 256.5t391.5 391t256.5 496t91 569.5t-91 569.5t-256.5 496t-391 391t-496 256.5t-569.5 91t-569.5 -91t-496 -256.5t-391 -391t-256.5 -496t-91 -569.5t91 -569.5t256.5 -496t391 -391t496 -256.5t569.5 -91
z" />
    <glyph glyph-name="uni2296" unicode="&#x2212;&#x20dd;" horiz-adv-x="3912" 
d="M2556 1083v-118h-1200v118h1200zM1956 -900q-319 0 -607.5 97t-529 273.5t-417 417t-273.5 529t-97 607.5t97 607.5t273.5 529t417 417t529 273.5t607.5 97t607.5 -97t529 -273.5t417 -417t273.5 -529t97 -607.5t-97 -607.5t-273.5 -529t-417 -417t-529 -273.5
t-607.5 -97zM1956 -780q299 0 569 91t496 256.5t391.5 391t256.5 496t91 569.5t-91 569.5t-256.5 496t-391 391t-496 256.5t-569.5 91t-569.5 -91t-496 -256.5t-391 -391t-256.5 -496t-91 -569.5t91 -569.5t256.5 -496t391 -391t496 -256.5t569.5 -91z" />
    <glyph glyph-name="uni2297" unicode="&#xd7;&#x20dd;" horiz-adv-x="3912" 
d="M2479 403l-1128 1128l81 82l1128 -1128zM1432 403l-81 82l1128 1128l81 -82zM1956 -900q-319 0 -607.5 97t-529 273.5t-417 417t-273.5 529t-97 607.5t97 607.5t273.5 529t417 417t529 273.5t607.5 97t607.5 -97t529 -273.5t417 -417t273.5 -529t97 -607.5t-97 -607.5
t-273.5 -529t-417 -417t-529 -273.5t-607.5 -97zM1956 -780q299 0 569 91t496 256.5t391.5 391t256.5 496t91 569.5t-91 569.5t-256.5 496t-391 391t-496 256.5t-569.5 91t-569.5 -91t-496 -256.5t-391 -391t-256.5 -496t-91 -569.5t91 -569.5t256.5 -496t391 -391
t496 -256.5t569.5 -91z" />
    <glyph glyph-name="uni2A38" unicode="&#xf7;&#x20dd;" horiz-adv-x="3912" 
d="M2556 1083v-118h-1200v118h1200zM1956 440q-45 0 -76.5 31.5t-31.5 76.5q0 44 31.5 75.5t76.5 31.5q43 0 74.5 -31.5t31.5 -75.5q0 -45 -31.5 -76.5t-74.5 -31.5zM1956 1393q-30 0 -55 14.5t-39 39t-14 55.5q0 43 31.5 74.5t76.5 31.5q43 0 74.5 -31.5t31.5 -74.5
q0 -46 -31.5 -77.5t-74.5 -31.5zM1956 -900q-319 0 -607.5 97t-529 273.5t-417 417t-273.5 529t-97 607.5t97 607.5t273.5 529t417 417t529 273.5t607.5 97t607.5 -97t529 -273.5t417 -417t273.5 -529t97 -607.5t-97 -607.5t-273.5 -529t-417 -417t-529 -273.5t-607.5 -97z
M1956 -780q299 0 569 91t496 256.5t391.5 391t256.5 496t91 569.5t-91 569.5t-256.5 496t-391 391t-496 256.5t-569.5 91t-569.5 -91t-496 -256.5t-391 -391t-256.5 -496t-91 -569.5t91 -569.5t256.5 -496t391 -391t496 -256.5t569.5 -91z" />
    <glyph glyph-name="uniE138" unicode="&#x2191;&#x20dd;" horiz-adv-x="3912" 
d="M1900 0v1840l-757 -758l-83 82l898 896l896 -896l-80 -82l-758 758v-1840h-116zM1956 -900q-319 0 -607.5 97t-529 273.5t-417 417t-273.5 529t-97 607.5t97 607.5t273.5 529t417 417t529 273.5t607.5 97t607.5 -97t529 -273.5t417 -417t273.5 -529t97 -607.5t-97 -607.5
t-273.5 -529t-417 -417t-529 -273.5t-607.5 -97zM1956 -780q299 0 569 91t496 256.5t391.5 391t256.5 496t91 569.5t-91 569.5t-256.5 496t-391 391t-496 256.5t-569.5 91t-569.5 -91t-496 -256.5t-391 -391t-256.5 -496t-91 -569.5t91 -569.5t256.5 -496t391 -391
t496 -256.5t569.5 -91z" />
    <glyph glyph-name="uniE139" unicode="&#x2193;&#x20dd;" horiz-adv-x="3912" 
d="M2014 2048v-1840l757 758l83 -82l-898 -896l-896 896l80 82l758 -758v1840h116zM1956 -900q-319 0 -607.5 97t-529 273.5t-417 417t-273.5 529t-97 607.5t97 607.5t273.5 529t417 417t529 273.5t607.5 97t607.5 -97t529 -273.5t417 -417t273.5 -529t97 -607.5t-97 -607.5
t-273.5 -529t-417 -417t-529 -273.5t-607.5 -97zM1956 -780q299 0 569 91t496 256.5t391.5 391t256.5 496t91 569.5t-91 569.5t-256.5 496t-391 391t-496 256.5t-569.5 91t-569.5 -91t-496 -256.5t-391 -391t-256.5 -496t-91 -569.5t91 -569.5t256.5 -496t391 -391
t496 -256.5t569.5 -91z" />
    <glyph glyph-name="uniE13A" unicode="&#x2190;&#x20dd;" horiz-adv-x="3912" 
d="M1824 128l-896 896l896 896l82 -80l-758 -758h1838v-116h-1838l758 -756zM1956 -900q-319 0 -607.5 97t-529 273.5t-417 417t-273.5 529t-97 607.5t97 607.5t273.5 529t417 417t529 273.5t607.5 97t607.5 -97t529 -273.5t417 -417t273.5 -529t97 -607.5t-97 -607.5
t-273.5 -529t-417 -417t-529 -273.5t-607.5 -97zM1956 -780q299 0 569 91t496 256.5t391.5 391t256.5 496t91 569.5t-91 569.5t-256.5 496t-391 391t-496 256.5t-569.5 91t-569.5 -91t-496 -256.5t-391 -391t-256.5 -496t-91 -569.5t91 -569.5t256.5 -496t391 -391
t496 -256.5t569.5 -91z" />
    <glyph glyph-name="uniE13B" unicode="&#x2192;&#x20dd;" horiz-adv-x="3912" 
d="M2090 128l-82 81l758 757h-1838v116h1838l-758 757l82 81l896 -896zM1956 -900q-319 0 -607.5 97t-529 273.5t-417 417t-273.5 529t-97 607.5t97 607.5t273.5 529t417 417t529 273.5t607.5 97t607.5 -97t529 -273.5t417 -417t273.5 -529t97 -607.5t-97 -607.5
t-273.5 -529t-417 -417t-529 -273.5t-607.5 -97zM1956 -780q299 0 569 91t496 256.5t391.5 391t256.5 496t91 569.5t-91 569.5t-256.5 496t-391 391t-496 256.5t-569.5 91t-569.5 -91t-496 -256.5t-391 -391t-256.5 -496t-91 -569.5t91 -569.5t256.5 -496t391 -391
t496 -256.5t569.5 -91z" />
    <glyph glyph-name="uniE13C" unicode="&#x2713;&#x20dd;" horiz-adv-x="3912" 
d="M1077 1019l80 84l562 -558l1127 1123l84 -81l-1211 -1204zM1956 -900q-319 0 -607.5 97t-529 273.5t-417 417t-273.5 529t-97 607.5t97 607.5t273.5 529t417 417t529 273.5t607.5 97t607.5 -97t529 -273.5t417 -417t273.5 -529t97 -607.5t-97 -607.5t-273.5 -529
t-417 -417t-529 -273.5t-607.5 -97zM1956 -780q299 0 569 91t496 256.5t391.5 391t256.5 496t91 569.5t-91 569.5t-256.5 496t-391 391t-496 256.5t-569.5 91t-569.5 -91t-496 -256.5t-391 -391t-256.5 -496t-91 -569.5t91 -569.5t256.5 -496t391 -391t496 -256.5t569.5 -91
z" />
    <glyph glyph-name="uniE13D" unicode="&#x2717;&#x20dd;" horiz-adv-x="3912" 
d="M1400 390l-81 81l1191 1187l84 -82zM2512 390l-1193 1186l84 82l1191 -1187zM1956 -900q-319 0 -607.5 97t-529 273.5t-417 417t-273.5 529t-97 607.5t97 607.5t273.5 529t417 417t529 273.5t607.5 97t607.5 -97t529 -273.5t417 -417t273.5 -529t97 -607.5t-97 -607.5
t-273.5 -529t-417 -417t-529 -273.5t-607.5 -97zM1956 -780q299 0 569 91t496 256.5t391.5 391t256.5 496t91 569.5t-91 569.5t-256.5 496t-391 391t-496 256.5t-569.5 91t-569.5 -91t-496 -256.5t-391 -391t-256.5 -496t-91 -569.5t91 -569.5t256.5 -496t391 -391
t496 -256.5t569.5 -91z" />
    <glyph glyph-name="u1F130" unicode="A&#x20de;" horiz-adv-x="3912" 
d="M1277 0h-132l739 2048h144l739 -2048h-132l-674 1887h-10zM1464 771h984v-116h-984v116zM450 -828q-168 0 -256 88t-88 256v3024q0 168 88 256t256 88h3024q168 0 256 -88t88 -256v-3024q0 -168 -88 -256t-256 -88h-3024zM438 -708h3047q106 0 159.5 53.5t53.5 159.5
v3046q0 106 -53.5 159.5t-159.5 53.5h-3047q-105 0 -158.5 -53.5t-53.5 -159.5v-3046q0 -106 53.5 -159.5t158.5 -53.5z" />
    <glyph glyph-name="u1F131" unicode="B&#x20de;" horiz-adv-x="3912" 
d="M1368 0v2048h665q186 0 314 -66t194.5 -185t66.5 -277q0 -124 -40 -220t-111.5 -158.5t-167.5 -86.5v-12q106 -8 197 -73.5t146.5 -177.5t55.5 -261q0 -157 -67.5 -276.5t-201.5 -187t-332 -67.5h-719zM1493 116h594q231 0 355.5 116t124.5 299q0 129 -60.5 231
t-167.5 161.5t-248 59.5h-598v-867zM1493 1097h583q131 0 222.5 57t140 153t48.5 213q0 190 -118 301t-336 111h-540v-835zM444 -832q-168 0 -256 88t-88 256v3024q0 168 88 256t256 88h3024q168 0 256 -88t88 -256v-3024q0 -168 -88 -256t-256 -88h-3024zM432 -712h3047
q106 0 159.5 53.5t53.5 159.5v3046q0 106 -53.5 159.5t-159.5 53.5h-3047q-105 0 -158.5 -53.5t-53.5 -159.5v-3046q0 -106 53.5 -159.5t158.5 -53.5z" />
    <glyph glyph-name="u1F132" unicode="C&#x20de;" horiz-adv-x="3912" 
d="M2788 1408h-128q-20 104 -75 201.5t-141.5 176t-200.5 124.5t-252 46q-202 0 -371.5 -107.5t-271 -315.5t-101.5 -509q0 -303 101.5 -511t271 -314.5t371.5 -106.5q138 0 252 45.5t200.5 124t141.5 176.5t75 202h128q-22 -124 -84.5 -243t-164 -215.5t-239 -153
t-309.5 -56.5q-256 0 -451 130.5t-305.5 367.5t-110.5 554t110.5 554t305.5 367.5t451 130.5q172 0 309.5 -56.5t239 -152t164 -214.5t84.5 -245zM444 -832q-168 0 -256 88t-88 256v3024q0 168 88 256t256 88h3024q168 0 256 -88t88 -256v-3024q0 -168 -88 -256t-256 -88
h-3024zM432 -712h3047q106 0 159.5 53.5t53.5 159.5v3046q0 106 -53.5 159.5t-159.5 53.5h-3047q-105 0 -158.5 -53.5t-53.5 -159.5v-3046q0 -106 53.5 -159.5t158.5 -53.5z" />
    <glyph glyph-name="u1F133" unicode="D&#x20de;" horiz-adv-x="3912" 
d="M1833 0h-568v2048h612q288 0 493 -122t314.5 -349.5t108.5 -545.5q-1 -325 -114 -555.5t-327 -353t-519 -122.5zM1390 116h438q274 0 462 109.5t284.5 314.5t95.5 491q0 282 -93 483.5t-270.5 309.5t-434.5 108h-482v-1816zM444 -832q-168 0 -256 88t-88 256v3024
q0 168 88 256t256 88h3024q168 0 256 -88t88 -256v-3024q0 -168 -88 -256t-256 -88h-3024zM432 -712h3047q106 0 159.5 53.5t53.5 159.5v3046q0 106 -53.5 159.5t-159.5 53.5h-3047q-105 0 -158.5 -53.5t-53.5 -159.5v-3046q0 -106 53.5 -159.5t158.5 -53.5z" />
    <glyph glyph-name="u1F134" unicode="E&#x20de;" horiz-adv-x="3912" 
d="M1374 0v2048h1140v-116h-1015v-849h954v-116h-954v-851h1039v-116h-1164zM444 -832q-168 0 -256 88t-88 256v3024q0 168 88 256t256 88h3024q168 0 256 -88t88 -256v-3024q0 -168 -88 -256t-256 -88h-3024zM432 -712h3047q106 0 159.5 53.5t53.5 159.5v3046
q0 106 -53.5 159.5t-159.5 53.5h-3047q-105 0 -158.5 -53.5t-53.5 -159.5v-3046q0 -106 53.5 -159.5t158.5 -53.5z" />
    <glyph glyph-name="u1F135" unicode="F&#x20de;" horiz-adv-x="3912" 
d="M1418 0v2048h1143v-116h-1018v-849h923v-116h-923v-967h-125zM444 -832q-168 0 -256 88t-88 256v3024q0 168 88 256t256 88h3024q168 0 256 -88t88 -256v-3024q0 -168 -88 -256t-256 -88h-3024zM432 -712h3047q106 0 159.5 53.5t53.5 159.5v3046q0 106 -53.5 159.5
t-159.5 53.5h-3047q-105 0 -158.5 -53.5t-53.5 -159.5v-3046q0 -106 53.5 -159.5t158.5 -53.5z" />
    <glyph glyph-name="u1F136" unicode="G&#x20de;" horiz-adv-x="3912" 
d="M2654 1408q-23 104 -78 201.5t-140.5 176t-200 124.5t-256.5 46q-217 0 -384.5 -113.5t-262 -323t-94.5 -495.5q0 -283 94 -493t263.5 -324.5t394.5 -114.5q201 0 356.5 93t242.5 266t85 414l44 -21h-696v116h774v-116q0 -271 -103.5 -466.5t-286 -300.5t-416.5 -105
q-264 0 -461 131t-305.5 367.5t-108.5 553.5q0 238 62 432t177 332.5t274 213t351 74.5q174 0 313 -57.5t240.5 -154t164.5 -215t85 -241.5h-128zM444 -832q-168 0 -256 88t-88 256v3024q0 168 88 256t256 88h3024q168 0 256 -88t88 -256v-3024q0 -168 -88 -256t-256 -88
h-3024zM432 -712h3047q106 0 159.5 53.5t53.5 159.5v3046q0 106 -53.5 159.5t-159.5 53.5h-3047q-105 0 -158.5 -53.5t-53.5 -159.5v-3046q0 -106 53.5 -159.5t158.5 -53.5z" />
    <glyph glyph-name="u1F137" unicode="H&#x20de;" horiz-adv-x="3912" 
d="M1214 0v2048h125v-965h1234v965h125v-2048h-125v967h-1234v-967h-125zM444 -832q-168 0 -256 88t-88 256v3024q0 168 88 256t256 88h3024q168 0 256 -88t88 -256v-3024q0 -168 -88 -256t-256 -88h-3024zM432 -712h3047q106 0 159.5 53.5t53.5 159.5v3046
q0 106 -53.5 159.5t-159.5 53.5h-3047q-105 0 -158.5 -53.5t-53.5 -159.5v-3046q0 -106 53.5 -159.5t158.5 -53.5z" />
    <glyph glyph-name="u1F138" unicode="I&#x20de;" horiz-adv-x="3912" 
d="M2018 2048v-2048h-125v2048h125zM444 -832q-168 0 -256 88t-88 256v3024q0 168 88 256t256 88h3024q168 0 256 -88t88 -256v-3024q0 -168 -88 -256t-256 -88h-3024zM432 -712h3047q106 0 159.5 53.5t53.5 159.5v3046q0 106 -53.5 159.5t-159.5 53.5h-3047
q-105 0 -158.5 -53.5t-53.5 -159.5v-3046q0 -106 53.5 -159.5t158.5 -53.5z" />
    <glyph glyph-name="u1F139" unicode="J&#x20de;" horiz-adv-x="3912" 
d="M2302 2048h125v-1491q0 -204 -70.5 -333t-189 -190.5t-265.5 -61.5q-150 0 -268.5 56.5t-187.5 156.5t-68 231h124q-1 -96 51.5 -169.5t143.5 -116t205 -42.5q110 0 201 47t144.5 150t54.5 272v1491zM444 -832q-168 0 -256 88t-88 256v3024q0 168 88 256t256 88h3024
q168 0 256 -88t88 -256v-3024q0 -168 -88 -256t-256 -88h-3024zM432 -712h3047q106 0 159.5 53.5t53.5 159.5v3046q0 106 -53.5 159.5t-159.5 53.5h-3047q-105 0 -158.5 -53.5t-53.5 -159.5v-3046q0 -106 53.5 -159.5t158.5 -53.5z" />
    <glyph glyph-name="u1F13A" unicode="K&#x20de;" horiz-adv-x="3912" 
d="M1303 0v2048h125v-1189h14l1080 1189h166l-889 -969l881 -1079h-156l-805 989l-291 -322v-667h-125zM444 -832q-168 0 -256 88t-88 256v3024q0 168 88 256t256 88h3024q168 0 256 -88t88 -256v-3024q0 -168 -88 -256t-256 -88h-3024zM432 -712h3047q106 0 159.5 53.5
t53.5 159.5v3046q0 106 -53.5 159.5t-159.5 53.5h-3047q-105 0 -158.5 -53.5t-53.5 -159.5v-3046q0 -106 53.5 -159.5t158.5 -53.5z" />
    <glyph glyph-name="u1F13B" unicode="L&#x20de;" horiz-adv-x="3912" 
d="M1433 0v2048h125v-1932h1000v-116h-1125zM444 -832q-168 0 -256 88t-88 256v3024q0 168 88 256t256 88h3024q168 0 256 -88t88 -256v-3024q0 -168 -88 -256t-256 -88h-3024zM432 -712h3047q106 0 159.5 53.5t53.5 159.5v3046q0 106 -53.5 159.5t-159.5 53.5h-3047
q-105 0 -158.5 -53.5t-53.5 -159.5v-3046q0 -106 53.5 -159.5t158.5 -53.5z" />
    <glyph glyph-name="u1F13C" unicode="M&#x20de;" horiz-adv-x="3912" 
d="M1024 2048h136l789 -1868h14l789 1868h136v-2048h-120v1751h-12l-741 -1751h-118l-741 1751h-12v-1751h-120v2048zM444 -832q-168 0 -256 88t-88 256v3024q0 168 88 256t256 88h3024q168 0 256 -88t88 -256v-3024q0 -168 -88 -256t-256 -88h-3024zM432 -712h3047
q106 0 159.5 53.5t53.5 159.5v3046q0 106 -53.5 159.5t-159.5 53.5h-3047q-105 0 -158.5 -53.5t-53.5 -159.5v-3046q0 -106 53.5 -159.5t158.5 -53.5z" />
    <glyph glyph-name="u1F13D" unicode="N&#x20de;" horiz-adv-x="3912" 
d="M2738 2048v-2048h-122l-1306 1821h-12v-1821h-125v2048h123l1306 -1823h12v1823h124zM444 -832q-168 0 -256 88t-88 256v3024q0 168 88 256t256 88h3024q168 0 256 -88t88 -256v-3024q0 -168 -88 -256t-256 -88h-3024zM432 -712h3047q106 0 159.5 53.5t53.5 159.5v3046
q0 106 -53.5 159.5t-159.5 53.5h-3047q-105 0 -158.5 -53.5t-53.5 -159.5v-3046q0 -106 53.5 -159.5t158.5 -53.5z" />
    <glyph glyph-name="u1F13E" unicode="O&#x20de;" horiz-adv-x="3912" 
d="M2822 1024q0 -317 -110 -553.5t-305.5 -367.5t-450.5 -131q-256 0 -451.5 131.5t-305.5 368t-110 552.5q0 317 110.5 553t305.5 367.5t451 131.5q255 0 450.5 -131t305.5 -367.5t110 -553.5zM2700 1024q0 285 -95.5 494t-263.5 323.5t-385 114.5t-385 -113.5t-263.5 -323
t-95.5 -495.5q0 -283 94.5 -492.5t262.5 -324.5t387 -115q217 0 385 114.5t263.5 323.5t95.5 494zM444 -832q-168 0 -256 88t-88 256v3024q0 168 88 256t256 88h3024q168 0 256 -88t88 -256v-3024q0 -168 -88 -256t-256 -88h-3024zM432 -712h3047q106 0 159.5 53.5
t53.5 159.5v3046q0 106 -53.5 159.5t-159.5 53.5h-3047q-105 0 -158.5 -53.5t-53.5 -159.5v-3046q0 -106 53.5 -159.5t158.5 -53.5z" />
    <glyph glyph-name="u1F13F" unicode="P&#x20de;" horiz-adv-x="3912" 
d="M1401 0v2048h631q195 0 334.5 -80t214.5 -219t75 -317q0 -176 -75 -315t-214.5 -219.5t-333.5 -80.5h-544v116h541q158 0 270 64.5t172 177t60 257.5q0 146 -60 259t-172.5 177t-270.5 64h-503v-1932h-125zM444 -832q-168 0 -256 88t-88 256v3024q0 168 88 256t256 88
h3024q168 0 256 -88t88 -256v-3024q0 -168 -88 -256t-256 -88h-3024zM432 -712h3047q106 0 159.5 53.5t53.5 159.5v3046q0 106 -53.5 159.5t-159.5 53.5h-3047q-105 0 -158.5 -53.5t-53.5 -159.5v-3046q0 -106 53.5 -159.5t158.5 -53.5z" />
    <glyph glyph-name="u1F140" unicode="Q&#x20de;" horiz-adv-x="3912" 
d="M1982 640h144l298 -393l28 -38l302 -401h-144l-248 329l-26 36zM2822 1024q0 -317 -110 -553.5t-305.5 -367.5t-450.5 -131q-256 0 -451.5 131.5t-305.5 368t-110 552.5q0 317 110.5 553t305.5 367.5t451 131.5q255 0 450.5 -131t305.5 -367.5t110 -553.5zM2700 1024
q0 285 -95.5 494t-263.5 323.5t-385 114.5t-385 -113.5t-263.5 -323t-95.5 -495.5q0 -283 94.5 -492.5t262.5 -324.5t387 -115q217 0 385 114.5t263.5 323.5t95.5 494zM444 -832q-168 0 -256 88t-88 256v3024q0 168 88 256t256 88h3024q168 0 256 -88t88 -256v-3024
q0 -168 -88 -256t-256 -88h-3024zM432 -712h3047q106 0 159.5 53.5t53.5 159.5v3046q0 106 -53.5 159.5t-159.5 53.5h-3047q-105 0 -158.5 -53.5t-53.5 -159.5v-3046q0 -106 53.5 -159.5t158.5 -53.5z" />
    <glyph glyph-name="u1F141" unicode="R&#x20de;" horiz-adv-x="3912" 
d="M1376 0v2048h631q194 0 334 -76t215 -210.5t75 -312.5q0 -176 -75 -309.5t-214.5 -208.5t-333.5 -75h-565v117h562q158 0 270 59t172 165.5t60 251.5q0 146 -60 254.5t-172.5 168.5t-270.5 60h-503v-1932h-125zM2217 928l504 -928h-144l-501 928h141zM444 -832
q-168 0 -256 88t-88 256v3024q0 168 88 256t256 88h3024q168 0 256 -88t88 -256v-3024q0 -168 -88 -256t-256 -88h-3024zM432 -712h3047q106 0 159.5 53.5t53.5 159.5v3046q0 106 -53.5 159.5t-159.5 53.5h-3047q-105 0 -158.5 -53.5t-53.5 -159.5v-3046q0 -106 53.5 -159.5
t158.5 -53.5z" />
    <glyph glyph-name="u1F142" unicode="S&#x20de;" horiz-adv-x="3912" 
d="M2482 1536q-16 191 -155.5 309t-360.5 118q-149 0 -265 -55t-182 -150t-66 -218q0 -79 30.5 -142.5t86.5 -113t133 -86.5t170 -65l224 -66q115 -35 212.5 -81t170 -109.5t113 -148.5t40.5 -196q0 -162 -83.5 -290t-237 -201.5t-361.5 -73.5q-198 0 -344.5 67
t-231.5 186.5t-96 275.5h128q10 -127 81.5 -219.5t190.5 -142.5t272 -50q165 0 291 56.5t197 157.5t71 235q0 108 -51 185t-150.5 133t-246.5 100l-239 72q-240 73 -366.5 199t-126.5 314q0 158 84 280.5t228.5 192.5t326.5 70q183 0 323 -70.5t222 -193t91 -279.5h-123z
M444 -832q-168 0 -256 88t-88 256v3024q0 168 88 256t256 88h3024q168 0 256 -88t88 -256v-3024q0 -168 -88 -256t-256 -88h-3024zM432 -712h3047q106 0 159.5 53.5t53.5 159.5v3046q0 106 -53.5 159.5t-159.5 53.5h-3047q-105 0 -158.5 -53.5t-53.5 -159.5v-3046
q0 -106 53.5 -159.5t158.5 -53.5z" />
    <glyph glyph-name="u1F143" unicode="T&#x20de;" horiz-adv-x="3912" 
d="M1239 1932v116h1435v-116h-655v-1932h-125v1932h-655zM444 -832q-168 0 -256 88t-88 256v3024q0 168 88 256t256 88h3024q168 0 256 -88t88 -256v-3024q0 -168 -88 -256t-256 -88h-3024zM432 -712h3047q106 0 159.5 53.5t53.5 159.5v3046q0 106 -53.5 159.5t-159.5 53.5
h-3047q-105 0 -158.5 -53.5t-53.5 -159.5v-3046q0 -106 53.5 -159.5t158.5 -53.5z" />
    <glyph glyph-name="u1F144" unicode="U&#x20de;" horiz-adv-x="3912" 
d="M2587 2048h125v-1356q0 -209 -97 -372.5t-267.5 -258t-391.5 -94.5q-220 0 -391 94.5t-268.5 258.5t-96.5 372v1356h125v-1349q0 -177 80.5 -315t222.5 -217.5t328 -79.5t328 79.5t222.5 217.5t80.5 315v1349zM444 -832q-168 0 -256 88t-88 256v3024q0 168 88 256t256 88
h3024q168 0 256 -88t88 -256v-3024q0 -168 -88 -256t-256 -88h-3024zM432 -712h3047q106 0 159.5 53.5t53.5 159.5v3046q0 106 -53.5 159.5t-159.5 53.5h-3047q-105 0 -158.5 -53.5t-53.5 -159.5v-3046q0 -106 53.5 -159.5t158.5 -53.5z" />
    <glyph glyph-name="u1F145" unicode="V&#x20de;" horiz-adv-x="3912" 
d="M1277 2048l672 -1887h14l672 1887h132l-739 -2048h-144l-739 2048h132zM444 -832q-168 0 -256 88t-88 256v3024q0 168 88 256t256 88h3024q168 0 256 -88t88 -256v-3024q0 -168 -88 -256t-256 -88h-3024zM432 -712h3047q106 0 159.5 53.5t53.5 159.5v3046
q0 106 -53.5 159.5t-159.5 53.5h-3047q-105 0 -158.5 -53.5t-53.5 -159.5v-3046q0 -106 53.5 -159.5t158.5 -53.5z" />
    <glyph glyph-name="u1F146" unicode="W&#x20de;" horiz-adv-x="3912" 
d="M1309 0l-563 2048h130l500 -1855h12l492 1855h152l492 -1855h12l500 1855h129l-563 -2048h-144l-497 1843h-11l-497 -1843h-144zM444 -832q-168 0 -256 88t-88 256v3024q0 168 88 256t256 88h3024q168 0 256 -88t88 -256v-3024q0 -168 -88 -256t-256 -88h-3024zM432 -712
h3047q106 0 159.5 53.5t53.5 159.5v3046q0 106 -53.5 159.5t-159.5 53.5h-3047q-105 0 -158.5 -53.5t-53.5 -159.5v-3046q0 -106 53.5 -159.5t158.5 -53.5z" />
    <glyph glyph-name="u1F147" unicode="X&#x20de;" horiz-adv-x="3912" 
d="M1345 2048l605 -927h11l605 927h151l-673 -1024l673 -1024h-151l-605 921h-11l-605 -921h-151l679 1024l-679 1024h151zM444 -832q-168 0 -256 88t-88 256v3024q0 168 88 256t256 88h3024q168 0 256 -88t88 -256v-3024q0 -168 -88 -256t-256 -88h-3024zM432 -712h3047
q106 0 159.5 53.5t53.5 159.5v3046q0 106 -53.5 159.5t-159.5 53.5h-3047q-105 0 -158.5 -53.5t-53.5 -159.5v-3046q0 -106 53.5 -159.5t158.5 -53.5z" />
    <glyph glyph-name="u1F148" unicode="Y&#x20de;" horiz-adv-x="3912" 
d="M1156 2048h148l645 -988h14l645 988h148l-737 -1119v-929h-126v929zM444 -832q-168 0 -256 88t-88 256v3024q0 168 88 256t256 88h3024q168 0 256 -88t88 -256v-3024q0 -168 -88 -256t-256 -88h-3024zM432 -712h3047q106 0 159.5 53.5t53.5 159.5v3046q0 106 -53.5 159.5
t-159.5 53.5h-3047q-105 0 -158.5 -53.5t-53.5 -159.5v-3046q0 -106 53.5 -159.5t158.5 -53.5z" />
    <glyph glyph-name="u1F149" unicode="Z&#x20de;" horiz-adv-x="3912" 
d="M1293 0v103l1171 1829h-1169v116h1318v-103l-1170 -1829h1180v-116h-1330zM444 -832q-168 0 -256 88t-88 256v3024q0 168 88 256t256 88h3024q168 0 256 -88t88 -256v-3024q0 -168 -88 -256t-256 -88h-3024zM432 -712h3047q106 0 159.5 53.5t53.5 159.5v3046
q0 106 -53.5 159.5t-159.5 53.5h-3047q-105 0 -158.5 -53.5t-53.5 -159.5v-3046q0 -106 53.5 -159.5t158.5 -53.5z" />
    <glyph glyph-name="uniE13E" unicode="&#x30;&#x20de;" horiz-adv-x="3912" 
d="M1956 -28q-205 0 -352 126t-225.5 361.5t-78.5 564.5q0 328 79 564t225.5 362t351.5 126t351.5 -126t225.5 -362t79 -564q0 -329 -78.5 -564.5t-225.5 -361.5t-352 -126zM1956 88q249 0 391 247.5t142 688.5q0 294 -64.5 504t-183.5 321.5t-285 111.5q-249 0 -391 -248
t-142 -689q0 -294 64 -503.5t183.5 -321t285.5 -111.5zM444 -832q-168 0 -256 88t-88 256v3024q0 168 88 256t256 88h3024q168 0 256 -88t88 -256v-3024q0 -168 -88 -256t-256 -88h-3024zM432 -712h3047q106 0 159.5 53.5t53.5 159.5v3046q0 106 -53.5 159.5t-159.5 53.5
h-3047q-105 0 -158.5 -53.5t-53.5 -159.5v-3046q0 -106 53.5 -159.5t158.5 -53.5z" />
    <glyph glyph-name="uniE13F" unicode="&#x31;&#x20de;" horiz-adv-x="3912" 
d="M2066 2048v-2048h-125v1916h-12l-460 -305v134l456 303h141zM444 -832q-168 0 -256 88t-88 256v3024q0 168 88 256t256 88h3024q168 0 256 -88t88 -256v-3024q0 -168 -88 -256t-256 -88h-3024zM432 -712h3047q106 0 159.5 53.5t53.5 159.5v3046q0 106 -53.5 159.5
t-159.5 53.5h-3047q-105 0 -158.5 -53.5t-53.5 -159.5v-3046q0 -106 53.5 -159.5t158.5 -53.5z" />
    <glyph glyph-name="uniE140" unicode="&#x32;&#x20de;" horiz-adv-x="3912" 
d="M1329 0v95l663 764q142 164 225 278t119 206t36 192q0 125 -58.5 221.5t-159 150.5t-228.5 54q-134 0 -235 -59t-157.5 -160t-56.5 -227h-121q0 159 74 286t203.5 201t295.5 74q163 0 290 -71t200 -193.5t73 -276.5q0 -113 -38.5 -217.5t-131.5 -233t-257 -316.5
l-556 -641v-11h1075v-116h-1255zM444 -832q-168 0 -256 88t-88 256v3024q0 168 88 256t256 88h3024q168 0 256 -88t88 -256v-3024q0 -168 -88 -256t-256 -88h-3024zM432 -712h3047q106 0 159.5 53.5t53.5 159.5v3046q0 106 -53.5 159.5t-159.5 53.5h-3047
q-105 0 -158.5 -53.5t-53.5 -159.5v-3046q0 -106 53.5 -159.5t158.5 -53.5z" />
    <glyph glyph-name="uniE141" unicode="&#x33;&#x20de;" horiz-adv-x="3912" 
d="M1957 -28q-182 0 -325 69.5t-226.5 191t-86.5 279.5h127q3 -125 71 -220.5t182.5 -149.5t255.5 -54q153 0 268.5 60t180.5 162.5t65 229.5q0 136 -71 238.5t-198 160t-295 57.5h-76v116h76q143 0 256 52.5t178.5 148.5t65.5 227q0 123 -57 218t-157.5 149t-235.5 54
q-130 0 -235.5 -53t-167.5 -149t-63 -223h-123q2 159 80.5 281t211 190.5t299.5 68.5q170 0 298.5 -71t200 -192t71.5 -269q0 -178 -98.5 -304.5t-266.5 -175.5v-11q199 -44 315 -181t116 -332q0 -160 -82 -289t-225.5 -204t-328.5 -75zM444 -832q-168 0 -256 88t-88 256
v3024q0 168 88 256t256 88h3024q168 0 256 -88t88 -256v-3024q0 -168 -88 -256t-256 -88h-3024zM432 -712h3047q106 0 159.5 53.5t53.5 159.5v3046q0 106 -53.5 159.5t-159.5 53.5h-3047q-105 0 -158.5 -53.5t-53.5 -159.5v-3046q0 -106 53.5 -159.5t158.5 -53.5z" />
    <glyph glyph-name="uniE142" unicode="&#x34;&#x20de;" horiz-adv-x="3912" 
d="M1196 460v100l927 1488h76v-193h-65l-787 -1268v-11h1183v-116h-1334zM2144 0v494v45v1509h122v-2048h-122zM444 -832q-168 0 -256 88t-88 256v3024q0 168 88 256t256 88h3024q168 0 256 -88t88 -256v-3024q0 -168 -88 -256t-256 -88h-3024zM432 -712h3047
q106 0 159.5 53.5t53.5 159.5v3046q0 106 -53.5 159.5t-159.5 53.5h-3047q-105 0 -158.5 -53.5t-53.5 -159.5v-3046q0 -106 53.5 -159.5t158.5 -53.5z" />
    <glyph glyph-name="uniE143" unicode="&#x35;&#x20de;" horiz-adv-x="3912" 
d="M1926 -28q-164 0 -292.5 69.5t-203 191.5t-76.5 279h123q4 -186 129 -305t320 -119q150 0 264.5 72.5t179.5 197.5t64 282q0 166 -70 290t-187 192t-259 69q-112 0 -210 -40.5t-167 -103.5l-141 20l121 981h960v-116h-853l-94 -767h10q72 64 171.5 103.5t216.5 39.5
q172 0 314.5 -84t227 -234t83.5 -349q-1 -192 -82 -343t-223.5 -238.5t-325.5 -87.5zM444 -832q-168 0 -256 88t-88 256v3024q0 168 88 256t256 88h3024q168 0 256 -88t88 -256v-3024q0 -168 -88 -256t-256 -88h-3024zM432 -712h3047q106 0 159.5 53.5t53.5 159.5v3046
q0 106 -53.5 159.5t-159.5 53.5h-3047q-105 0 -158.5 -53.5t-53.5 -159.5v-3046q0 -106 53.5 -159.5t158.5 -53.5z" />
    <glyph glyph-name="uniE144" unicode="&#x36;&#x20de;" horiz-adv-x="3912" 
d="M1965 -28q-129 1 -245 55.5t-205.5 170t-141 298t-51.5 437.5q0 229 36.5 435.5t115.5 366t206.5 251t308.5 91.5q158 0 278.5 -68.5t192.5 -190.5t87 -282h-124q-21 188 -133.5 306.5t-300.5 118.5q-266 0 -406.5 -260t-140.5 -745h11q40 96 118.5 169.5t181.5 114.5
t217 41q166 0 303.5 -85t220.5 -233t83 -335q0 -177 -77 -326.5t-214.5 -240t-320.5 -89.5zM1965 88q140 0 250.5 73t174.5 195.5t64 271.5q0 150 -66 272t-178.5 193.5t-252.5 71.5q-110 0 -204 -44.5t-161.5 -122.5t-99 -178.5t-17.5 -211.5q23 -161 90.5 -277.5
t170 -179.5t229.5 -63zM444 -832q-168 0 -256 88t-88 256v3024q0 168 88 256t256 88h3024q168 0 256 -88t88 -256v-3024q0 -168 -88 -256t-256 -88h-3024zM432 -712h3047q106 0 159.5 53.5t53.5 159.5v3046q0 106 -53.5 159.5t-159.5 53.5h-3047q-105 0 -158.5 -53.5
t-53.5 -159.5v-3046q0 -106 53.5 -159.5t158.5 -53.5z" />
    <glyph glyph-name="uniE145" unicode="&#x37;&#x20de;" horiz-adv-x="3912" 
d="M1537 0l951 1921v11h-1093v116h1229v-120l-952 -1928h-135zM444 -832q-168 0 -256 88t-88 256v3024q0 168 88 256t256 88h3024q168 0 256 -88t88 -256v-3024q0 -168 -88 -256t-256 -88h-3024zM432 -712h3047q106 0 159.5 53.5t53.5 159.5v3046q0 106 -53.5 159.5
t-159.5 53.5h-3047q-105 0 -158.5 -53.5t-53.5 -159.5v-3046q0 -106 53.5 -159.5t158.5 -53.5z" />
    <glyph glyph-name="uniE146" unicode="&#x38;&#x20de;" horiz-adv-x="3912" 
d="M1956 -28q-186 0 -335 74.5t-235.5 201.5t-85.5 285q-1 125 53.5 235t149.5 187.5t217 103.5v9q-155 49 -252.5 181t-97.5 299q0 149 77.5 268.5t210.5 189.5t298 70q162 0 295 -69.5t211.5 -189t78.5 -269.5q0 -166 -96.5 -298.5t-252.5 -181.5v-9q121 -25 215.5 -102.5
t149 -188t55.5 -235.5q-1 -158 -87.5 -285t-235 -201.5t-333.5 -74.5zM1956 88q153 0 273 60t189 162.5t70 229.5q-1 129 -71.5 234t-190.5 167t-270 62q-151 0 -271.5 -62t-191 -167t-69.5 -234q-1 -127 68.5 -229.5t190 -162.5t273.5 -60zM1956 1111q129 0 233.5 58
t166.5 156t62 218t-61.5 214.5t-166 149t-234.5 54.5q-131 0 -236 -54.5t-166 -149t-61 -214.5t61.5 -218t166.5 -156t235 -58zM444 -832q-168 0 -256 88t-88 256v3024q0 168 88 256t256 88h3024q168 0 256 -88t88 -256v-3024q0 -168 -88 -256t-256 -88h-3024zM432 -712
h3047q106 0 159.5 53.5t53.5 159.5v3046q0 106 -53.5 159.5t-159.5 53.5h-3047q-105 0 -158.5 -53.5t-53.5 -159.5v-3046q0 -106 53.5 -159.5t158.5 -53.5z" />
    <glyph glyph-name="uniE147" unicode="&#x39;&#x20de;" horiz-adv-x="3912" 
d="M1941 2080q129 0 245 -55t205.5 -170.5t141 -297.5t51.5 -438q0 -229 -36.5 -435.5t-115.5 -367t-206 -252.5t-309 -92q-159 0 -279 69t-192.5 191.5t-87.5 283.5h124q21 -187 134 -307.5t301 -120.5q265 0 406 261t141 747h-11q-40 -96 -118.5 -169.5t-181.5 -114.5
t-217 -41q-167 0 -305 85t-220 233t-82 335q0 177 76.5 326.5t214 240t321.5 89.5zM1941 1964q-141 0 -251.5 -73t-174 -195.5t-63.5 -271.5q0 -151 65.5 -272.5t178 -193t253.5 -71.5q110 0 204 44.5t161.5 123t99.5 179t16 210.5q-22 161 -89.5 277.5t-170 179.5
t-229.5 63zM444 -832q-168 0 -256 88t-88 256v3024q0 168 88 256t256 88h3024q168 0 256 -88t88 -256v-3024q0 -168 -88 -256t-256 -88h-3024zM432 -712h3047q106 0 159.5 53.5t53.5 159.5v3046q0 106 -53.5 159.5t-159.5 53.5h-3047q-105 0 -158.5 -53.5t-53.5 -159.5
v-3046q0 -106 53.5 -159.5t158.5 -53.5z" />
    <glyph glyph-name="uniE148" unicode="&#xe06b;&#x20de;" horiz-adv-x="3912" 
d="M2293 1868l72 -69l-784 -1578l-66 82zM1956 -31q-205 0 -352 126t-225.5 362t-78.5 564t79 564t225.5 362t351.5 126t351.5 -126t225.5 -362t79 -564t-78.5 -564t-225.5 -362t-352 -126zM1956 85q249 0 391 247.5t142 688.5q0 294 -64.5 504t-183.5 322t-285 112
q-249 0 -391 -248.5t-142 -689.5q0 -294 64 -503.5t183.5 -321t285.5 -111.5zM444 -832q-168 0 -256 88t-88 256v3024q0 168 88 256t256 88h3024q168 0 256 -88t88 -256v-3024q0 -168 -88 -256t-256 -88h-3024zM432 -712h3047q106 0 159.5 53.5t53.5 159.5v3046
q0 106 -53.5 159.5t-159.5 53.5h-3047q-105 0 -158.5 -53.5t-53.5 -159.5v-3046q0 -106 53.5 -159.5t158.5 -53.5z" />
    <glyph glyph-name="uniE149" unicode="&#xe06c;&#x20de;" horiz-adv-x="3912" 
d="M2100 2048v-2048h-126v1832h-16q-14 -23 -71 -72.5t-147 -92t-208 -46.5v112q107 4 190 49t141 104t90 107t36 55h111zM444 -832q-168 0 -256 88t-88 256v3024q0 168 88 256t256 88h3024q168 0 256 -88t88 -256v-3024q0 -168 -88 -256t-256 -88h-3024zM432 -712h3047
q106 0 159.5 53.5t53.5 159.5v3046q0 106 -53.5 159.5t-159.5 53.5h-3047q-105 0 -158.5 -53.5t-53.5 -159.5v-3046q0 -106 53.5 -159.5t158.5 -53.5z" />
    <glyph glyph-name="uniE14A" unicode="&#xe06d;&#x20de;" horiz-adv-x="3912" 
d="M1318 512h127q4 -127 72 -222.5t182.5 -148.5t256.5 -53q158 0 273 63.5t177.5 173t62.5 246.5q0 142 -72 254t-218 177.5t-367 65.5h-58v109l600 744v11h-946v116h1124v-95l-620 -770v-11q150 -7 274.5 -51.5t215.5 -123t141 -186.5t50 -240q0 -167 -79 -302.5
t-222 -216t-338 -80.5q-175 0 -318 68t-228.5 189.5t-89.5 282.5zM444 -832q-168 0 -256 88t-88 256v3024q0 168 88 256t256 88h3024q168 0 256 -88t88 -256v-3024q0 -168 -88 -256t-256 -88h-3024zM432 -712h3047q106 0 159.5 53.5t53.5 159.5v3046q0 106 -53.5 159.5
t-159.5 53.5h-3047q-105 0 -158.5 -53.5t-53.5 -159.5v-3046q0 -106 53.5 -159.5t158.5 -53.5z" />
    <glyph glyph-name="uniE14B" unicode="&#xe06e;&#x20de;" horiz-adv-x="3912" 
d="M1202 460v100l898 1488h132l-880 -1461v-11h1184v-116h-1334zM2150 0v493v46v741h122v-1280h-122zM444 -832q-168 0 -256 88t-88 256v3024q0 168 88 256t256 88h3024q168 0 256 -88t88 -256v-3024q0 -168 -88 -256t-256 -88h-3024zM432 -712h3047q106 0 159.5 53.5
t53.5 159.5v3046q0 106 -53.5 159.5t-159.5 53.5h-3047q-105 0 -158.5 -53.5t-53.5 -159.5v-3046q0 -106 53.5 -159.5t158.5 -53.5z" />
    <glyph glyph-name="uniE14C" unicode="&#xe06f;&#x20de;" horiz-adv-x="3912" 
d="M1346 624q1 84 21.5 166t62.5 167.5t106 178.5l625 912h141l-577 -839q52 26 110 40.5t119 14.5q172 0 310 -86.5t219.5 -232.5t81.5 -328q0 -180 -81 -326.5t-219 -232.5t-309 -86q-172 0 -310 87t-219 234.5t-81 330.5zM1468 619q0 -150 65 -270t175.5 -191t247.5 -71
t247.5 70.5t175.5 191t65 268.5q0 150 -65 270t-175.5 190.5t-247.5 70.5t-247.5 -70t-175.5 -190.5t-65 -268.5zM444 -832q-168 0 -256 88t-88 256v3024q0 168 88 256t256 88h3024q168 0 256 -88t88 -256v-3024q0 -168 -88 -256t-256 -88h-3024zM432 -712h3047
q106 0 159.5 53.5t53.5 159.5v3046q0 106 -53.5 159.5t-159.5 53.5h-3047q-105 0 -158.5 -53.5t-53.5 -159.5v-3046q0 -106 53.5 -159.5t158.5 -53.5z" />
    <glyph glyph-name="uniE14D" unicode="&#xe070;&#x20de;" horiz-adv-x="3912" 
d="M1346 1431q0 180 81 326.5t219 232.5t310 86t310 -87t219 -234.5t80 -330.5q-1 -84 -21.5 -166t-62 -167t-105.5 -179l-626 -912h-141l577 839q-52 -26 -110 -40.5t-119 -14.5q-171 0 -309.5 86.5t-220 233t-81.5 327.5zM1468 1431q0 -150 64.5 -270t175 -190.5
t248.5 -70.5q137 0 247.5 70t175.5 190t65 269t-65 269.5t-175.5 191.5t-247.5 71q-138 0 -248.5 -70.5t-175 -191t-64.5 -268.5zM444 -832q-168 0 -256 88t-88 256v3024q0 168 88 256t256 88h3024q168 0 256 -88t88 -256v-3024q0 -168 -88 -256t-256 -88h-3024zM432 -712
h3047q106 0 159.5 53.5t53.5 159.5v3046q0 106 -53.5 159.5t-159.5 53.5h-3047q-105 0 -158.5 -53.5t-53.5 -159.5v-3046q0 -106 53.5 -159.5t158.5 -53.5z" />
    <glyph glyph-name="uniE14E" unicode="&#x21;&#x20de;" horiz-adv-x="3912" 
d="M2023 2048l-7 -1451h-120l-7 1451h134zM1956 -13q-45 0 -76.5 31.5t-31.5 76.5q0 44 32 76t76 32t76 -32t32 -76q0 -30 -14.5 -54.5t-39 -39t-54.5 -14.5zM444 -832q-168 0 -256 88t-88 256v3024q0 168 88 256t256 88h3024q168 0 256 -88t88 -256v-3024q0 -168 -88 -256
t-256 -88h-3024zM432 -712h3047q106 0 159.5 53.5t53.5 159.5v3046q0 106 -53.5 159.5t-159.5 53.5h-3047q-105 0 -158.5 -53.5t-53.5 -159.5v-3046q0 -106 53.5 -159.5t158.5 -53.5z" />
    <glyph glyph-name="uniE14F" unicode="&#x3f;&#x20de;" horiz-adv-x="3912" 
d="M1879 597v98q1 125 30 210t92 151.5t165 134.5q87 60 142 117.5t80.5 120.5t25.5 138q0 117 -55.5 206.5t-150 140t-212.5 50.5t-214 -53t-154 -149t-61 -226h-127q3 159 76.5 281t198.5 190.5t281 68.5q157 0 279 -66.5t191.5 -182.5t69.5 -264q0 -93 -30 -170.5
t-94 -146.5t-166 -140q-93 -64 -146.5 -122t-75.5 -126t-22 -163v-98h-123zM1943 -13q-45 0 -76.5 31.5t-31.5 76.5q0 44 31.5 76t76.5 32t76.5 -32t31.5 -76q0 -30 -14.5 -54.5t-39 -39t-54.5 -14.5zM444 -832q-168 0 -256 88t-88 256v3024q0 168 88 256t256 88h3024
q168 0 256 -88t88 -256v-3024q0 -168 -88 -256t-256 -88h-3024zM432 -712h3047q106 0 159.5 53.5t53.5 159.5v3046q0 106 -53.5 159.5t-159.5 53.5h-3047q-105 0 -158.5 -53.5t-53.5 -159.5v-3046q0 -106 53.5 -159.5t158.5 -53.5z" />
    <glyph glyph-name="uniE150" unicode="&#x23;&#x20de;" horiz-adv-x="3912" 
d="M2093 0l336 2048h109l-336 -2048h-109zM1124 613l18 110h1528l-18 -110h-1528zM1373 0l336 2048h109l-336 -2048h-109zM1241 1325l19 110h1528l-19 -110h-1528zM444 -832q-168 0 -256 88t-88 256v3024q0 168 88 256t256 88h3024q168 0 256 -88t88 -256v-3024
q0 -168 -88 -256t-256 -88h-3024zM432 -712h3047q106 0 159.5 53.5t53.5 159.5v3046q0 106 -53.5 159.5t-159.5 53.5h-3047q-105 0 -158.5 -53.5t-53.5 -159.5v-3046q0 -106 53.5 -159.5t158.5 -53.5z" />
    <glyph glyph-name="uniE151" unicode="&#x2d;&#x20de;" horiz-adv-x="3912" 
d="M2360 1082v-116h-808v116h808zM444 -832q-168 0 -256 88t-88 256v3024q0 168 88 256t256 88h3024q168 0 256 -88t88 -256v-3024q0 -168 -88 -256t-256 -88h-3024zM432 -712h3047q106 0 159.5 53.5t53.5 159.5v3046q0 106 -53.5 159.5t-159.5 53.5h-3047
q-105 0 -158.5 -53.5t-53.5 -159.5v-3046q0 -106 53.5 -159.5t158.5 -53.5z" />
    <glyph glyph-name="uniE152" unicode="&#x3c;&#x20de;" horiz-adv-x="3912" 
d="M1336 965v96l1160 693v-136l-1020 -606l10 18v-34l-10 18l1020 -606v-136zM444 -832q-168 0 -256 88t-88 256v3024q0 168 88 256t256 88h3024q168 0 256 -88t88 -256v-3024q0 -168 -88 -256t-256 -88h-3024zM432 -712h3047q106 0 159.5 53.5t53.5 159.5v3046
q0 106 -53.5 159.5t-159.5 53.5h-3047q-105 0 -158.5 -53.5t-53.5 -159.5v-3046q0 -106 53.5 -159.5t158.5 -53.5z" />
    <glyph glyph-name="uniE153" unicode="&#x3e;&#x20de;" horiz-adv-x="3912" 
d="M2576 965l-1160 -693v136l1020 606l-11 -18v34l11 -18l-1020 606v136l1160 -693v-96zM444 -832q-168 0 -256 88t-88 256v3024q0 168 88 256t256 88h3024q168 0 256 -88t88 -256v-3024q0 -168 -88 -256t-256 -88h-3024zM432 -712h3047q106 0 159.5 53.5t53.5 159.5v3046
q0 106 -53.5 159.5t-159.5 53.5h-3047q-105 0 -158.5 -53.5t-53.5 -159.5v-3046q0 -106 53.5 -159.5t158.5 -53.5z" />
    <glyph glyph-name="uniE154" unicode="&#x3d;&#x20de;" horiz-adv-x="3912" 
d="M1433 1244v115h1045v-115h-1045zM1433 689v115h1045v-115h-1045zM444 -832q-168 0 -256 88t-88 256v3024q0 168 88 256t256 88h3024q168 0 256 -88t88 -256v-3024q0 -168 -88 -256t-256 -88h-3024zM432 -712h3047q106 0 159.5 53.5t53.5 159.5v3046q0 106 -53.5 159.5
t-159.5 53.5h-3047q-105 0 -158.5 -53.5t-53.5 -159.5v-3046q0 -106 53.5 -159.5t158.5 -53.5z" />
    <glyph glyph-name="uniE155" unicode="&#x2b;&#x20de;" horiz-adv-x="3912" 
d="M1897 416v1214h117v-1214h-117zM1349 964v118h1213v-118h-1213zM444 -832q-168 0 -256 88t-88 256v3024q0 168 88 256t256 88h3024q168 0 256 -88t88 -256v-3024q0 -168 -88 -256t-256 -88h-3024zM432 -712h3047q106 0 159.5 53.5t53.5 159.5v3046q0 106 -53.5 159.5
t-159.5 53.5h-3047q-105 0 -158.5 -53.5t-53.5 -159.5v-3046q0 -106 53.5 -159.5t158.5 -53.5z" />
    <glyph glyph-name="uniE156" unicode="&#x2212;&#x20de;" horiz-adv-x="3912" 
d="M2556 1083v-118h-1200v118h1200zM444 -832q-168 0 -256 88t-88 256v3024q0 168 88 256t256 88h3024q168 0 256 -88t88 -256v-3024q0 -168 -88 -256t-256 -88h-3024zM432 -712h3047q106 0 159.5 53.5t53.5 159.5v3046q0 106 -53.5 159.5t-159.5 53.5h-3047
q-105 0 -158.5 -53.5t-53.5 -159.5v-3046q0 -106 53.5 -159.5t158.5 -53.5z" />
    <glyph glyph-name="uniE157" unicode="&#xd7;&#x20de;" horiz-adv-x="3912" 
d="M2479 403l-1128 1128l81 82l1128 -1128zM1432 403l-81 82l1128 1128l81 -82zM444 -832q-168 0 -256 88t-88 256v3024q0 168 88 256t256 88h3024q168 0 256 -88t88 -256v-3024q0 -168 -88 -256t-256 -88h-3024zM432 -712h3047q106 0 159.5 53.5t53.5 159.5v3046
q0 106 -53.5 159.5t-159.5 53.5h-3047q-105 0 -158.5 -53.5t-53.5 -159.5v-3046q0 -106 53.5 -159.5t158.5 -53.5z" />
    <glyph glyph-name="uniE158" unicode="&#xf7;&#x20de;" horiz-adv-x="3912" 
d="M2556 1083v-118h-1200v118h1200zM1956 440q-45 0 -76.5 31.5t-31.5 76.5q0 44 31.5 75.5t76.5 31.5q43 0 74.5 -31.5t31.5 -75.5q0 -45 -31.5 -76.5t-74.5 -31.5zM1956 1393q-30 0 -55 14.5t-39 39t-14 55.5q0 43 31.5 74.5t76.5 31.5q43 0 74.5 -31.5t31.5 -74.5
q0 -46 -31.5 -77.5t-74.5 -31.5zM444 -832q-168 0 -256 88t-88 256v3024q0 168 88 256t256 88h3024q168 0 256 -88t88 -256v-3024q0 -168 -88 -256t-256 -88h-3024zM432 -712h3047q106 0 159.5 53.5t53.5 159.5v3046q0 106 -53.5 159.5t-159.5 53.5h-3047
q-105 0 -158.5 -53.5t-53.5 -159.5v-3046q0 -106 53.5 -159.5t158.5 -53.5z" />
    <glyph glyph-name="uniE159" unicode="&#x2191;&#x20de;" horiz-adv-x="3912" 
d="M1900 0v1840l-757 -758l-83 82l898 896l896 -896l-80 -82l-758 758v-1840h-116zM444 -832q-168 0 -256 88t-88 256v3024q0 168 88 256t256 88h3024q168 0 256 -88t88 -256v-3024q0 -168 -88 -256t-256 -88h-3024zM432 -712h3047q106 0 159.5 53.5t53.5 159.5v3046
q0 106 -53.5 159.5t-159.5 53.5h-3047q-105 0 -158.5 -53.5t-53.5 -159.5v-3046q0 -106 53.5 -159.5t158.5 -53.5z" />
    <glyph glyph-name="uniE15A" unicode="&#x2193;&#x20de;" horiz-adv-x="3912" 
d="M2014 2048v-1840l757 758l83 -82l-898 -896l-896 896l80 82l758 -758v1840h116zM444 -832q-168 0 -256 88t-88 256v3024q0 168 88 256t256 88h3024q168 0 256 -88t88 -256v-3024q0 -168 -88 -256t-256 -88h-3024zM432 -712h3047q106 0 159.5 53.5t53.5 159.5v3046
q0 106 -53.5 159.5t-159.5 53.5h-3047q-105 0 -158.5 -53.5t-53.5 -159.5v-3046q0 -106 53.5 -159.5t158.5 -53.5z" />
    <glyph glyph-name="uniE15B" unicode="&#x2190;&#x20de;" horiz-adv-x="3912" 
d="M1824 128l-896 896l896 896l82 -80l-758 -758h1838v-116h-1838l758 -756zM444 -832q-168 0 -256 88t-88 256v3024q0 168 88 256t256 88h3024q168 0 256 -88t88 -256v-3024q0 -168 -88 -256t-256 -88h-3024zM432 -712h3047q106 0 159.5 53.5t53.5 159.5v3046
q0 106 -53.5 159.5t-159.5 53.5h-3047q-105 0 -158.5 -53.5t-53.5 -159.5v-3046q0 -106 53.5 -159.5t158.5 -53.5z" />
    <glyph glyph-name="uniE15C" unicode="&#x2192;&#x20de;" horiz-adv-x="3912" 
d="M2090 128l-82 81l758 757h-1838v116h1838l-758 757l82 81l896 -896zM444 -832q-168 0 -256 88t-88 256v3024q0 168 88 256t256 88h3024q168 0 256 -88t88 -256v-3024q0 -168 -88 -256t-256 -88h-3024zM432 -712h3047q106 0 159.5 53.5t53.5 159.5v3046q0 106 -53.5 159.5
t-159.5 53.5h-3047q-105 0 -158.5 -53.5t-53.5 -159.5v-3046q0 -106 53.5 -159.5t158.5 -53.5z" />
    <glyph glyph-name="uniE15D" unicode="&#x2713;&#x20de;" horiz-adv-x="3912" 
d="M1077 1026l80 84l562 -558l1127 1123l84 -81l-1211 -1204zM444 -832q-168 0 -256 88t-88 256v3024q0 168 88 256t256 88h3024q168 0 256 -88t88 -256v-3024q0 -168 -88 -256t-256 -88h-3024zM432 -712h3047q106 0 159.5 53.5t53.5 159.5v3046q0 106 -53.5 159.5
t-159.5 53.5h-3047q-105 0 -158.5 -53.5t-53.5 -159.5v-3046q0 -106 53.5 -159.5t158.5 -53.5z" />
    <glyph glyph-name="uniE15E" unicode="&#x2717;&#x20de;" horiz-adv-x="3912" 
d="M1400 390l-81 81l1191 1187l84 -82zM2512 390l-1193 1186l84 82l1191 -1187zM444 -832q-168 0 -256 88t-88 256v3024q0 168 88 256t256 88h3024q168 0 256 -88t88 -256v-3024q0 -168 -88 -256t-256 -88h-3024zM432 -712h3047q106 0 159.5 53.5t53.5 159.5v3046
q0 106 -53.5 159.5t-159.5 53.5h-3047q-105 0 -158.5 -53.5t-53.5 -159.5v-3046q0 -106 53.5 -159.5t158.5 -53.5z" />
    <glyph glyph-name=".notdef" horiz-adv-x="2696" 
d="M219 -640v512h2258v-512h-2258zM219 1472v512h2258v-512h-2258zM219 2176v512h2258v-512h-2258zM219 64v512h2258v-512h-2258zM219 768v512h2258v-512h-2258z" />
    <glyph glyph-name=".null" 
 />
    <glyph glyph-name="uni0041" unicode="A" horiz-adv-x="1792" 
d="M217 0h-132l739 2048h144l739 -2048h-132l-674 1887h-10zM404 771h984v-116h-984v116z" />
    <glyph glyph-name="uni00C4" unicode="&#xc4;" horiz-adv-x="1792" 
d="M217 0h-132l739 2048h144l739 -2048h-132l-674 1887h-10zM404 771h984v-116h-984v116zM672 2320q-38 0 -67 29t-29 67q0 40 29 68t67 28q40 0 68 -28t28 -68q0 -38 -28 -67t-68 -29zM1120 2320q-38 0 -67 29t-29 67q0 40 29 68t67 28q40 0 68 -28t28 -68q0 -38 -28 -67
t-68 -29z" />
    <glyph glyph-name="uni00C3" unicode="&#xc3;" horiz-adv-x="1792" 
d="M217 0h-132l739 2048h144l739 -2048h-132l-674 1887h-10zM404 771h984v-116h-984v116zM531 2313l-104 8q9 114 87.5 185.5t189.5 71.5q65 0 113 -23t89 -52.5t83.5 -53t97.5 -23.5q64 0 116 43.5t62 111.5l103 -16q-15 -113 -94.5 -181t-182.5 -68q-66 0 -111.5 23
t-84.5 52.5t-82 53t-105 23.5q-71 0 -121 -44.5t-56 -110.5z" />
    <glyph glyph-name="uni00C0" unicode="&#xc0;" horiz-adv-x="1792" 
d="M217 0h-132l739 2048h144l739 -2048h-132l-674 1887h-10zM404 771h984v-116h-984v116zM842 2267l-301 442h145l268 -442h-112z" />
    <glyph glyph-name="uni00C1" unicode="&#xc1;" horiz-adv-x="1792" 
d="M217 0h-132l739 2048h144l739 -2048h-132l-674 1887h-10zM404 771h984v-116h-984v116zM837 2267l268 442h145l-301 -442h-112z" />
    <glyph glyph-name="uni00C2" unicode="&#xc2;" horiz-adv-x="1792" 
d="M217 0h-132l739 2048h144l739 -2048h-132l-674 1887h-10zM404 771h984v-116h-984v116zM627 2216h-126v11l354 389h82l354 -389v-11h-126l-269 299z" />
    <glyph glyph-name="uni00C5" unicode="&#xc5;" horiz-adv-x="1792" 
d="M217 0h-132l739 2048h144l739 -2048h-132l-674 1887h-10zM404 771h984v-116h-984v116zM896 2160q-72 0 -132 34.5t-95.5 92.5t-35.5 129t35.5 129t95.5 92.5t132 34.5q73 0 132.5 -34.5t94.5 -92.5t35 -129t-35 -129t-94.5 -92.5t-132.5 -34.5zM896 2253q68 0 116 47.5
t48 115.5t-48 115.5t-116 47.5q-69 0 -116.5 -47.5t-47.5 -115.5t48 -115.5t116 -47.5z" />
    <glyph glyph-name="uni0100" unicode="&#x100;" horiz-adv-x="1792" 
d="M217 0h-132l739 2048h144l739 -2048h-132l-674 1887h-10zM404 771h984v-116h-984v116zM1266 2469v-109h-739v109h739z" />
    <glyph glyph-name="uni0102" unicode="&#x102;" horiz-adv-x="1792" 
d="M217 0h-132l739 2048h144l739 -2048h-132l-674 1887h-10zM404 771h984v-116h-984v116zM1068 2560h116q0 -125 -77 -200t-211 -75q-133 0 -210 75t-77 200h116q0 -79 42 -127t129 -48t129.5 48t42.5 127z" />
    <glyph glyph-name="uni0104" unicode="&#x104;" horiz-adv-x="1792" 
d="M217 0h-132l739 2048h144l739 -2048h-132l-674 1887h-10zM404 771h984v-116h-984v116zM1612 -605q-110 0 -181 62t-71 182q0 73 30 139t90 127.5t148 122.5l78 -28q-98 -91 -161 -174.5t-63 -176.5q0 -73 39.5 -109t110.5 -36q44 0 77.5 12.5t64.5 34.5l31 -94
q-40 -27 -86.5 -44.5t-106.5 -17.5z" />
    <glyph glyph-name="uni01CD" unicode="&#x1cd;" horiz-adv-x="1792" 
d="M217 0h-132l739 2048h144l739 -2048h-132l-674 1887h-10zM404 771h984v-116h-984v116zM627 2650l269 -298l269 298h126v-10l-354 -390h-82l-354 390v10h126z" />
    <glyph glyph-name="uni01DE" unicode="&#x1de;" horiz-adv-x="1792" 
d="M217 0h-132l739 2048h144l739 -2048h-132l-674 1887h-10zM404 771h984v-116h-984v116zM673 2320q-38 0 -67 29t-29 67q0 40 29 68t67 28q40 0 68 -28t28 -68q0 -38 -28 -67t-68 -29zM1121 2320q-38 0 -67 29t-29 67q0 40 29 68t67 28q40 0 68 -28t28 -68q0 -38 -28 -67
t-68 -29zM1268 2900v-109h-739v109h739z" />
    <glyph glyph-name="uni01E0" unicode="&#x1e0;" horiz-adv-x="1792" 
d="M217 0h-132l739 2048h144l739 -2048h-132l-674 1887h-10zM404 771h984v-116h-984v116zM897 2245q-41 0 -70 28t-29 68t29 68t70 28q40 0 69 -28t29 -68t-29 -68t-69 -28zM1254 2720v-109h-739v109h739z" />
    <glyph glyph-name="uni01FA" unicode="&#x1fa;" horiz-adv-x="1792" 
d="M217 0h-132l739 2048h144l739 -2048h-132l-674 1887h-10zM404 771h984v-116h-984v116zM896 2165q-95 0 -163 67t-68 163q0 95 68 162t163 67q96 0 163.5 -67t67.5 -162q0 -96 -67.5 -163t-163.5 -67zM896 2253q60 0 100.5 41.5t40.5 100.5q0 58 -41 99t-100 41
t-100 -41.5t-41 -98.5q0 -59 41.5 -100.5t99.5 -41.5zM837 2669l174 211h144l-219 -211h-99z" />
    <glyph glyph-name="uni0200" unicode="&#x200;" horiz-adv-x="1792" 
d="M217 0h-132l739 2048h144l739 -2048h-132l-674 1887h-10zM404 771h984v-116h-984v116zM710 2267l-321 442h153l280 -442h-112zM998 2267l-251 442h152l210 -442h-111z" />
    <glyph glyph-name="uni0202" unicode="&#x202;" horiz-adv-x="1792" 
d="M217 0h-132l739 2048h144l739 -2048h-132l-674 1887h-10zM404 771h984v-116h-984v116zM612 2374q0 124 77 200t211 76t210.5 -76t76.5 -200h-116q0 80 -42.5 128t-128.5 48q-88 0 -130 -48.5t-42 -127.5h-116z" />
    <glyph glyph-name="uni0226" unicode="&#x226;" horiz-adv-x="1792" 
d="M217 0h-132l739 2048h144l739 -2048h-132l-674 1887h-10zM404 771h984v-116h-984v116zM896 2320q-41 0 -70 28t-29 68t29 68t70 28q40 0 69 -28t29 -68t-29 -68t-69 -28z" />
    <glyph glyph-name="uni1E00" unicode="&#x1e00;" horiz-adv-x="1792" 
d="M217 0h-132l739 2048h144l739 -2048h-132l-674 1887h-10zM404 771h984v-116h-984v116zM651 -351q0 98 68 164t165 66q96 0 165 -66t69 -164t-69 -163.5t-165 -65.5q-97 0 -165 65.5t-68 163.5zM735 -351q0 -63 43.5 -106t105.5 -43q61 0 105.5 43.5t44.5 105.5
q0 63 -44.5 106.5t-105.5 43.5q-63 0 -106 -43.5t-43 -106.5z" />
    <glyph glyph-name="uni1EA0" unicode="&#x1ea0;" horiz-adv-x="1792" 
d="M217 0h-132l739 2048h144l739 -2048h-132l-674 1887h-10zM404 771h984v-116h-984v116zM896 -473q-41 0 -70 28t-29 68t29 68t70 28q40 0 69 -28t29 -68t-29 -68t-69 -28z" />
    <glyph glyph-name="uni1EA2" unicode="&#x1ea2;" horiz-adv-x="1792" 
d="M217 0h-132l739 2048h144l739 -2048h-132l-674 1887h-10zM404 771h984v-116h-984v116zM951 2248h-108v201q111 7 156.5 37.5t44.5 98.5q-1 80 -61 116t-172 36l9 94q172 -1 255.5 -67.5t84.5 -175.5q1 -97 -59.5 -151t-149.5 -64v-125z" />
    <glyph glyph-name="uni1EA4" unicode="&#x1ea4;" horiz-adv-x="1792" 
d="M217 0h-132l739 2048h144l739 -2048h-132l-674 1887h-10zM404 771h984v-116h-984v116zM737 2520l387 -135h17l-64 84l-296 -205l-132 70l175 186h-87zM1281 2510l226 355h150l-264 -355h-112z" />
    <glyph glyph-name="uni1EA6" unicode="&#x1ea6;" horiz-adv-x="1792" 
d="M217 0h-132l739 2048h144l739 -2048h-132l-674 1887h-10zM404 771h984v-116h-984v116zM940 2675l387 -378h-152l-276 276l-276 -276h-152l385 378h84zM320 2900l211 -356h-111l-252 356h152z" />
    <glyph glyph-name="uni1EA8" unicode="&#x1ea8;" horiz-adv-x="1792" 
d="M217 0h-132l739 2048h144l739 -2048h-132l-674 1887h-10zM404 771h984v-116h-984v116zM951 2603l377 -377h-139l-290 289l-290 -289h-138l377 377h103zM1401 2420h-98v170q104 6 148 33t44 84q-1 67 -58 100t-166 33l9 87q162 -1 241.5 -62t79.5 -154q0 -83 -57 -133.5
t-143 -58.5v-99z" />
    <glyph glyph-name="uni1EAA" unicode="&#x1eaa;" horiz-adv-x="1792" 
d="M217 0h-132l739 2048h144l739 -2048h-132l-674 1887h-10zM404 771h984v-116h-984v116zM918 2550l390 -368h-138l-290 276l-289 -276h-139l391 368h75zM1175 2883l80 -16q-11 -94 -77 -153.5t-150 -59.5q-55 0 -93 21t-68.5 48.5t-63 49t-75.5 22.5q-49 1 -93 -36.5
t-52 -100.5l-79 14q12 95 77 155t146 60q50 0 88 -21t70.5 -48.5t67 -48.5t77.5 -22q50 -1 94 36t51 100z" />
    <glyph glyph-name="uni1EAC" unicode="&#x1eac;" horiz-adv-x="1792" 
d="M217 0h-132l739 2048h144l739 -2048h-132l-674 1887h-10zM404 771h984v-116h-984v116zM627 2216h-126v11l354 389h82l354 -389v-11h-126l-269 299zM896 -473q-41 0 -70 28t-29 68t29 68t70 28q40 0 69 -28t29 -68t-29 -68t-69 -28z" />
    <glyph glyph-name="uni1EAE" unicode="&#x1eae;" horiz-adv-x="1792" 
d="M217 0h-132l739 2048h144l739 -2048h-132l-674 1887h-10zM404 771h984v-116h-984v116zM1057 2506h117q0 -113 -77 -180.5t-212 -67.5t-212 67.5t-77 180.5h117q0 -74 42 -118t130 -44q87 0 129.5 44t42.5 118zM834 2559l152 285h128l-196 -285h-84z" />
    <glyph glyph-name="uni1EB0" unicode="&#x1eb0;" horiz-adv-x="1792" 
d="M217 0h-132l739 2048h144l739 -2048h-132l-674 1887h-10zM404 771h984v-116h-984v116zM1057 2506h117q0 -113 -77 -180.5t-212 -67.5t-212 67.5t-77 180.5h117q0 -74 42 -118t130 -44q87 0 129.5 44t42.5 118zM858 2559l-196 283h128l152 -283h-84z" />
    <glyph glyph-name="uni1EB2" unicode="&#x1eb2;" horiz-adv-x="1792" 
d="M217 0h-132l739 2048h144l739 -2048h-132l-674 1887h-10zM404 771h984v-116h-984v116zM1044 2563h115q0 -113 -75.5 -180.5t-208.5 -67.5q-132 0 -208 67.5t-76 180.5h115q0 -74 41.5 -118t127.5 -44t127.5 44t41.5 118zM932 2585h-105l-1 167q89 6 131.5 24t41.5 63
q-1 55 -57 78.5t-148 23.5l10 82q147 -1 227.5 -53t80.5 -131q0 -71 -53.5 -108t-126.5 -46v-100z" />
    <glyph glyph-name="uni1EB4" unicode="&#x1eb4;" horiz-adv-x="1792" 
d="M217 0h-132l739 2048h144l739 -2048h-132l-674 1887h-10zM404 771h984v-116h-984v116zM1052 2570h116q0 -113 -76.5 -181.5t-210.5 -68.5q-133 0 -209.5 68.5t-76.5 181.5h116q0 -73 41.5 -117.5t128.5 -44.5t129 44.5t42 117.5zM1149 2916l79 -18q-7 -86 -60 -148
t-135 -62q-68 0 -112.5 32t-85 64.5t-95.5 32.5q-49 0 -80.5 -39t-38.5 -92l-80 15q7 86 61.5 149.5t138.5 63.5q50 0 86.5 -19.5t68 -45t64 -45.5t72.5 -19q47 1 79 40t38 91z" />
    <glyph glyph-name="uni1EB6" unicode="&#x1eb6;" horiz-adv-x="1792" 
d="M217 0h-132l739 2048h144l739 -2048h-132l-674 1887h-10zM404 771h984v-116h-984v116zM1068 2560h116q0 -125 -77 -200t-211 -75q-133 0 -210 75t-77 200h116q0 -79 42 -127t129 -48t129.5 48t42.5 127zM896 -473q-41 0 -70 28t-29 68t29 68t70 28q40 0 69 -28t29 -68
t-29 -68t-69 -28z" />
    <glyph glyph-name="uni0391" unicode="&#x391;" horiz-adv-x="1792" 
d="M217 0h-132l739 2048h144l739 -2048h-132l-674 1887h-10zM404 771h984v-116h-984v116z" />
    <glyph glyph-name="uni0386" unicode="&#x386;" horiz-adv-x="1792" 
d="M217 0h-132l739 2048h144l739 -2048h-132l-674 1887h-10zM404 771h984v-116h-984v116zM446 1700l50 463h138l-101 -463h-87z" />
    <glyph glyph-name="uni1F08" unicode="&#x1f08;" horiz-adv-x="1792" 
d="M217 0h-132l739 2048h144l739 -2048h-132l-674 1887h-10zM404 771h984v-116h-984v116zM565 2048v-72q0 -87 -20 -158t-64.5 -134t-119.5 -125l-66 42q56 66 87.5 123t44.5 119t13 141v64h125z" />
    <glyph glyph-name="uni1F09" unicode="&#x1f09;" horiz-adv-x="1792" 
d="M217 0h-132l739 2048h144l739 -2048h-132l-674 1887h-10zM404 771h984v-116h-984v116zM325 1981v72h126v-64q0 -79 13 -140.5t44.5 -119t87.5 -122.5l-67 -43q-110 94 -157 190.5t-47 226.5z" />
    <glyph glyph-name="uni1F0A" unicode="&#x1f0a;" horiz-adv-x="1792" 
d="M217 0h-132l739 2048h144l739 -2048h-132l-674 1887h-10zM404 771h984v-116h-984v116zM570 1603v-19h-75l-294 443v21h141zM137 2048v-72q0 -87 -20.5 -158t-65 -134t-118.5 -125l-67 42q83 98 114 181t31 202v64h126z" />
    <glyph glyph-name="uni1F0B" unicode="&#x1f0b;" horiz-adv-x="1792" 
d="M217 0h-132l739 2048h144l739 -2048h-132l-674 1887h-10zM404 771h984v-116h-984v116zM563 1608v-19h-75l-295 443v21h143zM-9 1981v72h125v-64q0 -119 31 -202t114 -180l-66 -43q-111 94 -157.5 190.5t-46.5 226.5z" />
    <glyph glyph-name="uni1F0C" unicode="&#x1f0c;" horiz-adv-x="1792" 
d="M217 0h-132l739 2048h144l739 -2048h-132l-674 1887h-10zM404 771h984v-116h-984v116zM135 1601l176 304l98 148l96 -12l-190 -306l-137 -146zM113 2053v-72q0 -86 -20.5 -157t-65 -134t-118.5 -126l-67 43q83 97 114 180t31 202v64h126z" />
    <glyph glyph-name="uni1F0D" unicode="&#x1f0d;" horiz-adv-x="1792" 
d="M217 0h-132l739 2048h144l739 -2048h-132l-674 1887h-10zM404 771h984v-116h-984v116zM219 1601l176 304l96 148l98 -12l-190 -306l-137 -146zM-95 1981v72h125v-64q0 -119 31.5 -202t113.5 -180l-66 -43q-111 94 -157.5 190.5t-46.5 226.5z" />
    <glyph glyph-name="uni1F0E" unicode="&#x1f0e;" horiz-adv-x="1792" 
d="M217 0h-132l739 2048h144l739 -2048h-132l-674 1887h-10zM404 771h984v-116h-984v116zM626 2323l79 -18q-7 -95 -61.5 -159t-144.5 -65q-52 0 -90 21.5t-69.5 50t-64.5 50t-76 21.5q-55 0 -88 -41t-40 -103l-78 16q6 96 61 161.5t148 65.5q52 0 89 -22t68.5 -50.5t64 -50
t74.5 -21.5q55 0 88 41t40 103zM405 2023v-67q0 -81 -28.5 -167.5t-107.5 -173.5l-71 37q59 90 77 162t18 146v63h112z" />
    <glyph glyph-name="uni1F0F" unicode="&#x1f0f;" horiz-adv-x="1792" 
d="M217 0h-132l739 2048h144l739 -2048h-132l-674 1887h-10zM404 771h984v-116h-984v116zM299 1956v67h112v-63q0 -84 24 -156t72 -152l-72 -37q-70 77 -103 163.5t-33 177.5zM630 2323l79 -18q-7 -95 -61.5 -159t-144.5 -65q-52 0 -90 21.5t-69.5 50t-64.5 50t-76 21.5
q-55 0 -88 -41t-40 -103l-78 16q6 96 61 161.5t148 65.5q52 0 89 -22t68.5 -50.5t64 -50t74.5 -21.5q55 0 88 41t40 103z" />
    <glyph glyph-name="uni1FB8" unicode="&#x1fb8;" horiz-adv-x="1792" 
d="M217 0h-132l739 2048h144l739 -2048h-132l-674 1887h-10zM404 771h984v-116h-984v116zM1068 2560h116q0 -125 -77 -200t-211 -75q-133 0 -210 75t-77 200h116q0 -79 42 -127t129 -48t129.5 48t42.5 127z" />
    <glyph glyph-name="uni1FB9" unicode="&#x1fb9;" horiz-adv-x="1792" 
d="M217 0h-132l739 2048h144l739 -2048h-132l-674 1887h-10zM404 771h984v-116h-984v116zM1266 2469v-109h-739v109h739z" />
    <glyph glyph-name="uni1FBA" unicode="&#x1fba;" horiz-adv-x="1792" 
d="M217 0h-132l739 2048h144l739 -2048h-132l-674 1887h-10zM404 771h984v-116h-984v116zM482 1592l-42 -12l-138 147l-189 306l96 12l97 -148z" />
    <glyph glyph-name="uni023A" unicode="&#x23a;" horiz-adv-x="1792" 
d="M1431 2308l-912 -2568h-122l912 2568h122zM217 0h-132l739 2048h144l739 -2048h-132l-674 1887h-10zM404 771h984v-116h-984v116z" />
    <glyph glyph-name="uni1FBB" unicode="&#x1fbb;" horiz-adv-x="1792" 
d="M217 0h-132l739 2048h144l739 -2048h-132l-674 1887h-10zM404 771h984v-116h-984v116zM372 1728v11l219 457h148v-12l-288 -456h-79z" />
    <glyph glyph-name="uni0410" unicode="&#x410;" horiz-adv-x="1792" 
d="M217 0h-132l739 2048h144l739 -2048h-132l-674 1887h-10zM404 771h984v-116h-984v116z" />
    <glyph glyph-name="uni04D0" unicode="&#x4d0;" horiz-adv-x="1792" 
d="M217 0h-132l739 2048h144l739 -2048h-132l-674 1887h-10zM404 771h984v-116h-984v116zM1068 2560h116q0 -125 -77 -200t-211 -75q-133 0 -210 75t-77 200h116q0 -79 42 -127t129 -48t129.5 48t42.5 127z" />
    <glyph glyph-name="uni04D2" unicode="&#x4d2;" horiz-adv-x="1792" 
d="M217 0h-132l739 2048h144l739 -2048h-132l-674 1887h-10zM404 771h984v-116h-984v116zM672 2320q-38 0 -67 29t-29 67q0 40 29 68t67 28q40 0 68 -28t28 -68q0 -38 -28 -67t-68 -29zM1120 2320q-38 0 -67 29t-29 67q0 40 29 68t67 28q40 0 68 -28t28 -68q0 -38 -28 -67
t-68 -29z" />
    <glyph glyph-name="uni1F88" unicode="&#x1f88;" horiz-adv-x="1792" 
d="M217 0h-132l739 2048h144l739 -2048h-132l-674 1887h-10zM404 771h984v-116h-984v116zM1005 -627q-70 0 -117.5 49.5t-47.5 140.5v317h112v-316q0 -47 19.5 -72t48.5 -25q12 0 27.5 2t23.5 3l12 -88q-12 -4 -33.5 -7.5t-44.5 -3.5zM565 2048v-72q0 -87 -20 -158
t-64.5 -134t-119.5 -125l-66 42q56 66 87.5 123t44.5 119t13 141v64h125z" />
    <glyph glyph-name="uni1F89" unicode="&#x1f89;" horiz-adv-x="1792" 
d="M217 0h-132l739 2048h144l739 -2048h-132l-674 1887h-10zM404 771h984v-116h-984v116zM1005 -627q-70 0 -117.5 49.5t-47.5 140.5v317h112v-316q0 -47 19.5 -72t48.5 -25q12 0 27.5 2t23.5 3l12 -88q-12 -4 -33.5 -7.5t-44.5 -3.5zM325 1981v72h126v-64q0 -79 13 -140.5
t44.5 -119t87.5 -122.5l-67 -43q-110 94 -157 190.5t-47 226.5z" />
    <glyph glyph-name="uni1F8A" unicode="&#x1f8a;" horiz-adv-x="1792" 
d="M217 0h-132l739 2048h144l739 -2048h-132l-674 1887h-10zM404 771h984v-116h-984v116zM1005 -627q-70 0 -117.5 49.5t-47.5 140.5v317h112v-316q0 -47 19.5 -72t48.5 -25q12 0 27.5 2t23.5 3l12 -88q-12 -4 -33.5 -7.5t-44.5 -3.5zM570 1603v-19h-75l-294 443v21h141z
M137 2048v-72q0 -87 -20.5 -158t-65 -134t-118.5 -125l-67 42q83 98 114 181t31 202v64h126z" />
    <glyph glyph-name="uni1F8B" unicode="&#x1f8b;" horiz-adv-x="1792" 
d="M217 0h-132l739 2048h144l739 -2048h-132l-674 1887h-10zM404 771h984v-116h-984v116zM1005 -627q-70 0 -117.5 49.5t-47.5 140.5v317h112v-316q0 -47 19.5 -72t48.5 -25q12 0 27.5 2t23.5 3l12 -88q-12 -4 -33.5 -7.5t-44.5 -3.5zM563 1608v-19h-75l-295 443v21h143z
M-9 1981v72h125v-64q0 -119 31 -202t114 -180l-66 -43q-111 94 -157.5 190.5t-46.5 226.5z" />
    <glyph glyph-name="uni1F8C" unicode="&#x1f8c;" horiz-adv-x="1792" 
d="M217 0h-132l739 2048h144l739 -2048h-132l-674 1887h-10zM404 771h984v-116h-984v116zM135 1601l176 304l98 148l96 -12l-190 -306l-137 -146zM113 2053v-72q0 -86 -20.5 -157t-65 -134t-118.5 -126l-67 43q83 97 114 180t31 202v64h126zM1005 -627q-70 0 -117.5 49.5
t-47.5 140.5v317h112v-316q0 -47 19.5 -72t48.5 -25q12 0 27.5 2t23.5 3l12 -88q-12 -4 -33.5 -7.5t-44.5 -3.5z" />
    <glyph glyph-name="uni1F8D" unicode="&#x1f8d;" horiz-adv-x="1792" 
d="M217 0h-132l739 2048h144l739 -2048h-132l-674 1887h-10zM404 771h984v-116h-984v116zM1005 -627q-70 0 -117.5 49.5t-47.5 140.5v317h112v-316q0 -47 19.5 -72t48.5 -25q12 0 27.5 2t23.5 3l12 -88q-12 -4 -33.5 -7.5t-44.5 -3.5zM219 1601l176 304l96 148l98 -12
l-190 -306l-137 -146zM-95 1981v72h125v-64q0 -119 31.5 -202t113.5 -180l-66 -43q-111 94 -157.5 190.5t-46.5 226.5z" />
    <glyph glyph-name="uni1F8E" unicode="&#x1f8e;" horiz-adv-x="1792" 
d="M217 0h-132l739 2048h144l739 -2048h-132l-674 1887h-10zM404 771h984v-116h-984v116zM626 2323l79 -18q-7 -95 -61.5 -159t-144.5 -65q-52 0 -90 21.5t-69.5 50t-64.5 50t-76 21.5q-55 0 -88 -41t-40 -103l-78 16q6 96 61 161.5t148 65.5q52 0 89 -22t68.5 -50.5t64 -50
t74.5 -21.5q55 0 88 41t40 103zM405 2023v-67q0 -81 -28.5 -167.5t-107.5 -173.5l-71 37q59 90 77 162t18 146v63h112zM1005 -627q-70 0 -117.5 49.5t-47.5 140.5v317h112v-316q0 -47 19.5 -72t48.5 -25q12 0 27.5 2t23.5 3l12 -88q-12 -4 -33.5 -7.5t-44.5 -3.5z" />
    <glyph glyph-name="uni1F8F" unicode="&#x1f8f;" horiz-adv-x="1792" 
d="M217 0h-132l739 2048h144l739 -2048h-132l-674 1887h-10zM404 771h984v-116h-984v116zM1005 -627q-70 0 -117.5 49.5t-47.5 140.5v317h112v-316q0 -47 19.5 -72t48.5 -25q12 0 27.5 2t23.5 3l12 -88q-12 -4 -33.5 -7.5t-44.5 -3.5zM299 1956v67h112v-63q0 -84 24 -156
t72 -152l-72 -37q-70 77 -103 163.5t-33 177.5zM630 2323l79 -18q-7 -95 -61.5 -159t-144.5 -65q-52 0 -90 21.5t-69.5 50t-64.5 50t-76 21.5q-55 0 -88 -41t-40 -103l-78 16q6 96 61 161.5t148 65.5q52 0 89 -22t68.5 -50.5t64 -50t74.5 -21.5q55 0 88 41t40 103z" />
    <glyph glyph-name="uni1FBC" unicode="&#x1fbc;" horiz-adv-x="1792" 
d="M217 0h-132l739 2048h144l739 -2048h-132l-674 1887h-10zM404 771h984v-116h-984v116zM1005 -627q-70 0 -117.5 49.5t-47.5 140.5v317h112v-316q0 -47 19.5 -72t48.5 -25q12 0 27.5 2t23.5 3l12 -88q-12 -4 -33.5 -7.5t-44.5 -3.5z" />
    <glyph glyph-name="uni039B" unicode="&#x39b;" horiz-adv-x="1792" 
d="M217 0h-132l739 2048h144l739 -2048h-132l-674 1887h-10z" />
    <glyph glyph-name="uni00C6" unicode="&#xc6;" horiz-adv-x="2729" 
d="M85 0l1027 2048h1396v-116h-1015v-849h954v-116h-954v-851h1039v-116h-1164v1932h-183l-961 -1932h-139zM497 655v116h936v-116h-936z" />
    <glyph glyph-name="uni01E2" unicode="&#x1e2;" horiz-adv-x="2729" 
d="M85 0l1027 2048h1396v-116h-1015v-849h954v-116h-954v-851h1039v-116h-1164v1932h-183l-961 -1932h-139zM497 655v116h936v-116h-936zM2128 2469v-109h-739v109h739z" />
    <glyph glyph-name="uni01FC" unicode="&#x1fc;" horiz-adv-x="2729" 
d="M85 0l1027 2048h1396v-116h-1015v-849h954v-116h-954v-851h1039v-116h-1164v1932h-183l-961 -1932h-139zM497 655v116h936v-116h-936zM1700 2267l268 442h145l-301 -442h-112z" />
    <glyph glyph-name="uni04D4" unicode="&#x4d4;" horiz-adv-x="2729" 
d="M85 0l1027 2048h1396v-116h-1015v-849h954v-116h-954v-851h1039v-116h-1164v1932h-183l-961 -1932h-139zM497 655v116h936v-116h-936z" />
    <glyph glyph-name="uni0042" unicode="B" horiz-adv-x="1813" 
d="M296 0v2048h665q186 0 314 -66t194.5 -185t66.5 -277q0 -124 -40 -220t-111.5 -158.5t-167.5 -86.5v-12q106 -8 197 -73.5t146.5 -177.5t55.5 -261q0 -157 -67.5 -276.5t-201.5 -187t-332 -67.5h-719zM421 116h594q231 0 355.5 116t124.5 299q0 129 -60.5 231
t-167.5 161.5t-248 59.5h-598v-867zM421 1097h583q131 0 222.5 57t140 153t48.5 213q0 190 -118 301t-336 111h-540v-835z" />
    <glyph glyph-name="uni1E02" unicode="&#x1e02;" horiz-adv-x="1813" 
d="M296 0v2048h665q186 0 314 -66t194.5 -185t66.5 -277q0 -124 -40 -220t-111.5 -158.5t-167.5 -86.5v-12q106 -8 197 -73.5t146.5 -177.5t55.5 -261q0 -157 -67.5 -276.5t-201.5 -187t-332 -67.5h-719zM421 116h594q231 0 355.5 116t124.5 299q0 129 -60.5 231
t-167.5 161.5t-248 59.5h-598v-867zM421 1097h583q131 0 222.5 57t140 153t48.5 213q0 190 -118 301t-336 111h-540v-835zM860 2320q-41 0 -70 28t-29 68t29 68t70 28q40 0 69 -28t29 -68t-29 -68t-69 -28z" />
    <glyph glyph-name="uni1E04" unicode="&#x1e04;" horiz-adv-x="1813" 
d="M296 0v2048h665q186 0 314 -66t194.5 -185t66.5 -277q0 -124 -40 -220t-111.5 -158.5t-167.5 -86.5v-12q106 -8 197 -73.5t146.5 -177.5t55.5 -261q0 -157 -67.5 -276.5t-201.5 -187t-332 -67.5h-719zM421 116h594q231 0 355.5 116t124.5 299q0 129 -60.5 231
t-167.5 161.5t-248 59.5h-598v-867zM421 1097h583q131 0 222.5 57t140 153t48.5 213q0 190 -118 301t-336 111h-540v-835zM880 -473q-41 0 -70 28t-29 68t29 68t70 28q40 0 69 -28t29 -68t-29 -68t-69 -28z" />
    <glyph glyph-name="uni1E06" unicode="&#x1e06;" horiz-adv-x="1813" 
d="M296 0v2048h665q186 0 314 -66t194.5 -185t66.5 -277q0 -124 -40 -220t-111.5 -158.5t-167.5 -86.5v-12q106 -8 197 -73.5t146.5 -177.5t55.5 -261q0 -157 -67.5 -276.5t-201.5 -187t-332 -67.5h-719zM421 116h594q231 0 355.5 116t124.5 299q0 129 -60.5 231
t-167.5 161.5t-248 59.5h-598v-867zM421 1097h583q131 0 222.5 57t140 153t48.5 213q0 190 -118 301t-336 111h-540v-835zM1250 -276v-109h-739v109h739z" />
    <glyph glyph-name="uni0243" unicode="&#x243;" horiz-adv-x="1955" 
d="M439 0v2048h665q186 0 314 -66t194.5 -185t66.5 -277q0 -124 -40 -220t-111.5 -158.5t-167.5 -86.5v-12q106 -8 197 -73.5t146.5 -177.5t55.5 -261q0 -157 -67.5 -276.5t-201.5 -187t-332 -67.5h-719zM564 116h594q231 0 355.5 116t124.5 299q0 129 -60.5 231
t-167.5 161.5t-248 59.5h-598v-867zM564 1097h583q131 0 222.5 57t140 153t48.5 213q0 190 -118 301t-336 111h-540v-835zM107 540v104h800v-104h-800z" />
    <glyph glyph-name="uni0181" unicode="&#x181;" horiz-adv-x="2140" 
d="M664 1932h-183q-77 0 -121 -29t-62 -86t-18 -141v-49h-120v93q1 100 37 173.5t107 114t173 40.5h187v-116zM623 0v2048h665q186 0 314 -66t194.5 -185t66.5 -277q0 -124 -40 -220t-112 -158.5t-167 -86.5v-12q105 -8 196 -73.5t147 -177.5t56 -261q0 -157 -68 -276.5
t-202 -187t-332 -67.5h-718zM748 116h593q231 0 355.5 116t124.5 299q0 129 -60 231t-167 161.5t-249 59.5h-597v-867zM748 1097h583q130 0 221.5 57t140 153t48.5 213q0 190 -118 301t-335 111h-540v-835z" />
    <glyph glyph-name="uni0412" unicode="&#x412;" horiz-adv-x="1813" 
d="M296 0v2048h665q186 0 314 -66t194.5 -185t66.5 -277q0 -124 -40 -220t-111.5 -158.5t-167.5 -86.5v-12q106 -8 197 -73.5t146.5 -177.5t55.5 -261q0 -157 -67.5 -276.5t-201.5 -187t-332 -67.5h-719zM421 116h594q231 0 355.5 116t124.5 299q0 129 -60.5 231
t-167.5 161.5t-248 59.5h-598v-867zM421 1097h583q131 0 222.5 57t140 153t48.5 213q0 190 -118 301t-336 111h-540v-835z" />
    <glyph glyph-name="uni0392" unicode="&#x392;" horiz-adv-x="1813" 
d="M296 0v2048h665q186 0 314 -66t194.5 -185t66.5 -277q0 -124 -40 -220t-111.5 -158.5t-167.5 -86.5v-12q106 -8 197 -73.5t146.5 -177.5t55.5 -261q0 -157 -67.5 -276.5t-201.5 -187t-332 -67.5h-719zM421 116h594q231 0 355.5 116t124.5 299q0 129 -60.5 231
t-167.5 161.5t-248 59.5h-598v-867zM421 1097h583q131 0 222.5 57t140 153t48.5 213q0 190 -118 301t-336 111h-540v-835z" />
    <glyph glyph-name="uni0043" unicode="C" horiz-adv-x="2040" 
d="M1856 1408h-128q-20 104 -75 201.5t-141.5 176t-200.5 124.5t-252 46q-202 0 -371.5 -107.5t-271 -315.5t-101.5 -509q0 -303 101.5 -511t271 -314.5t371.5 -106.5q138 0 252 45.5t200.5 124t141.5 176.5t75 202h128q-22 -124 -84.5 -243t-164 -215.5t-239 -153
t-309.5 -56.5q-256 0 -451 130.5t-305.5 367.5t-110.5 554t110.5 554t305.5 367.5t451 130.5q172 0 309.5 -56.5t239 -152t164 -214.5t84.5 -245z" />
    <glyph glyph-name="uni0187" unicode="&#x187;" horiz-adv-x="2047" 
d="M1856 1408h-121v312q0 112 34.5 186.5t100 111.5t157.5 37q22 0 42.5 -1.5t35.5 -5.5v-109q-11 2 -26.5 3.5t-31.5 1.5q-64 0 -106 -21.5t-63.5 -70.5t-21.5 -132v-312zM1856 1408h-128q-20 104 -75 201.5t-141.5 176t-200.5 124.5t-252 46q-202 0 -371.5 -107.5
t-271 -315.5t-101.5 -509q0 -303 101.5 -511t271 -314.5t371.5 -106.5q138 0 252 45.5t200.5 124t141.5 176.5t75 202h128q-22 -124 -84.5 -243t-164 -215.5t-239 -153t-309.5 -56.5q-256 0 -451 130.5t-305.5 367.5t-110.5 554t110.5 554t305.5 367.5t451 130.5
q172 0 309.5 -56.5t239 -152t164 -214.5t84.5 -245z" />
    <glyph glyph-name="uni00C7" unicode="&#xc7;" horiz-adv-x="2040" 
d="M1856 1408h-128q-20 104 -75 201.5t-141.5 176t-200.5 124.5t-252 46q-202 0 -371.5 -107.5t-271 -315.5t-101.5 -509q0 -303 101.5 -511t271 -314.5t371.5 -106.5q138 0 252 45.5t200.5 124t141.5 176.5t75 202h128q-22 -124 -84.5 -243t-164 -215.5t-239 -153
t-309.5 -56.5q-256 0 -451 130.5t-305.5 367.5t-110.5 554t110.5 554t305.5 367.5t451 130.5q172 0 309.5 -56.5t239 -152t164 -214.5t84.5 -245zM1003 3h108l-15 -80q94 -15 151 -73.5t57 -159.5q0 -114 -81.5 -175t-238.5 -64l-4 95q106 2 158 35.5t53 105.5
q-1 80 -55 118t-165 39z" />
    <glyph glyph-name="uni0106" unicode="&#x106;" horiz-adv-x="2040" 
d="M1856 1408h-128q-20 104 -75 201.5t-141.5 176t-200.5 124.5t-252 46q-202 0 -371.5 -107.5t-271 -315.5t-101.5 -509q0 -303 101.5 -511t271 -314.5t371.5 -106.5q138 0 252 45.5t200.5 124t141.5 176.5t75 202h128q-22 -124 -84.5 -243t-164 -215.5t-239 -153
t-309.5 -56.5q-256 0 -451 130.5t-305.5 367.5t-110.5 554t110.5 554t305.5 367.5t451 130.5q172 0 309.5 -56.5t239 -152t164 -214.5t84.5 -245zM1000 2267l268 442h145l-301 -442h-112z" />
    <glyph glyph-name="uni0108" unicode="&#x108;" horiz-adv-x="2040" 
d="M1856 1408h-128q-20 104 -75 201.5t-141.5 176t-200.5 124.5t-252 46q-202 0 -371.5 -107.5t-271 -315.5t-101.5 -509q0 -303 101.5 -511t271 -314.5t371.5 -106.5q138 0 252 45.5t200.5 124t141.5 176.5t75 202h128q-22 -124 -84.5 -243t-164 -215.5t-239 -153
t-309.5 -56.5q-256 0 -451 130.5t-305.5 367.5t-110.5 554t110.5 554t305.5 367.5t451 130.5q172 0 309.5 -56.5t239 -152t164 -214.5t84.5 -245zM790 2216h-126v11l354 389h82l354 -389v-11h-126l-269 299z" />
    <glyph glyph-name="uni010A" unicode="&#x10a;" horiz-adv-x="2040" 
d="M1856 1408h-128q-20 104 -75 201.5t-141.5 176t-200.5 124.5t-252 46q-202 0 -371.5 -107.5t-271 -315.5t-101.5 -509q0 -303 101.5 -511t271 -314.5t371.5 -106.5q138 0 252 45.5t200.5 124t141.5 176.5t75 202h128q-22 -124 -84.5 -243t-164 -215.5t-239 -153
t-309.5 -56.5q-256 0 -451 130.5t-305.5 367.5t-110.5 554t110.5 554t305.5 367.5t451 130.5q172 0 309.5 -56.5t239 -152t164 -214.5t84.5 -245zM1059 2320q-41 0 -70 28t-29 68t29 68t70 28q40 0 69 -28t29 -68t-29 -68t-69 -28z" />
    <glyph glyph-name="uni010C" unicode="&#x10c;" horiz-adv-x="2040" 
d="M1856 1408h-128q-20 104 -75 201.5t-141.5 176t-200.5 124.5t-252 46q-202 0 -371.5 -107.5t-271 -315.5t-101.5 -509q0 -303 101.5 -511t271 -314.5t371.5 -106.5q138 0 252 45.5t200.5 124t141.5 176.5t75 202h128q-22 -124 -84.5 -243t-164 -215.5t-239 -153
t-309.5 -56.5q-256 0 -451 130.5t-305.5 367.5t-110.5 554t110.5 554t305.5 367.5t451 130.5q172 0 309.5 -56.5t239 -152t164 -214.5t84.5 -245zM790 2650l269 -298l269 298h126v-10l-354 -390h-82l-354 390v10h126z" />
    <glyph glyph-name="uni1E08" unicode="&#x1e08;" horiz-adv-x="2040" 
d="M1856 1408h-128q-20 104 -75 201.5t-141.5 176t-200.5 124.5t-252 46q-202 0 -371.5 -107.5t-271 -315.5t-101.5 -509q0 -303 101.5 -511t271 -314.5t371.5 -106.5q138 0 252 45.5t200.5 124t141.5 176.5t75 202h128q-22 -124 -84.5 -243t-164 -215.5t-239 -153
t-309.5 -56.5q-256 0 -451 130.5t-305.5 367.5t-110.5 554t110.5 554t305.5 367.5t451 130.5q172 0 309.5 -56.5t239 -152t164 -214.5t84.5 -245zM1003 3h108l-15 -80q94 -15 151 -73.5t57 -159.5q0 -114 -81.5 -175t-238.5 -64l-4 95q106 2 158 35.5t53 105.5
q-1 80 -55 118t-165 39zM1000 2267l268 442h145l-301 -442h-112z" />
    <glyph glyph-name="uni023B" unicode="&#x23b;" horiz-adv-x="2040" 
d="M491 -260l968 2568h121l-968 -2568h-121zM1856 1408h-128q-20 104 -75 201.5t-141.5 176t-200.5 124.5t-252 46q-202 0 -371.5 -107.5t-271 -315.5t-101.5 -509q0 -303 101.5 -511t271 -314.5t371.5 -106.5q138 0 252 45.5t200.5 124t141.5 176.5t75 202h128
q-22 -124 -84.5 -243t-164 -215.5t-239 -153t-309.5 -56.5q-256 0 -451 130.5t-305.5 367.5t-110.5 554t110.5 554t305.5 367.5t451 130.5q172 0 309.5 -56.5t239 -152t164 -214.5t84.5 -245z" />
    <glyph glyph-name="uni0186" unicode="&#x186;" horiz-adv-x="2040" 
d="M184 1408q22 126 84.5 245t164 214.5t239 152t309.5 56.5q256 0 451 -130.5t305.5 -367.5t110.5 -554t-110.5 -554t-305.5 -367.5t-451 -130.5q-172 0 -309.5 56.5t-239 153t-164 215.5t-84.5 243h128q20 -104 75 -202t141.5 -176.5t200.5 -124t252 -45.5
q202 0 371.5 106.5t271 314.5t101.5 511q0 301 -101.5 509t-271 315.5t-371.5 107.5q-138 0 -252 -46t-200.5 -124.5t-141.5 -176t-75 -201.5h-128z" />
    <glyph glyph-name="uni03F9" unicode="&#x3f9;" horiz-adv-x="2040" 
d="M1856 1408h-128q-20 104 -75 201.5t-141.5 176t-200.5 124.5t-252 46q-202 0 -371.5 -107.5t-271 -315.5t-101.5 -509q0 -303 101.5 -511t271 -314.5t371.5 -106.5q138 0 252 45.5t200.5 124t141.5 176.5t75 202h128q-22 -124 -84.5 -243t-164 -215.5t-239 -153
t-309.5 -56.5q-256 0 -451 130.5t-305.5 367.5t-110.5 554t110.5 554t305.5 367.5t451 130.5q172 0 309.5 -56.5t239 -152t164 -214.5t84.5 -245z" />
    <glyph glyph-name="uni0044" unicode="D" horiz-adv-x="2016" 
d="M864 0h-568v2048h612q288 0 493 -122t314.5 -349.5t108.5 -545.5q-1 -325 -114 -555.5t-327 -353t-519 -122.5zM421 116h438q274 0 462 109.5t284.5 314.5t95.5 491q0 282 -93 483.5t-270.5 309.5t-434.5 108h-482v-1816z" />
    <glyph glyph-name="uni018A" unicode="&#x18a;" horiz-adv-x="2364" 
d="M160 1627v93q1 100 37 173.5t107 114t173 40.5h200v-116h-196q-77 0 -121 -29t-62 -86t-18 -141v-49h-120zM1212 0h-568v2048h612q288 0 493 -122t314.5 -349.5t108.5 -545.5q-1 -325 -114 -555.5t-327 -353t-519 -122.5zM769 116h438q274 0 462 109.5t284.5 314.5
t95.5 491q0 282 -93 483.5t-270.5 309.5t-434.5 108h-482v-1816z" />
    <glyph glyph-name="uni010E" unicode="&#x10e;" horiz-adv-x="2016" 
d="M864 0h-568v2048h612q288 0 493 -122t314.5 -349.5t108.5 -545.5q-1 -325 -114 -555.5t-327 -353t-519 -122.5zM421 116h438q274 0 462 109.5t284.5 314.5t95.5 491q0 282 -93 483.5t-270.5 309.5t-434.5 108h-482v-1816zM592 2650l269 -298l269 298h126v-10l-354 -390
h-82l-354 390v10h126z" />
    <glyph glyph-name="uni1E0A" unicode="&#x1e0a;" horiz-adv-x="2016" 
d="M864 0h-568v2048h612q288 0 493 -122t314.5 -349.5t108.5 -545.5q-1 -325 -114 -555.5t-327 -353t-519 -122.5zM421 116h438q274 0 462 109.5t284.5 314.5t95.5 491q0 282 -93 483.5t-270.5 309.5t-434.5 108h-482v-1816zM862 2320q-41 0 -70 28t-29 68t29 68t70 28
q40 0 69 -28t29 -68t-29 -68t-69 -28z" />
    <glyph glyph-name="uni1E0C" unicode="&#x1e0c;" horiz-adv-x="2016" 
d="M864 0h-568v2048h612q288 0 493 -122t314.5 -349.5t108.5 -545.5q-1 -325 -114 -555.5t-327 -353t-519 -122.5zM421 116h438q274 0 462 109.5t284.5 314.5t95.5 491q0 282 -93 483.5t-270.5 309.5t-434.5 108h-482v-1816zM827 -473q-41 0 -70 28t-29 68t29 68t70 28
q40 0 69 -28t29 -68t-29 -68t-69 -28z" />
    <glyph glyph-name="uni1E0E" unicode="&#x1e0e;" horiz-adv-x="2016" 
d="M864 0h-568v2048h612q288 0 493 -122t314.5 -349.5t108.5 -545.5q-1 -325 -114 -555.5t-327 -353t-519 -122.5zM421 116h438q274 0 462 109.5t284.5 314.5t95.5 491q0 282 -93 483.5t-270.5 309.5t-434.5 108h-482v-1816zM1197 -276v-109h-739v109h739z" />
    <glyph glyph-name="uni1E10" unicode="&#x1e10;" horiz-adv-x="2016" 
d="M864 0h-568v2048h612q288 0 493 -122t314.5 -349.5t108.5 -545.5q-1 -325 -114 -555.5t-327 -353t-519 -122.5zM421 116h438q274 0 462 109.5t284.5 314.5t95.5 491q0 282 -93 483.5t-270.5 309.5t-434.5 108h-482v-1816zM636 -680l125 518h127l-156 -518h-96z" />
    <glyph glyph-name="uni1E12" unicode="&#x1e12;" horiz-adv-x="2016" 
d="M864 0h-568v2048h612q288 0 493 -122t314.5 -349.5t108.5 -545.5q-1 -325 -114 -555.5t-327 -353t-519 -122.5zM421 116h438q274 0 462 109.5t284.5 314.5t95.5 491q0 282 -93 483.5t-270.5 309.5t-434.5 108h-482v-1816zM558 -549h-126v11l354 389h82l354 -389v-11h-126
l-269 299z" />
    <glyph glyph-name="uni0189" unicode="&#x189;" horiz-adv-x="2016" 
d="M864 0h-568v2048h612q288 0 493 -122t314.5 -349.5t108.5 -545.5q-1 -325 -114 -555.5t-327 -353t-519 -122.5zM421 116h438q274 0 462 109.5t284.5 314.5t95.5 491q0 282 -93 483.5t-270.5 309.5t-434.5 108h-482v-1816zM-41 993v104h800v-104h-800z" />
    <glyph glyph-name="uni01F2" unicode="&#x1f2;" horiz-adv-x="3479" 
d="M864 0h-568v2048h612q288 0 493 -122t314.5 -349.5t108.5 -545.5q-1 -325 -114 -555.5t-327 -353t-519 -122.5zM421 116h438q274 0 462 109.5t284.5 314.5t95.5 491q0 282 -93 483.5t-270.5 309.5t-434.5 108h-482v-1816zM2217 0v103l904 1306v11h-854v116h1009v-105
l-896 -1304v-11h932v-116h-1095z" />
    <glyph glyph-name="uni01C5" unicode="&#x1c5;" horiz-adv-x="3479" 
d="M864 0h-568v2048h612q288 0 493 -122t314.5 -349.5t108.5 -545.5q-1 -325 -114 -555.5t-327 -353t-519 -122.5zM421 116h438q274 0 462 109.5t284.5 314.5t95.5 491q0 282 -93 483.5t-270.5 309.5t-434.5 108h-482v-1816zM2217 0v103l904 1306v11h-854v116h1009v-105
l-896 -1304v-11h932v-116h-1095zM2478 2138l269 -298l269 298h126v-10l-354 -390h-82l-354 390v10h126z" />
    <glyph glyph-name="uni0045" unicode="E" horiz-adv-x="1657" 
d="M296 0v2048h1140v-116h-1015v-849h954v-116h-954v-851h1039v-116h-1164z" />
    <glyph glyph-name="uni00C8" unicode="&#xc8;" horiz-adv-x="1657" 
d="M296 0v2048h1140v-116h-1015v-849h954v-116h-954v-851h1039v-116h-1164zM816 2267l-301 442h145l268 -442h-112z" />
    <glyph glyph-name="uni00C9" unicode="&#xc9;" horiz-adv-x="1657" 
d="M296 0v2048h1140v-116h-1015v-849h954v-116h-954v-851h1039v-116h-1164zM811 2267l268 442h145l-301 -442h-112z" />
    <glyph glyph-name="uni00CA" unicode="&#xca;" horiz-adv-x="1657" 
d="M296 0v2048h1140v-116h-1015v-849h954v-116h-954v-851h1039v-116h-1164zM600 2216h-126v11l354 389h82l354 -389v-11h-126l-269 299z" />
    <glyph glyph-name="uni00CB" unicode="&#xcb;" horiz-adv-x="1657" 
d="M296 0v2048h1140v-116h-1015v-849h954v-116h-954v-851h1039v-116h-1164zM645 2320q-38 0 -67 29t-29 67q0 40 29 68t67 28q40 0 68 -28t28 -68q0 -38 -28 -67t-68 -29zM1093 2320q-38 0 -67 29t-29 67q0 40 29 68t67 28q40 0 68 -28t28 -68q0 -38 -28 -67t-68 -29z" />
    <glyph glyph-name="uni0112" unicode="&#x112;" horiz-adv-x="1657" 
d="M296 0v2048h1140v-116h-1015v-849h954v-116h-954v-851h1039v-116h-1164zM1239 2469v-109h-739v109h739z" />
    <glyph glyph-name="uni0114" unicode="&#x114;" horiz-adv-x="1657" 
d="M296 0v2048h1140v-116h-1015v-849h954v-116h-954v-851h1039v-116h-1164zM1041 2560h116q0 -125 -77 -200t-211 -75q-133 0 -210 75t-77 200h116q0 -79 42 -127t129 -48t129.5 48t42.5 127z" />
    <glyph glyph-name="uni0116" unicode="&#x116;" horiz-adv-x="1657" 
d="M296 0v2048h1140v-116h-1015v-849h954v-116h-954v-851h1039v-116h-1164zM870 2320q-41 0 -70 28t-29 68t29 68t70 28q40 0 69 -28t29 -68t-29 -68t-69 -28z" />
    <glyph glyph-name="uni0118" unicode="&#x118;" horiz-adv-x="1657" 
d="M296 0v2048h1140v-116h-1015v-849h954v-116h-954v-851h1039v-116h-1164zM1366 -605q-110 0 -181 62t-71 182q0 73 30 139t90 127.5t148 122.5l78 -28q-98 -91 -161 -174.5t-63 -176.5q0 -73 39.5 -109t110.5 -36q44 0 77.5 12.5t64.5 34.5l31 -94q-40 -27 -86.5 -44.5
t-106.5 -17.5z" />
    <glyph glyph-name="uni011A" unicode="&#x11a;" horiz-adv-x="1657" 
d="M296 0v2048h1140v-116h-1015v-849h954v-116h-954v-851h1039v-116h-1164zM600 2650l269 -298l269 298h126v-10l-354 -390h-82l-354 390v10h126z" />
    <glyph glyph-name="uni0204" unicode="&#x204;" horiz-adv-x="1657" 
d="M296 0v2048h1140v-116h-1015v-849h954v-116h-954v-851h1039v-116h-1164zM683 2267l-321 442h153l280 -442h-112zM971 2267l-251 442h152l210 -442h-111z" />
    <glyph glyph-name="uni0206" unicode="&#x206;" horiz-adv-x="1657" 
d="M296 0v2048h1140v-116h-1015v-849h954v-116h-954v-851h1039v-116h-1164zM585 2374q0 124 77 200t211 76t210.5 -76t76.5 -200h-116q0 80 -42.5 128t-128.5 48q-88 0 -130 -48.5t-42 -127.5h-116z" />
    <glyph glyph-name="uni0228" unicode="&#x228;" horiz-adv-x="1657" 
d="M296 0v2048h1140v-116h-1015v-849h954v-116h-954v-851h1039v-116h-1164zM779 8h108l-15 -80q94 -15 151 -73.5t57 -159.5q0 -114 -81.5 -175t-238.5 -64l-4 95q106 2 158 35.5t53 105.5q-1 80 -55 118t-165 39z" />
    <glyph glyph-name="uni1E14" unicode="&#x1e14;" horiz-adv-x="1657" 
d="M296 0v2048h1140v-116h-1015v-849h954v-116h-954v-851h1039v-116h-1164zM813 2565l-281 272h156l257 -272h-132zM1239 2392v-109h-739v109h739z" />
    <glyph glyph-name="uni1E16" unicode="&#x1e16;" horiz-adv-x="1657" 
d="M296 0v2048h1140v-116h-1015v-849h954v-116h-954v-851h1039v-116h-1164zM795 2565l257 272h156l-281 -272h-132zM1239 2392v-109h-739v109h739z" />
    <glyph glyph-name="uni1E18" unicode="&#x1e18;" horiz-adv-x="1657" 
d="M296 0v2048h1140v-116h-1015v-849h954v-116h-954v-851h1039v-116h-1164zM562 -549h-126v11l354 389h82l354 -389v-11h-126l-269 299z" />
    <glyph glyph-name="uni1E1A" unicode="&#x1e1a;" horiz-adv-x="1657" 
d="M296 0v2048h1140v-116h-1015v-849h954v-116h-954v-851h1039v-116h-1164zM491 -424l-104 8q9 114 87.5 185.5t189.5 71.5q65 0 113 -23t89 -52.5t83.5 -53t97.5 -23.5q64 0 116 43.5t62 111.5l103 -16q-15 -113 -94.5 -181t-182.5 -68q-66 0 -111.5 23t-84.5 52.5t-82 53
t-105 23.5q-71 0 -121 -44.5t-56 -110.5z" />
    <glyph glyph-name="uni1E1C" unicode="&#x1e1c;" horiz-adv-x="1657" 
d="M296 0v2048h1140v-116h-1015v-849h954v-116h-954v-851h1039v-116h-1164zM779 8h108l-15 -80q94 -15 151 -73.5t57 -159.5q0 -114 -81.5 -175t-238.5 -64l-4 95q106 2 158 35.5t53 105.5q-1 80 -55 118t-165 39zM1041 2560h116q0 -125 -77 -200t-211 -75q-133 0 -210 75
t-77 200h116q0 -79 42 -127t129 -48t129.5 48t42.5 127z" />
    <glyph glyph-name="uni1EB8" unicode="&#x1eb8;" horiz-adv-x="1657" 
d="M296 0v2048h1140v-116h-1015v-849h954v-116h-954v-851h1039v-116h-1164zM831 -473q-41 0 -70 28t-29 68t29 68t70 28q40 0 69 -28t29 -68t-29 -68t-69 -28z" />
    <glyph glyph-name="uni1EBA" unicode="&#x1eba;" horiz-adv-x="1657" 
d="M296 0v2048h1140v-116h-1015v-849h954v-116h-954v-851h1039v-116h-1164zM924 2248h-108v201q111 7 156.5 37.5t44.5 98.5q-1 80 -61 116t-172 36l9 94q172 -1 255.5 -67.5t84.5 -175.5q1 -97 -59.5 -151t-149.5 -64v-125z" />
    <glyph glyph-name="uni1EBC" unicode="&#x1ebc;" horiz-adv-x="1657" 
d="M296 0v2048h1140v-116h-1015v-849h954v-116h-954v-851h1039v-116h-1164zM503 2288l-104 8q9 114 87.5 185.5t189.5 71.5q65 0 113 -23t89 -52.5t83.5 -53t97.5 -23.5q64 0 116 43.5t62 111.5l103 -16q-15 -113 -94.5 -181t-182.5 -68q-66 0 -111.5 23t-84.5 52.5t-82 53
t-105 23.5q-71 0 -121 -44.5t-56 -110.5z" />
    <glyph glyph-name="uni1EBE" unicode="&#x1ebe;" horiz-adv-x="1657" 
d="M296 0v2048h1140v-116h-1015v-849h954v-116h-954v-851h1039v-116h-1164zM710 2520l387 -135h17l-64 84l-296 -205l-132 70l175 186h-87zM1254 2510l226 355h150l-264 -355h-112z" />
    <glyph glyph-name="uni1EC0" unicode="&#x1ec0;" horiz-adv-x="1657" 
d="M296 0v2048h1140v-116h-1015v-849h954v-116h-954v-851h1039v-116h-1164zM913 2675l387 -378h-152l-276 276l-276 -276h-152l385 378h84zM293 2900l211 -356h-111l-252 356h152z" />
    <glyph glyph-name="uni1EC2" unicode="&#x1ec2;" horiz-adv-x="1657" 
d="M296 0v2048h1140v-116h-1015v-849h954v-116h-954v-851h1039v-116h-1164zM924 2603l377 -377h-139l-290 289l-290 -289h-138l377 377h103zM1374 2420h-98v170q104 6 148 33t44 84q-1 67 -58 100t-166 33l9 87q162 -1 241.5 -62t79.5 -154q0 -83 -57 -133.5t-143 -58.5v-99
z" />
    <glyph glyph-name="uni1EC4" unicode="&#x1ec4;" horiz-adv-x="1657" 
d="M296 0v2048h1140v-116h-1015v-849h954v-116h-954v-851h1039v-116h-1164zM891 2550l390 -368h-138l-290 276l-289 -276h-139l391 368h75zM1148 2883l80 -16q-11 -94 -77 -153.5t-150 -59.5q-55 0 -93 21t-68.5 48.5t-63 49t-75.5 22.5q-49 1 -93 -36.5t-52 -100.5l-79 14
q12 95 77 155t146 60q50 0 88 -21t70.5 -48.5t67 -48.5t77.5 -22q50 -1 94 36t51 100z" />
    <glyph glyph-name="uni1EC6" unicode="&#x1ec6;" horiz-adv-x="1657" 
d="M296 0v2048h1140v-116h-1015v-849h954v-116h-954v-851h1039v-116h-1164zM600 2216h-126v11l354 389h82l354 -389v-11h-126l-269 299zM831 -473q-41 0 -70 28t-29 68t29 68t70 28q40 0 69 -28t29 -68t-29 -68t-69 -28z" />
    <glyph glyph-name="uni0246" unicode="&#x246;" horiz-adv-x="1657" 
d="M1340 2308l-741 -2568h-116l741 2568h116zM296 0v2048h1140v-116h-1015v-849h954v-116h-954v-851h1039v-116h-1164z" />
    <glyph glyph-name="uni018E" unicode="&#x18e;" horiz-adv-x="1629" 
d="M1372 2048v-2048h-1140v116h1015v849h-954v116h954v851h-1039v116h1164z" />
    <glyph glyph-name="uni0395" unicode="&#x395;" horiz-adv-x="1657" 
d="M296 0v2048h1140v-116h-1015v-849h954v-116h-954v-851h1039v-116h-1164z" />
    <glyph glyph-name="uni0388" unicode="&#x388;" horiz-adv-x="1768" 
d="M407 0v2048h1140v-116h-1015v-849h954v-116h-954v-851h1039v-116h-1164zM88 1700l50 463h138l-101 -463h-87z" />
    <glyph glyph-name="uni1F18" unicode="&#x1f18;" horiz-adv-x="1979" 
d="M617 0v2048h1140v-116h-1015v-849h954v-116h-954v-851h1039v-116h-1164zM404 2048v-72q0 -87 -20 -158t-64.5 -134t-119.5 -125l-66 42q56 66 87.5 123t44.5 119t13 141v64h125z" />
    <glyph glyph-name="uni1F19" unicode="&#x1f19;" horiz-adv-x="1943" 
d="M581 0v2048h1140v-116h-1015v-849h954v-116h-954v-851h1039v-116h-1164zM154 1981v72h126v-64q0 -79 13 -140.5t44.5 -119t87.5 -122.5l-67 -43q-110 94 -157 190.5t-47 226.5z" />
    <glyph glyph-name="uni1F1A" unicode="&#x1f1a;" horiz-adv-x="2536" 
d="M1175 0v2048h1140v-116h-1015v-849h954v-116h-954v-851h1039v-116h-1164zM966 1603v-19h-75l-294 443v21h141zM533 2048v-72q0 -87 -20.5 -158t-65 -134t-118.5 -125l-67 42q83 98 114 181t31 202v64h126z" />
    <glyph glyph-name="uni1F1B" unicode="&#x1f1b;" horiz-adv-x="2419" 
d="M1057 0v2048h1140v-116h-1015v-849h954v-116h-954v-851h1039v-116h-1164zM842 1608v-19h-75l-295 443v21h143zM270 1981v72h125v-64q0 -119 31 -202t114 -180l-66 -43q-111 94 -157.5 190.5t-46.5 226.5z" />
    <glyph glyph-name="uni1F1C" unicode="&#x1f1c;" horiz-adv-x="2367" 
d="M1005 0v2048h1140v-116h-1015v-849h954v-116h-954v-851h1039v-116h-1164zM362 1601l176 304l98 148l96 -12l-190 -306l-137 -146zM340 2053v-72q0 -86 -20.5 -157t-65 -134t-118.5 -126l-67 43q83 97 114 180t31 202v64h126z" />
    <glyph glyph-name="uni1F1D" unicode="&#x1f1d;" horiz-adv-x="2420" 
d="M1059 0v2048h1140v-116h-1015v-849h954v-116h-954v-851h1039v-116h-1164zM499 1601l176 304l96 148l98 -12l-190 -306l-137 -146zM185 1981v72h125v-64q0 -119 31.5 -202t113.5 -180l-66 -43q-111 94 -157.5 190.5t-46.5 226.5z" />
    <glyph glyph-name="uni1FC8" unicode="&#x1fc8;" horiz-adv-x="2108" 
d="M747 0v2048h1140v-116h-1015v-849h954v-116h-954v-851h1039v-116h-1164zM450 1592l-42 -12l-138 147l-189 306l96 12l97 -148z" />
    <glyph glyph-name="uni1FC9" unicode="&#x1fc9;" horiz-adv-x="1996" 
d="M635 0v2048h1140v-116h-1015v-849h954v-116h-954v-851h1039v-116h-1164zM254 1728v11l219 457h148v-12l-288 -456h-79z" />
    <glyph glyph-name="uni0415" unicode="&#x415;" horiz-adv-x="1657" 
d="M296 0v2048h1140v-116h-1015v-849h954v-116h-954v-851h1039v-116h-1164z" />
    <glyph glyph-name="uni0400" unicode="&#x400;" horiz-adv-x="1657" 
d="M296 0v2048h1140v-116h-1015v-849h954v-116h-954v-851h1039v-116h-1164zM816 2267l-301 442h145l268 -442h-112z" />
    <glyph glyph-name="uni0401" unicode="&#x401;" horiz-adv-x="1657" 
d="M296 0v2048h1140v-116h-1015v-849h954v-116h-954v-851h1039v-116h-1164zM645 2320q-38 0 -67 29t-29 67q0 40 29 68t67 28q40 0 68 -28t28 -68q0 -38 -28 -67t-68 -29zM1093 2320q-38 0 -67 29t-29 67q0 40 29 68t67 28q40 0 68 -28t28 -68q0 -38 -28 -67t-68 -29z" />
    <glyph glyph-name="uni04D6" unicode="&#x4d6;" horiz-adv-x="1657" 
d="M296 0v2048h1140v-116h-1015v-849h954v-116h-954v-851h1039v-116h-1164zM1041 2560h116q0 -125 -77 -200t-211 -75q-133 0 -210 75t-77 200h116q0 -79 42 -127t129 -48t129.5 48t42.5 127z" />
    <glyph glyph-name="uni0046" unicode="F" horiz-adv-x="1649" 
d="M296 0v2048h1143v-116h-1018v-849h923v-116h-923v-967h-125z" />
    <glyph glyph-name="uni0191" unicode="&#x191;" horiz-adv-x="1607" 
d="M253 0h126v-209q0 -88 -22 -156t-64.5 -114.5t-105.5 -70t-146 -23.5q-18 0 -35.5 1.5t-41.5 7.5v111q14 -4 33 -6t40 -2q104 0 160 60t56 193v208zM253 0v2048h1143v-116h-1017v-849h922v-116h-922v-967h-126z" />
    <glyph glyph-name="uni1E1E" unicode="&#x1e1e;" horiz-adv-x="1649" 
d="M296 0v2048h1143v-116h-1018v-849h923v-116h-923v-967h-125zM878 2320q-41 0 -70 28t-29 68t29 68t70 28q40 0 69 -28t29 -68t-29 -68t-69 -28z" />
    <glyph glyph-name="uni2132" unicode="&#x2132;" horiz-adv-x="1649" 
d="M1353 2048v-2048h-1142v116h1017v849h-923v116h923v967h125z" />
    <glyph glyph-name="uni0047" unicode="G" horiz-adv-x="2084" 
d="M1731 1408q-23 104 -78 201.5t-140.5 176t-200 124.5t-256.5 46q-217 0 -384.5 -113.5t-262 -323t-94.5 -495.5q0 -283 94 -493t263.5 -324.5t394.5 -114.5q201 0 356.5 93t242.5 266t85 414l44 -21h-696v116h774v-116q0 -271 -103.5 -466.5t-286 -300.5t-416.5 -105
q-264 0 -461 131t-305.5 367.5t-108.5 553.5q0 238 62 432t177 332.5t274 213t351 74.5q174 0 313 -57.5t240.5 -154t164.5 -215t85 -241.5h-128z" />
    <glyph glyph-name="uni01E4" unicode="&#x1e4;" horiz-adv-x="2084" 
d="M2019 581v-109h-920v109h920zM1731 1408q-23 104 -78 201.5t-140.5 176t-200 124.5t-256.5 46q-217 0 -384.5 -113.5t-262 -323t-94.5 -495.5q0 -283 94 -493t263.5 -324.5t394.5 -114.5q201 0 356.5 93t242.5 266t85 414l44 -21h-696v116h774v-116q0 -271 -103.5 -466.5
t-286 -300.5t-416.5 -105q-264 0 -461 131t-305.5 367.5t-108.5 553.5q0 238 62 432t177 332.5t274 213t351 74.5q174 0 313 -57.5t240.5 -154t164.5 -215t85 -241.5h-128z" />
    <glyph glyph-name="uni0193" unicode="&#x193;" horiz-adv-x="2061" 
d="M1857 1408h-126l4 227q2 85 21 147.5t56.5 104.5t94 62t132.5 20q25 0 55 -1.5t55 -6.5v-109q-22 3 -46 5t-44 2q-68 0 -113 -21.5t-67 -70.5t-22 -132v-227zM1731 1408q-23 104 -78 201.5t-140.5 176t-200 124.5t-256.5 46q-217 0 -384.5 -113.5t-262 -323t-94.5 -495.5
q0 -283 94 -493t263.5 -324.5t394.5 -114.5q201 0 356.5 93t242.5 266t85 414l44 -21h-696v116h774v-116q0 -271 -103.5 -466.5t-286 -300.5t-416.5 -105q-264 0 -461 131t-305.5 367.5t-108.5 553.5q0 238 62 432t177 332.5t274 213t351 74.5q174 0 313 -57.5t240.5 -154
t164.5 -215t85 -241.5h-128z" />
    <glyph glyph-name="uni011C" unicode="&#x11c;" horiz-adv-x="2084" 
d="M1731 1408q-23 104 -78 201.5t-140.5 176t-200 124.5t-256.5 46q-217 0 -384.5 -113.5t-262 -323t-94.5 -495.5q0 -283 94 -493t263.5 -324.5t394.5 -114.5q201 0 356.5 93t242.5 266t85 414l44 -21h-696v116h774v-116q0 -271 -103.5 -466.5t-286 -300.5t-416.5 -105
q-264 0 -461 131t-305.5 367.5t-108.5 553.5q0 238 62 432t177 332.5t274 213t351 74.5q174 0 313 -57.5t240.5 -154t164.5 -215t85 -241.5h-128zM779 2216h-126v11l354 389h82l354 -389v-11h-126l-269 299z" />
    <glyph glyph-name="uni011E" unicode="&#x11e;" horiz-adv-x="2084" 
d="M1731 1408q-23 104 -78 201.5t-140.5 176t-200 124.5t-256.5 46q-217 0 -384.5 -113.5t-262 -323t-94.5 -495.5q0 -283 94 -493t263.5 -324.5t394.5 -114.5q201 0 356.5 93t242.5 266t85 414l44 -21h-696v116h774v-116q0 -271 -103.5 -466.5t-286 -300.5t-416.5 -105
q-264 0 -461 131t-305.5 367.5t-108.5 553.5q0 238 62 432t177 332.5t274 213t351 74.5q174 0 313 -57.5t240.5 -154t164.5 -215t85 -241.5h-128zM1220 2560h116q0 -125 -77 -200t-211 -75q-133 0 -210 75t-77 200h116q0 -79 42 -127t129 -48t129.5 48t42.5 127z" />
    <glyph glyph-name="uni0120" unicode="&#x120;" horiz-adv-x="2084" 
d="M1731 1408q-23 104 -78 201.5t-140.5 176t-200 124.5t-256.5 46q-217 0 -384.5 -113.5t-262 -323t-94.5 -495.5q0 -283 94 -493t263.5 -324.5t394.5 -114.5q201 0 356.5 93t242.5 266t85 414l44 -21h-696v116h774v-116q0 -271 -103.5 -466.5t-286 -300.5t-416.5 -105
q-264 0 -461 131t-305.5 367.5t-108.5 553.5q0 238 62 432t177 332.5t274 213t351 74.5q174 0 313 -57.5t240.5 -154t164.5 -215t85 -241.5h-128zM1048 2320q-41 0 -70 28t-29 68t29 68t70 28q40 0 69 -28t29 -68t-29 -68t-69 -28z" />
    <glyph glyph-name="uni0122" unicode="&#x122;" horiz-adv-x="2084" 
d="M1731 1408q-23 104 -78 201.5t-140.5 176t-200 124.5t-256.5 46q-217 0 -384.5 -113.5t-262 -323t-94.5 -495.5q0 -283 94 -493t263.5 -324.5t394.5 -114.5q201 0 356.5 93t242.5 266t85 414l44 -21h-696v116h774v-116q0 -271 -103.5 -466.5t-286 -300.5t-416.5 -105
q-264 0 -461 131t-305.5 367.5t-108.5 553.5q0 238 62 432t177 332.5t274 213t351 74.5q174 0 313 -57.5t240.5 -154t164.5 -215t85 -241.5h-128zM856 -680l125 518h127l-156 -518h-96z" />
    <glyph glyph-name="uni01E6" unicode="&#x1e6;" horiz-adv-x="2084" 
d="M1731 1408q-23 104 -78 201.5t-140.5 176t-200 124.5t-256.5 46q-217 0 -384.5 -113.5t-262 -323t-94.5 -495.5q0 -283 94 -493t263.5 -324.5t394.5 -114.5q201 0 356.5 93t242.5 266t85 414l44 -21h-696v116h774v-116q0 -271 -103.5 -466.5t-286 -300.5t-416.5 -105
q-264 0 -461 131t-305.5 367.5t-108.5 553.5q0 238 62 432t177 332.5t274 213t351 74.5q174 0 313 -57.5t240.5 -154t164.5 -215t85 -241.5h-128zM779 2650l269 -298l269 298h126v-10l-354 -390h-82l-354 390v10h126z" />
    <glyph glyph-name="uni01F4" unicode="&#x1f4;" horiz-adv-x="2084" 
d="M1731 1408q-23 104 -78 201.5t-140.5 176t-200 124.5t-256.5 46q-217 0 -384.5 -113.5t-262 -323t-94.5 -495.5q0 -283 94 -493t263.5 -324.5t394.5 -114.5q201 0 356.5 93t242.5 266t85 414l44 -21h-696v116h774v-116q0 -271 -103.5 -466.5t-286 -300.5t-416.5 -105
q-264 0 -461 131t-305.5 367.5t-108.5 553.5q0 238 62 432t177 332.5t274 213t351 74.5q174 0 313 -57.5t240.5 -154t164.5 -215t85 -241.5h-128zM989 2267l268 442h145l-301 -442h-112z" />
    <glyph glyph-name="uni1E20" unicode="&#x1e20;" horiz-adv-x="2084" 
d="M1731 1408q-23 104 -78 201.5t-140.5 176t-200 124.5t-256.5 46q-217 0 -384.5 -113.5t-262 -323t-94.5 -495.5q0 -283 94 -493t263.5 -324.5t394.5 -114.5q201 0 356.5 93t242.5 266t85 414l44 -21h-696v116h774v-116q0 -271 -103.5 -466.5t-286 -300.5t-416.5 -105
q-264 0 -461 131t-305.5 367.5t-108.5 553.5q0 238 62 432t177 332.5t274 213t351 74.5q174 0 313 -57.5t240.5 -154t164.5 -215t85 -241.5h-128zM1418 2469v-109h-739v109h739z" />
    <glyph glyph-name="uniE002" unicode="&#xe002;" horiz-adv-x="2091" 
d="M1067 -28q-264 0 -461 131t-305.5 367.5t-108.5 553.5q0 238 62.5 432t178 332.5t275 213t351.5 74.5q174 0 313.5 -57.5t242 -154t166 -215t84.5 -241.5h-128q-22 104 -77.5 201.5t-141.5 176t-201.5 124.5t-257.5 46q-218 0 -386 -113.5t-263 -323t-95 -495.5
q0 -283 94 -492.5t263.5 -324.5t394.5 -115q203 0 360 94.5t245 268.5t85 414l30 -25h-688v116h781v-960h-112l-10 399h-9q-99 -208 -273.5 -317.5t-408.5 -109.5z" />
    <glyph glyph-name="uniE003" unicode="&#xe003;" horiz-adv-x="2091" 
d="M2025 581v-109h-926v109h926zM1067 -28q-264 0 -461 131t-305.5 367.5t-108.5 553.5q0 238 62.5 432t178 332.5t275 213t351.5 74.5q174 0 313.5 -57.5t242 -154t166 -215t84.5 -241.5h-128q-22 104 -77.5 201.5t-141.5 176t-201.5 124.5t-257.5 46q-218 0 -386 -113.5
t-263 -323t-95 -495.5q0 -283 94 -492.5t263.5 -324.5t394.5 -115q203 0 360 94.5t245 268.5t85 414l30 -25h-688v116h781v-960h-112l-10 399h-9q-99 -208 -273.5 -317.5t-408.5 -109.5z" />
    <glyph glyph-name="uniE004" unicode="&#xe004;" horiz-adv-x="2061" 
d="M1865 1408h-126l4 243q2 77 20.5 136t54 100t86.5 61.5t116 20.5q21 0 44.5 -1.5t44.5 -6.5v-109q-17 3 -35.5 5t-33.5 2q-51 0 -90.5 -20t-62 -66t-22.5 -125v-240zM1067 -28q-264 0 -461 131t-305.5 367.5t-108.5 553.5q0 238 62.5 432t178 332.5t275 213t351.5 74.5
q174 0 313.5 -57.5t242 -154t166 -215t84.5 -241.5h-128q-22 104 -77.5 201.5t-141.5 176t-201.5 124.5t-257.5 46q-218 0 -386 -113.5t-263 -323t-95 -495.5q0 -283 94 -492.5t263.5 -324.5t394.5 -115q203 0 360 94.5t245 268.5t85 414l30 -25h-688v116h781v-960h-112
l-10 399h-9q-99 -208 -273.5 -317.5t-408.5 -109.5z" />
    <glyph glyph-name="uniE005" unicode="&#xe005;" horiz-adv-x="2091" 
d="M1067 -28q-264 0 -461 131t-305.5 367.5t-108.5 553.5q0 238 62.5 432t178 332.5t275 213t351.5 74.5q174 0 313.5 -57.5t242 -154t166 -215t84.5 -241.5h-128q-22 104 -77.5 201.5t-141.5 176t-201.5 124.5t-257.5 46q-218 0 -386 -113.5t-263 -323t-95 -495.5
q0 -283 94 -492.5t263.5 -324.5t394.5 -115q203 0 360 94.5t245 268.5t85 414l30 -25h-688v116h781v-960h-112l-10 399h-9q-99 -208 -273.5 -317.5t-408.5 -109.5zM779 2216h-126v11l354 389h82l354 -389v-11h-126l-269 299z" />
    <glyph glyph-name="uniE006" unicode="&#xe006;" horiz-adv-x="2091" 
d="M1067 -28q-264 0 -461 131t-305.5 367.5t-108.5 553.5q0 238 62.5 432t178 332.5t275 213t351.5 74.5q174 0 313.5 -57.5t242 -154t166 -215t84.5 -241.5h-128q-22 104 -77.5 201.5t-141.5 176t-201.5 124.5t-257.5 46q-218 0 -386 -113.5t-263 -323t-95 -495.5
q0 -283 94 -492.5t263.5 -324.5t394.5 -115q203 0 360 94.5t245 268.5t85 414l30 -25h-688v116h781v-960h-112l-10 399h-9q-99 -208 -273.5 -317.5t-408.5 -109.5zM1220 2560h116q0 -125 -77 -200t-211 -75q-133 0 -210 75t-77 200h116q0 -79 42 -127t129 -48t129.5 48
t42.5 127z" />
    <glyph glyph-name="uniE007" unicode="&#xe007;" horiz-adv-x="2091" 
d="M1067 -28q-264 0 -461 131t-305.5 367.5t-108.5 553.5q0 238 62.5 432t178 332.5t275 213t351.5 74.5q174 0 313.5 -57.5t242 -154t166 -215t84.5 -241.5h-128q-22 104 -77.5 201.5t-141.5 176t-201.5 124.5t-257.5 46q-218 0 -386 -113.5t-263 -323t-95 -495.5
q0 -283 94 -492.5t263.5 -324.5t394.5 -115q203 0 360 94.5t245 268.5t85 414l30 -25h-688v116h781v-960h-112l-10 399h-9q-99 -208 -273.5 -317.5t-408.5 -109.5zM1048 2320q-41 0 -70 28t-29 68t29 68t70 28q40 0 69 -28t29 -68t-29 -68t-69 -28z" />
    <glyph glyph-name="uniE008" unicode="&#xe008;" horiz-adv-x="2091" 
d="M1067 -28q-264 0 -461 131t-305.5 367.5t-108.5 553.5q0 238 62.5 432t178 332.5t275 213t351.5 74.5q174 0 313.5 -57.5t242 -154t166 -215t84.5 -241.5h-128q-22 104 -77.5 201.5t-141.5 176t-201.5 124.5t-257.5 46q-218 0 -386 -113.5t-263 -323t-95 -495.5
q0 -283 94 -492.5t263.5 -324.5t394.5 -115q203 0 360 94.5t245 268.5t85 414l30 -25h-688v116h781v-960h-112l-10 399h-9q-99 -208 -273.5 -317.5t-408.5 -109.5zM856 -680l125 518h127l-156 -518h-96z" />
    <glyph glyph-name="uniE009" unicode="&#xe009;" horiz-adv-x="2091" 
d="M1067 -28q-264 0 -461 131t-305.5 367.5t-108.5 553.5q0 238 62.5 432t178 332.5t275 213t351.5 74.5q174 0 313.5 -57.5t242 -154t166 -215t84.5 -241.5h-128q-22 104 -77.5 201.5t-141.5 176t-201.5 124.5t-257.5 46q-218 0 -386 -113.5t-263 -323t-95 -495.5
q0 -283 94 -492.5t263.5 -324.5t394.5 -115q203 0 360 94.5t245 268.5t85 414l30 -25h-688v116h781v-960h-112l-10 399h-9q-99 -208 -273.5 -317.5t-408.5 -109.5zM779 2650l269 -298l269 298h126v-10l-354 -390h-82l-354 390v10h126z" />
    <glyph glyph-name="uniE00A" unicode="&#xe00a;" horiz-adv-x="2091" 
d="M1067 -28q-264 0 -461 131t-305.5 367.5t-108.5 553.5q0 238 62.5 432t178 332.5t275 213t351.5 74.5q174 0 313.5 -57.5t242 -154t166 -215t84.5 -241.5h-128q-22 104 -77.5 201.5t-141.5 176t-201.5 124.5t-257.5 46q-218 0 -386 -113.5t-263 -323t-95 -495.5
q0 -283 94 -492.5t263.5 -324.5t394.5 -115q203 0 360 94.5t245 268.5t85 414l30 -25h-688v116h781v-960h-112l-10 399h-9q-99 -208 -273.5 -317.5t-408.5 -109.5zM989 2267l268 442h145l-301 -442h-112z" />
    <glyph glyph-name="uniE00B" unicode="&#xe00b;" horiz-adv-x="2091" 
d="M1067 -28q-264 0 -461 131t-305.5 367.5t-108.5 553.5q0 238 62.5 432t178 332.5t275 213t351.5 74.5q174 0 313.5 -57.5t242 -154t166 -215t84.5 -241.5h-128q-22 104 -77.5 201.5t-141.5 176t-201.5 124.5t-257.5 46q-218 0 -386 -113.5t-263 -323t-95 -495.5
q0 -283 94 -492.5t263.5 -324.5t394.5 -115q203 0 360 94.5t245 268.5t85 414l30 -25h-688v116h781v-960h-112l-10 399h-9q-99 -208 -273.5 -317.5t-408.5 -109.5zM1418 2469v-109h-739v109h739z" />
    <glyph glyph-name="uni0048" unicode="H" horiz-adv-x="2076" 
d="M296 0v2048h125v-965h1234v965h125v-2048h-125v967h-1234v-967h-125z" />
    <glyph glyph-name="uni1E28" unicode="&#x1e28;" horiz-adv-x="2076" 
d="M296 0v2048h125v-965h1234v965h125v-2048h-125v967h-1234v-967h-125zM313 1h108l-15 -80q94 -15 151 -73.5t57 -159.5q0 -114 -81.5 -175t-238.5 -64l-4 95q106 2 158 35.5t53 105.5q-1 80 -55 118t-165 39z" />
    <glyph glyph-name="uni0124" unicode="&#x124;" horiz-adv-x="2076" 
d="M296 0v2048h125v-965h1234v965h125v-2048h-125v967h-1234v-967h-125zM772 2217h-126v11l354 389h82l354 -389v-11h-126l-269 299z" />
    <glyph glyph-name="uni021E" unicode="&#x21e;" horiz-adv-x="2076" 
d="M296 0v2048h125v-965h1234v965h125v-2048h-125v967h-1234v-967h-125zM772 2652l269 -298l269 298h126v-10l-354 -390h-82l-354 390v10h126z" />
    <glyph glyph-name="uni1E22" unicode="&#x1e22;" horiz-adv-x="2076" 
d="M296 0v2048h125v-965h1234v965h125v-2048h-125v967h-1234v-967h-125zM1042 2321q-41 0 -70 28t-29 68t29 68t70 28q40 0 69 -28t29 -68t-29 -68t-69 -28z" />
    <glyph glyph-name="uni1E24" unicode="&#x1e24;" horiz-adv-x="2076" 
d="M296 0v2048h125v-965h1234v965h125v-2048h-125v967h-1234v-967h-125zM1038 -473q-41 0 -70 28t-29 68t29 68t70 28q40 0 69 -28t29 -68t-29 -68t-69 -28z" />
    <glyph glyph-name="uni1E26" unicode="&#x1e26;" horiz-adv-x="2076" 
d="M296 0v2048h125v-965h1234v965h125v-2048h-125v967h-1234v-967h-125zM817 2321q-38 0 -67 29t-29 67q0 40 29 68t67 28q40 0 68 -28t28 -68q0 -38 -28 -67t-68 -29zM1265 2321q-38 0 -67 29t-29 67q0 40 29 68t67 28q40 0 68 -28t28 -68q0 -38 -28 -67t-68 -29z" />
    <glyph glyph-name="uni1E2A" unicode="&#x1e2a;" horiz-adv-x="2076" 
d="M296 0v2048h125v-965h1234v965h125v-2048h-125v967h-1234v-967h-125zM1201 -146h116q0 -83 -35 -145.5t-99 -96.5t-153 -34q-134 0 -211 76.5t-77 199.5h116q0 -79 42.5 -127.5t128.5 -48.5q87 0 129.5 49t42.5 127z" />
    <glyph glyph-name="uni0126" unicode="&#x126;" horiz-adv-x="2125" 
d="M1967 1528v-112h-1807v112h1807zM324 0v2048h125v-965h1234v965h125v-2048h-125v967h-1234v-967h-125z" />
    <glyph glyph-name="uni04C7" unicode="&#x4c7;" horiz-adv-x="2076" 
d="M1655 0h125v-209q0 -71 -14.5 -128.5t-42 -101.5t-66.5 -74t-88 -45t-106 -15q-27 0 -53 1.5t-45 7.5v111q15 -4 33.5 -6t40.5 -2q69 0 117 26.5t73.5 82t25.5 144.5v208zM296 0v2048h125v-965h1234v965h125v-2048h-125v967h-1234v-967h-125z" />
    <glyph glyph-name="uni04A2" unicode="&#x4a2;" horiz-adv-x="2115" 
d="M296 0v2048h125v-965h1234v965h125v-2048h-125v967h-1234v-967h-125zM1892 119v-618h-122v618h122z" />
    <glyph glyph-name="uni04C9" unicode="&#x4c9;" horiz-adv-x="2109" 
d="M296 0v2048h125v-965h1234v965h125v-2048h-125v967h-1234v-967h-125zM1901 89v-124q-1 -70 -13 -137.5t-35 -133.5t-55 -131l-106 28q26 64 45.5 125.5t31 123t11.5 124.5v125h121z" />
    <glyph glyph-name="uni04A4" unicode="&#x4a4;" horiz-adv-x="2739" 
d="M2579 2048v-116h-799v-1932h-125v967h-1234v-967h-125v2048h125v-965h1234v965h924z" />
    <glyph glyph-name="uni01F6" unicode="&#x1f6;" horiz-adv-x="3125" 
d="M2271 -31q-182 0 -321 70.5t-217 215t-78 366.5v346h-1234v-967h-125v2048h125v-965h1234v965h125v-1427q0 -271 128.5 -401.5t362.5 -131.5q235 -1 355.5 130.5t120.5 402.5v942h125v-942q0 -230 -77.5 -374t-213 -211t-310.5 -67z" />
    <glyph glyph-name="uni0397" unicode="&#x397;" horiz-adv-x="2076" 
d="M296 0v2048h125v-965h1234v965h125v-2048h-125v967h-1234v-967h-125z" />
    <glyph glyph-name="uni0389" unicode="&#x389;" horiz-adv-x="2308" 
d="M528 0v2048h125v-965h1234v965h125v-2048h-125v967h-1234v-967h-125zM228 1700l50 463h138l-101 -463h-87z" />
    <glyph glyph-name="uni1F28" unicode="&#x1f28;" horiz-adv-x="2492" 
d="M712 0v2048h125v-965h1234v965h125v-2048h-125v967h-1234v-967h-125zM517 2048v-72q0 -87 -20 -158t-64.5 -134t-119.5 -125l-66 42q56 66 87.5 123t44.5 119t13 141v64h125z" />
    <glyph glyph-name="uni1F29" unicode="&#x1f29;" horiz-adv-x="2483" 
d="M703 0v2048h125v-965h1234v965h125v-2048h-125v967h-1234v-967h-125zM297 1981v72h126v-64q0 -79 13 -140.5t44.5 -119t87.5 -122.5l-67 -43q-110 94 -157 190.5t-47 226.5z" />
    <glyph glyph-name="uni1F2A" unicode="&#x1f2a;" horiz-adv-x="3076" 
d="M1296 0v2048h125v-965h1234v965h125v-2048h-125v967h-1234v-967h-125zM962 1603v-19h-75l-294 443v21h141zM529 2048v-72q0 -87 -20.5 -158t-65 -134t-118.5 -125l-67 42q83 98 114 181t31 202v64h126z" />
    <glyph glyph-name="uni1F2B" unicode="&#x1f2b;" horiz-adv-x="2959" 
d="M1179 0v2048h125v-965h1234v965h125v-2048h-125v967h-1234v-967h-125zM755 1608v-19h-75l-295 443v21h143zM183 1981v72h125v-64q0 -119 31 -202t114 -180l-66 -43q-111 94 -157.5 190.5t-46.5 226.5z" />
    <glyph glyph-name="uni1F2C" unicode="&#x1f2c;" horiz-adv-x="2907" 
d="M1127 0v2048h125v-965h1234v965h125v-2048h-125v967h-1234v-967h-125zM505 1601l176 304l98 148l96 -12l-190 -306l-137 -146zM483 2053v-72q0 -86 -20.5 -157t-65 -134t-118.5 -126l-67 43q83 97 114 180t31 202v64h126z" />
    <glyph glyph-name="uni1F2D" unicode="&#x1f2d;" horiz-adv-x="2960" 
d="M1180 0v2048h125v-965h1234v965h125v-2048h-125v967h-1234v-967h-125zM533 1601l176 304l96 148l98 -12l-190 -306l-137 -146zM219 1981v72h125v-64q0 -119 31.5 -202t113.5 -180l-66 -43q-111 94 -157.5 190.5t-46.5 226.5z" />
    <glyph glyph-name="uni1F2E" unicode="&#x1f2e;" horiz-adv-x="2768" 
d="M988 0v2048h125v-965h1234v965h125v-2048h-125v967h-1234v-967h-125zM854 2323l79 -18q-7 -95 -61.5 -159t-144.5 -65q-52 0 -90 21.5t-69.5 50t-64.5 50t-76 21.5q-55 0 -88 -41t-40 -103l-78 16q6 96 61 161.5t148 65.5q52 0 89 -22t68.5 -50.5t64 -50t74.5 -21.5
q55 0 88 41t40 103zM633 2023v-67q0 -81 -28.5 -167.5t-107.5 -173.5l-71 37q59 90 77 162t18 146v63h112z" />
    <glyph glyph-name="uni1F2F" unicode="&#x1f2f;" horiz-adv-x="2764" 
d="M984 0v2048h125v-965h1234v965h125v-2048h-125v967h-1234v-967h-125zM523 1956v67h112v-63q0 -84 24 -156t72 -152l-72 -37q-70 77 -103 163.5t-33 177.5zM854 2323l79 -18q-7 -95 -61.5 -159t-144.5 -65q-52 0 -90 21.5t-69.5 50t-64.5 50t-76 21.5q-55 0 -88 -41
t-40 -103l-78 16q6 96 61 161.5t148 65.5q52 0 89 -22t68.5 -50.5t64 -50t74.5 -21.5q55 0 88 41t40 103z" />
    <glyph glyph-name="uni1FCA" unicode="&#x1fca;" horiz-adv-x="2648" 
d="M868 0v2048h125v-965h1234v965h125v-2048h-125v967h-1234v-967h-125zM593 1592l-42 -12l-138 147l-189 306l96 12l97 -148z" />
    <glyph glyph-name="uni1FCB" unicode="&#x1fcb;" horiz-adv-x="2536" 
d="M756 0v2048h125v-965h1234v965h125v-2048h-125v967h-1234v-967h-125zM397 1728v11l219 457h148v-12l-288 -456h-79z" />
    <glyph glyph-name="uni041D" unicode="&#x41d;" horiz-adv-x="2076" 
d="M296 0v2048h125v-965h1234v965h125v-2048h-125v967h-1234v-967h-125z" />
    <glyph glyph-name="uni1F98" unicode="&#x1f98;" horiz-adv-x="2368" 
d="M588 0v2048h125v-965h1234v965h125v-2048h-125v967h-1234v-967h-125zM1441 -627q-70 0 -117.5 49.5t-47.5 140.5v317h112v-316q0 -47 19.5 -72t48.5 -25q12 0 27.5 2t23.5 3l12 -88q-12 -4 -33.5 -7.5t-44.5 -3.5zM393 2048v-72q0 -87 -20 -158t-64.5 -134t-119.5 -125
l-66 42q56 66 87.5 123t44.5 119t13 141v64h125z" />
    <glyph glyph-name="uni1F99" unicode="&#x1f99;" horiz-adv-x="2483" 
d="M703 0v2048h125v-965h1234v965h125v-2048h-125v967h-1234v-967h-125zM1556 -627q-70 0 -117.5 49.5t-47.5 140.5v317h112v-316q0 -47 19.5 -72t48.5 -25q12 0 27.5 2t23.5 3l12 -88q-12 -4 -33.5 -7.5t-44.5 -3.5zM297 1981v72h126v-64q0 -79 13 -140.5t44.5 -119
t87.5 -122.5l-67 -43q-110 94 -157 190.5t-47 226.5z" />
    <glyph glyph-name="uni1F9A" unicode="&#x1f9a;" horiz-adv-x="3076" 
d="M1296 0v2048h125v-965h1234v965h125v-2048h-125v967h-1234v-967h-125zM2149 -627q-70 0 -117.5 49.5t-47.5 140.5v317h112v-316q0 -47 19.5 -72t48.5 -25q12 0 27.5 2t23.5 3l12 -88q-12 -4 -33.5 -7.5t-44.5 -3.5zM962 1603v-19h-75l-294 443v21h141zM529 2048v-72
q0 -87 -20.5 -158t-65 -134t-118.5 -125l-67 42q83 98 114 181t31 202v64h126z" />
    <glyph glyph-name="uni1F9B" unicode="&#x1f9b;" horiz-adv-x="2959" 
d="M1179 0v2048h125v-965h1234v965h125v-2048h-125v967h-1234v-967h-125zM2032 -627q-70 0 -117.5 49.5t-47.5 140.5v317h112v-316q0 -47 19.5 -72t48.5 -25q12 0 27.5 2t23.5 3l12 -88q-12 -4 -33.5 -7.5t-44.5 -3.5zM755 1608v-19h-75l-295 443v21h143zM183 1981v72h125
v-64q0 -119 31 -202t114 -180l-66 -43q-111 94 -157.5 190.5t-46.5 226.5z" />
    <glyph glyph-name="uni1F9C" unicode="&#x1f9c;" horiz-adv-x="2907" 
d="M1127 0v2048h125v-965h1234v965h125v-2048h-125v967h-1234v-967h-125zM1980 -627q-70 0 -117.5 49.5t-47.5 140.5v317h112v-316q0 -47 19.5 -72t48.5 -25q12 0 27.5 2t23.5 3l12 -88q-12 -4 -33.5 -7.5t-44.5 -3.5zM505 1601l176 304l98 148l96 -12l-190 -306l-137 -146z
M483 2053v-72q0 -86 -20.5 -157t-65 -134t-118.5 -126l-67 43q83 97 114 180t31 202v64h126z" />
    <glyph glyph-name="uni1F9D" unicode="&#x1f9d;" horiz-adv-x="2960" 
d="M1180 0v2048h125v-965h1234v965h125v-2048h-125v967h-1234v-967h-125zM2033 -627q-70 0 -117.5 49.5t-47.5 140.5v317h112v-316q0 -47 19.5 -72t48.5 -25q12 0 27.5 2t23.5 3l12 -88q-12 -4 -33.5 -7.5t-44.5 -3.5zM533 1601l176 304l96 148l98 -12l-190 -306l-137 -146z
M219 1981v72h125v-64q0 -119 31.5 -202t113.5 -180l-66 -43q-111 94 -157.5 190.5t-46.5 226.5z" />
    <glyph glyph-name="uni1F9E" unicode="&#x1f9e;" horiz-adv-x="2768" 
d="M988 0v2048h125v-965h1234v965h125v-2048h-125v967h-1234v-967h-125zM1841 -627q-70 0 -117.5 49.5t-47.5 140.5v317h112v-316q0 -47 19.5 -72t48.5 -25q12 0 27.5 2t23.5 3l12 -88q-12 -4 -33.5 -7.5t-44.5 -3.5zM854 2323l79 -18q-7 -95 -61.5 -159t-144.5 -65
q-52 0 -90 21.5t-69.5 50t-64.5 50t-76 21.5q-55 0 -88 -41t-40 -103l-78 16q6 96 61 161.5t148 65.5q52 0 89 -22t68.5 -50.5t64 -50t74.5 -21.5q55 0 88 41t40 103zM633 2023v-67q0 -81 -28.5 -167.5t-107.5 -173.5l-71 37q59 90 77 162t18 146v63h112z" />
    <glyph glyph-name="uni1F9F" unicode="&#x1f9f;" horiz-adv-x="2764" 
d="M984 0v2048h125v-965h1234v965h125v-2048h-125v967h-1234v-967h-125zM1837 -627q-70 0 -117.5 49.5t-47.5 140.5v317h112v-316q0 -47 19.5 -72t48.5 -25q12 0 27.5 2t23.5 3l12 -88q-12 -4 -33.5 -7.5t-44.5 -3.5zM523 1956v67h112v-63q0 -84 24 -156t72 -152l-72 -37
q-70 77 -103 163.5t-33 177.5zM854 2323l79 -18q-7 -95 -61.5 -159t-144.5 -65q-52 0 -90 21.5t-69.5 50t-64.5 50t-76 21.5q-55 0 -88 -41t-40 -103l-78 16q6 96 61 161.5t148 65.5q52 0 89 -22t68.5 -50.5t64 -50t74.5 -21.5q55 0 88 41t40 103z" />
    <glyph glyph-name="uni1FCC" unicode="&#x1fcc;" horiz-adv-x="2076" 
d="M296 0v2048h125v-965h1234v965h125v-2048h-125v967h-1234v-967h-125zM1146 -627q-70 0 -117.5 49.5t-47.5 140.5v317h112v-316q0 -47 19.5 -72t48.5 -25q12 0 27.5 2t23.5 3l12 -88q-12 -4 -33.5 -7.5t-44.5 -3.5z" />
    <glyph glyph-name="uni0049" unicode="I" horiz-adv-x="717" 
d="M421 2048v-2048h-125v2048h125z" />
    <glyph glyph-name="uni00CF" unicode="&#xcf;" horiz-adv-x="717" 
d="M421 2048v-2048h-125v2048h125zM135 2320q-38 0 -67 29t-29 67q0 40 29 68t67 28q40 0 68 -28t28 -68q0 -38 -28 -67t-68 -29zM583 2320q-38 0 -67 29t-29 67q0 40 29 68t67 28q40 0 68 -28t28 -68q0 -38 -28 -67t-68 -29z" />
    <glyph glyph-name="uni1E2E" unicode="&#x1e2e;" horiz-adv-x="717" 
d="M421 2048v-2048h-125v2048h125zM296 2576l254 272h154l-288 -272h-120zM134 2229q-38 0 -67 29t-29 67q0 41 29 68.5t67 27.5q41 0 68.5 -27.5t27.5 -68.5q0 -38 -27.5 -67t-68.5 -29zM582 2229q-38 0 -67 29t-29 67q0 41 29 68.5t67 27.5q41 0 68.5 -27.5t27.5 -68.5
q0 -38 -27.5 -67t-68.5 -29z" />
    <glyph glyph-name="uni0197" unicode="&#x197;" horiz-adv-x="717" 
d="M421 2048v-2048h-125v2048h125zM-41 1004v104h800v-104h-800z" />
    <glyph glyph-name="uni1E2C" unicode="&#x1e2c;" horiz-adv-x="717" 
d="M421 2048v-2048h-125v2048h125zM19 -424l-104 8q9 114 87.5 185.5t189.5 71.5q65 0 113 -23t89 -52.5t83.5 -53t97.5 -23.5q64 0 116 43.5t62 111.5l103 -16q-15 -113 -94.5 -181t-182.5 -68q-66 0 -111.5 23t-84.5 52.5t-82 53t-105 23.5q-71 0 -121 -44.5t-56 -110.5z
" />
    <glyph glyph-name="uni00CC" unicode="&#xcc;" horiz-adv-x="717" 
d="M421 2048v-2048h-125v2048h125zM305 2267l-301 442h145l268 -442h-112z" />
    <glyph glyph-name="uni00CD" unicode="&#xcd;" horiz-adv-x="717" 
d="M421 2048v-2048h-125v2048h125zM300 2267l268 442h145l-301 -442h-112z" />
    <glyph glyph-name="uni00CE" unicode="&#xce;" horiz-adv-x="717" 
d="M421 2048v-2048h-125v2048h125zM90 2216h-126v11l354 389h82l354 -389v-11h-126l-269 299z" />
    <glyph glyph-name="uni0128" unicode="&#x128;" horiz-adv-x="1072" 
d="M598 2048v-2048h-125v2048h125zM170 2288l-104 8q9 114 87.5 185.5t189.5 71.5q65 0 113 -23t89 -52.5t83.5 -53t97.5 -23.5q64 0 116 43.5t62 111.5l103 -16q-15 -113 -94.5 -181t-182.5 -68q-66 0 -111.5 23t-84.5 52.5t-82 53t-105 23.5q-71 0 -121 -44.5t-56 -110.5z
" />
    <glyph glyph-name="uni012A" unicode="&#x12a;" horiz-adv-x="717" 
d="M421 2048v-2048h-125v2048h125zM728 2469v-109h-739v109h739z" />
    <glyph glyph-name="uni012C" unicode="&#x12c;" horiz-adv-x="717" 
d="M421 2048v-2048h-125v2048h125zM531 2560h116q0 -125 -77 -200t-211 -75q-133 0 -210 75t-77 200h116q0 -79 42 -127t129 -48t129.5 48t42.5 127z" />
    <glyph glyph-name="uni012E" unicode="&#x12e;" horiz-adv-x="717" 
d="M421 2048v-2048h-125v2048h125zM327 -605q-110 0 -181 62t-71 182q0 73 30 139t90 127.5t148 122.5l78 -28q-98 -91 -161 -174.5t-63 -176.5q0 -73 39.5 -109t110.5 -36q44 0 77.5 12.5t64.5 34.5l31 -94q-40 -27 -86.5 -44.5t-106.5 -17.5z" />
    <glyph glyph-name="uni0130" unicode="&#x130;" horiz-adv-x="717" 
d="M421 2048v-2048h-125v2048h125zM359 2320q-41 0 -70 28t-29 68t29 68t70 28q40 0 69 -28t29 -68t-29 -68t-69 -28z" />
    <glyph glyph-name="uni01CF" unicode="&#x1cf;" horiz-adv-x="717" 
d="M421 2048v-2048h-125v2048h125zM90 2650l269 -298l269 298h126v-10l-354 -390h-82l-354 390v10h126z" />
    <glyph glyph-name="uni0208" unicode="&#x208;" horiz-adv-x="717" 
d="M421 2048v-2048h-125v2048h125zM173 2267l-321 442h153l280 -442h-112zM461 2267l-251 442h152l210 -442h-111z" />
    <glyph glyph-name="uni020A" unicode="&#x20a;" horiz-adv-x="717" 
d="M421 2048v-2048h-125v2048h125zM74 2374q0 124 77 200t211 76t210.5 -76t76.5 -200h-116q0 80 -42.5 128t-128.5 48q-88 0 -130 -48.5t-42 -127.5h-116z" />
    <glyph glyph-name="uni1EC8" unicode="&#x1ec8;" horiz-adv-x="717" 
d="M421 2048v-2048h-125v2048h125zM414 2248h-108v201q111 7 156.5 37.5t44.5 98.5q-1 80 -61 116t-172 36l9 94q172 -1 255.5 -67.5t84.5 -175.5q1 -97 -59.5 -151t-149.5 -64v-125z" />
    <glyph glyph-name="uni1ECA" unicode="&#x1eca;" horiz-adv-x="717" 
d="M421 2048v-2048h-125v2048h125zM359 -473q-41 0 -70 28t-29 68t29 68t70 28q40 0 69 -28t29 -68t-29 -68t-69 -28z" />
    <glyph glyph-name="uni0399" unicode="&#x399;" horiz-adv-x="717" 
d="M421 2048v-2048h-125v2048h125z" />
    <glyph glyph-name="uni038A" unicode="&#x38a;" horiz-adv-x="705" 
d="M408 2048v-2048h-125v2048h125zM20 1700l50 463h138l-101 -463h-87z" />
    <glyph glyph-name="uni03AA" unicode="&#x3aa;" horiz-adv-x="717" 
d="M421 2048v-2048h-125v2048h125zM135 2320q-38 0 -67 29t-29 67q0 40 29 68t67 28q40 0 68 -28t28 -68q0 -38 -28 -67t-68 -29zM583 2320q-38 0 -67 29t-29 67q0 40 29 68t67 28q40 0 68 -28t28 -68q0 -38 -28 -67t-68 -29z" />
    <glyph glyph-name="uni1F38" unicode="&#x1f38;" horiz-adv-x="1085" 
d="M789 2048v-2048h-125v2048h125zM517 2048v-72q0 -87 -20 -158t-64.5 -134t-119.5 -125l-66 42q56 66 87.5 123t44.5 119t13 141v64h125z" />
    <glyph glyph-name="uni1F39" unicode="&#x1f39;" horiz-adv-x="1076" 
d="M780 2048v-2048h-125v2048h125zM297 1981v72h126v-64q0 -79 13 -140.5t44.5 -119t87.5 -122.5l-67 -43q-110 94 -157 190.5t-47 226.5z" />
    <glyph glyph-name="uni1F3A" unicode="&#x1f3a;" horiz-adv-x="1671" 
d="M1373 2048v-2048h-125v2048h125zM962 1603v-19h-75l-294 443v21h141zM529 2048v-72q0 -87 -20.5 -158t-65 -134t-118.5 -125l-67 42q83 98 114 181t31 202v64h126z" />
    <glyph glyph-name="uni1F3B" unicode="&#x1f3b;" horiz-adv-x="1552" 
d="M1256 2048v-2048h-125v2048h125zM755 1608v-19h-75l-295 443v21h143zM183 1981v72h125v-64q0 -119 31 -202t114 -180l-66 -43q-111 94 -157.5 190.5t-46.5 226.5z" />
    <glyph glyph-name="uni1F3C" unicode="&#x1f3c;" horiz-adv-x="1500" 
d="M1204 2048v-2048h-125v2048h125zM505 1601l176 304l98 148l96 -12l-190 -306l-137 -146zM483 2053v-72q0 -86 -20.5 -157t-65 -134t-118.5 -126l-67 43q83 97 114 180t31 202v64h126z" />
    <glyph glyph-name="uni1F3D" unicode="&#x1f3d;" horiz-adv-x="1555" 
d="M1257 2048v-2048h-125v2048h125zM533 1601l176 304l96 148l98 -12l-190 -306l-137 -146zM219 1981v72h125v-64q0 -119 31.5 -202t113.5 -180l-66 -43q-111 94 -157.5 190.5t-46.5 226.5z" />
    <glyph glyph-name="uni1F3E" unicode="&#x1f3e;" horiz-adv-x="1363" 
d="M1065 2048v-2048h-125v2048h125zM854 2323l79 -18q-7 -95 -61.5 -159t-144.5 -65q-52 0 -90 21.5t-69.5 50t-64.5 50t-76 21.5q-55 0 -88 -41t-40 -103l-78 16q6 96 61 161.5t148 65.5q52 0 89 -22t68.5 -50.5t64 -50t74.5 -21.5q55 0 88 41t40 103zM633 2023v-67
q0 -81 -28.5 -167.5t-107.5 -173.5l-71 37q59 90 77 162t18 146v63h112z" />
    <glyph glyph-name="uni1F3F" unicode="&#x1f3f;" horiz-adv-x="1357" 
d="M1061 2048v-2048h-125v2048h125zM523 1956v67h112v-63q0 -84 24 -156t72 -152l-72 -37q-70 77 -103 163.5t-33 177.5zM854 2323l79 -18q-7 -95 -61.5 -159t-144.5 -65q-52 0 -90 21.5t-69.5 50t-64.5 50t-76 21.5q-55 0 -88 -41t-40 -103l-78 16q6 96 61 161.5t148 65.5
q52 0 89 -22t68.5 -50.5t64 -50t74.5 -21.5q55 0 88 41t40 103z" />
    <glyph glyph-name="uni1FD8" unicode="&#x1fd8;" horiz-adv-x="717" 
d="M421 2048v-2048h-125v2048h125zM531 2560h116q0 -125 -77 -200t-211 -75q-133 0 -210 75t-77 200h116q0 -79 42 -127t129 -48t129.5 48t42.5 127z" />
    <glyph glyph-name="uni1FD9" unicode="&#x1fd9;" horiz-adv-x="717" 
d="M421 2048v-2048h-125v2048h125zM728 2469v-109h-739v109h739z" />
    <glyph glyph-name="uni1FDA" unicode="&#x1fda;" horiz-adv-x="1243" 
d="M945 2048v-2048h-125v2048h125zM593 1592l-42 -12l-138 147l-189 306l96 12l97 -148z" />
    <glyph glyph-name="uni1FDB" unicode="&#x1fdb;" horiz-adv-x="1131" 
d="M833 2048v-2048h-125v2048h125zM370 1728v11l219 457h148v-12l-288 -456h-79z" />
    <glyph glyph-name="uni0406" unicode="&#x406;" horiz-adv-x="717" 
d="M421 2048v-2048h-125v2048h125z" />
    <glyph glyph-name="uni0407" unicode="&#x407;" horiz-adv-x="717" 
d="M421 2048v-2048h-125v2048h125zM135 2320q-38 0 -67 29t-29 67q0 40 29 68t67 28q40 0 68 -28t28 -68q0 -38 -28 -67t-68 -29zM583 2320q-38 0 -67 29t-29 67q0 40 29 68t67 28q40 0 68 -28t28 -68q0 -38 -28 -67t-68 -29z" />
    <glyph glyph-name="uniE00C" unicode="&#xe00c;" horiz-adv-x="1072" 
d="M160 1932v116h752v-116h-752zM160 0v116h752v-116h-752zM599 2048v-2048h-126v2048h126z" />
    <glyph glyph-name="uniE00D" unicode="&#xe00d;" horiz-adv-x="1072" 
d="M160 1932v116h752v-116h-752zM160 0v116h752v-116h-752zM599 2048v-2048h-126v2048h126zM312 2320q-38 0 -67 29t-29 67q0 40 29 68t67 28q40 0 68 -28t28 -68q0 -38 -28 -67t-68 -29zM760 2320q-38 0 -67 29t-29 67q0 40 29 68t67 28q40 0 68 -28t28 -68q0 -38 -28 -67
t-68 -29z" />
    <glyph glyph-name="uniE00E" unicode="&#xe00e;" horiz-adv-x="1072" 
d="M160 1932v116h752v-116h-752zM160 0v116h752v-116h-752zM599 2048v-2048h-126v2048h126zM474 2576l254 272h154l-288 -272h-120zM312 2229q-38 0 -67 29t-29 67q0 41 29 68.5t67 27.5q41 0 68.5 -27.5t27.5 -68.5q0 -38 -27.5 -67t-68.5 -29zM760 2229q-38 0 -67 29
t-29 67q0 41 29 68.5t67 27.5q41 0 68.5 -27.5t27.5 -68.5q0 -38 -27.5 -67t-68.5 -29z" />
    <glyph glyph-name="uniE00F" unicode="&#xe00f;" horiz-adv-x="1072" 
d="M160 1932v116h752v-116h-752zM160 0v116h752v-116h-752zM599 2048v-2048h-126v2048h126zM136 1004v104h800v-104h-800z" />
    <glyph glyph-name="uniE010" unicode="&#xe010;" horiz-adv-x="1072" 
d="M160 1932v116h752v-116h-752zM160 0v116h752v-116h-752zM599 2048v-2048h-126v2048h126zM196 -424l-104 8q9 114 87.5 185.5t189.5 71.5q65 0 113 -23t89 -52.5t83.5 -53t97.5 -23.5q64 0 116 43.5t62 111.5l103 -16q-15 -113 -94.5 -181t-182.5 -68q-66 0 -111.5 23
t-84.5 52.5t-82 53t-105 23.5q-71 0 -121 -44.5t-56 -110.5z" />
    <glyph glyph-name="uniE011" unicode="&#xe011;" horiz-adv-x="1072" 
d="M160 1932v116h752v-116h-752zM160 0v116h752v-116h-752zM599 2048v-2048h-126v2048h126zM482 2267l-301 442h145l268 -442h-112z" />
    <glyph glyph-name="uniE012" unicode="&#xe012;" horiz-adv-x="1072" 
d="M160 1932v116h752v-116h-752zM160 0v116h752v-116h-752zM599 2048v-2048h-126v2048h126zM477 2267l268 442h145l-301 -442h-112z" />
    <glyph glyph-name="uniE013" unicode="&#xe013;" horiz-adv-x="1072" 
d="M160 1932v116h752v-116h-752zM160 0v116h752v-116h-752zM599 2048v-2048h-126v2048h126zM267 2216h-126v11l354 389h82l354 -389v-11h-126l-269 299z" />
    <glyph glyph-name="uniE014" unicode="&#xe014;" horiz-adv-x="1072" 
d="M160 1932v116h752v-116h-752zM160 0v116h752v-116h-752zM599 2048v-2048h-126v2048h126zM170 2288l-104 8q9 114 87.5 185.5t189.5 71.5q65 0 113 -23t89 -52.5t83.5 -53t97.5 -23.5q64 0 116 43.5t62 111.5l103 -16q-15 -113 -94.5 -181t-182.5 -68q-66 0 -111.5 23
t-84.5 52.5t-82 53t-105 23.5q-71 0 -121 -44.5t-56 -110.5z" />
    <glyph glyph-name="uniE015" unicode="&#xe015;" horiz-adv-x="1072" 
d="M160 1932v116h752v-116h-752zM160 0v116h752v-116h-752zM599 2048v-2048h-126v2048h126zM906 2469v-109h-739v109h739z" />
    <glyph glyph-name="uniE016" unicode="&#xe016;" horiz-adv-x="1072" 
d="M160 1932v116h752v-116h-752zM160 0v116h752v-116h-752zM599 2048v-2048h-126v2048h126zM708 2560h116q0 -125 -77 -200t-211 -75q-133 0 -210 75t-77 200h116q0 -79 42 -127t129 -48t129.5 48t42.5 127z" />
    <glyph glyph-name="uniE017" unicode="&#xe017;" horiz-adv-x="1072" 
d="M160 1932v116h752v-116h-752zM160 0v116h752v-116h-752zM599 2048v-2048h-126v2048h126zM818 -605q-110 0 -181 62t-71 182q0 73 30 139t90 127.5t148 122.5l78 -28q-98 -91 -161 -174.5t-63 -176.5q0 -73 39.5 -109t110.5 -36q44 0 77.5 12.5t64.5 34.5l31 -94
q-40 -27 -86.5 -44.5t-106.5 -17.5z" />
    <glyph glyph-name="uniE018" unicode="&#xe018;" horiz-adv-x="1072" 
d="M160 1932v116h752v-116h-752zM160 0v116h752v-116h-752zM599 2048v-2048h-126v2048h126zM536 2320q-41 0 -70 28t-29 68t29 68t70 28q40 0 69 -28t29 -68t-29 -68t-69 -28z" />
    <glyph glyph-name="uniE019" unicode="&#xe019;" horiz-adv-x="1072" 
d="M160 1932v116h752v-116h-752zM160 0v116h752v-116h-752zM599 2048v-2048h-126v2048h126zM267 2650l269 -298l269 298h126v-10l-354 -390h-82l-354 390v10h126z" />
    <glyph glyph-name="uniE01A" unicode="&#xe01a;" horiz-adv-x="1072" 
d="M160 1932v116h752v-116h-752zM160 0v116h752v-116h-752zM599 2048v-2048h-126v2048h126zM350 2267l-321 442h153l280 -442h-112zM638 2267l-251 442h152l210 -442h-111z" />
    <glyph glyph-name="uniE01B" unicode="&#xe01b;" horiz-adv-x="1072" 
d="M160 1932v116h752v-116h-752zM160 0v116h752v-116h-752zM599 2048v-2048h-126v2048h126zM252 2374q0 124 77 200t211 76t210.5 -76t76.5 -200h-116q0 80 -42.5 128t-128.5 48q-88 0 -130 -48.5t-42 -127.5h-116z" />
    <glyph glyph-name="uniE01C" unicode="&#xe01c;" horiz-adv-x="1072" 
d="M160 1932v116h752v-116h-752zM160 0v116h752v-116h-752zM599 2048v-2048h-126v2048h126zM591 2248h-108v201q111 7 156.5 37.5t44.5 98.5q-1 80 -61 116t-172 36l9 94q172 -1 255.5 -67.5t84.5 -175.5q1 -97 -59.5 -151t-149.5 -64v-125z" />
    <glyph glyph-name="uniE01D" unicode="&#xe01d;" horiz-adv-x="1072" 
d="M160 1932v116h752v-116h-752zM160 0v116h752v-116h-752zM599 2048v-2048h-126v2048h126zM536 -473q-41 0 -70 28t-29 68t29 68t70 28q40 0 69 -28t29 -68t-29 -68t-69 -28z" />
    <glyph glyph-name="uniE01E" unicode="&#xe01e;" horiz-adv-x="1507" 
d="M595 1932v116h752v-116h-752zM595 0v116h752v-116h-752zM1034 2048v-2048h-126v2048h126zM450 2048v-72q0 -87 -20 -158t-64.5 -134t-119.5 -125l-66 42q56 66 87.5 123t44.5 119t13 141v64h125z" />
    <glyph glyph-name="uniE01F" unicode="&#xe01f;" horiz-adv-x="1500" 
d="M588 1932v116h752v-116h-752zM588 0v116h752v-116h-752zM1027 2048v-2048h-126v2048h126zM233 1981v72h126v-64q0 -79 13 -140.5t44.5 -119t87.5 -122.5l-67 -43q-110 94 -157 190.5t-47 226.5z" />
    <glyph glyph-name="uniE020" unicode="&#xe020;" horiz-adv-x="2096" 
d="M1184 1932v116h752v-116h-752zM1184 0v116h752v-116h-752zM1623 2048v-2048h-126v2048h126zM901 1603v-19h-75l-294 443v21h141zM468 2048v-72q0 -87 -20.5 -158t-65 -134t-118.5 -125l-67 42q83 98 114 181t31 202v64h126z" />
    <glyph glyph-name="uniE021" unicode="&#xe021;" horiz-adv-x="1976" 
d="M1064 1932v116h752v-116h-752zM1064 0v116h752v-116h-752zM1503 2048v-2048h-126v2048h126zM689 1608v-19h-75l-295 443v21h143zM117 1981v72h125v-64q0 -119 31 -202t114 -180l-66 -43q-111 94 -157.5 190.5t-46.5 226.5z" />
    <glyph glyph-name="uniE022" unicode="&#xe022;" horiz-adv-x="1927" 
d="M1015 1932v116h752v-116h-752zM1015 0v116h752v-116h-752zM1454 2048v-2048h-126v2048h126zM443 1601l176 304l98 148l96 -12l-190 -306l-137 -146zM421 2053v-72q0 -86 -20.5 -157t-65 -134t-118.5 -126l-67 43q83 97 114 180t31 202v64h126z" />
    <glyph glyph-name="uniE023" unicode="&#xe023;" horiz-adv-x="1980" 
d="M1068 1932v116h752v-116h-752zM1068 0v116h752v-116h-752zM1507 2048v-2048h-126v2048h126zM471 1601l176 304l96 148l98 -12l-190 -306l-137 -146zM157 1981v72h125v-64q0 -119 31.5 -202t113.5 -180l-66 -43q-111 94 -157.5 190.5t-46.5 226.5z" />
    <glyph glyph-name="uniE024" unicode="&#xe024;" horiz-adv-x="1785" 
d="M873 1932v116h752v-116h-752zM873 0v116h752v-116h-752zM1312 2048v-2048h-126v2048h126zM790 2323l79 -18q-7 -95 -61.5 -159t-144.5 -65q-52 0 -90 21.5t-69.5 50t-64.5 50t-76 21.5q-55 0 -88 -41t-40 -103l-78 16q6 96 61 161.5t148 65.5q52 0 89 -22t68.5 -50.5
t64 -50t74.5 -21.5q55 0 88 41t40 103zM569 2023v-67q0 -81 -28.5 -167.5t-107.5 -173.5l-71 37q59 90 77 162t18 146v63h112z" />
    <glyph glyph-name="uniE025" unicode="&#xe025;" horiz-adv-x="1779" 
d="M867 1932v116h752v-116h-752zM867 0v116h752v-116h-752zM1306 2048v-2048h-126v2048h126zM459 1956v67h112v-63q0 -84 24 -156t72 -152l-72 -37q-70 77 -103 163.5t-33 177.5zM790 2323l79 -18q-7 -95 -61.5 -159t-144.5 -65q-52 0 -90 21.5t-69.5 50t-64.5 50t-76 21.5
q-55 0 -88 -41t-40 -103l-78 16q6 96 61 161.5t148 65.5q52 0 89 -22t68.5 -50.5t64 -50t74.5 -21.5q55 0 88 41t40 103z" />
    <glyph glyph-name="uniE026" unicode="&#xe026;" horiz-adv-x="1072" 
d="M160 1932v116h752v-116h-752zM160 0v116h752v-116h-752zM599 2048v-2048h-126v2048h126zM708 2560h116q0 -125 -77 -200t-211 -75q-133 0 -210 75t-77 200h116q0 -79 42 -127t129 -48t129.5 48t42.5 127z" />
    <glyph glyph-name="uniE027" unicode="&#xe027;" horiz-adv-x="1072" 
d="M160 1932v116h752v-116h-752zM160 0v116h752v-116h-752zM599 2048v-2048h-126v2048h126zM906 2469v-109h-739v109h739z" />
    <glyph glyph-name="uniE028" unicode="&#xe028;" horiz-adv-x="1668" 
d="M756 1932v116h752v-116h-752zM756 0v116h752v-116h-752zM1195 2048v-2048h-126v2048h126zM662 1592l-42 -12l-138 147l-189 306l96 12l97 -148z" />
    <glyph glyph-name="uniE029" unicode="&#xe029;" horiz-adv-x="1556" 
d="M644 1932v116h752v-116h-752zM644 0v116h752v-116h-752zM1083 2048v-2048h-126v2048h126zM306 1728v11l219 457h148v-12l-288 -456h-79z" />
    <glyph glyph-name="uniE02A" unicode="&#xe02a;" horiz-adv-x="1072" 
d="M160 1932v116h752v-116h-752zM160 0v116h752v-116h-752zM599 2048v-2048h-126v2048h126z" />
    <glyph glyph-name="uniE02B" unicode="&#xe02b;" horiz-adv-x="1072" 
d="M160 1932v116h752v-116h-752zM160 0v116h752v-116h-752zM599 2048v-2048h-126v2048h126zM312 2320q-38 0 -67 29t-29 67q0 40 29 68t67 28q40 0 68 -28t28 -68q0 -38 -28 -67t-68 -29zM760 2320q-38 0 -67 29t-29 67q0 40 29 68t67 28q40 0 68 -28t28 -68q0 -38 -28 -67
t-68 -29z" />
    <glyph glyph-name="uni004A" unicode="J" horiz-adv-x="1485" 
d="M1064 2048h125v-1491q0 -204 -70.5 -333t-189 -190.5t-265.5 -61.5q-150 0 -268.5 56.5t-187.5 156.5t-68 231h124q-1 -96 51.5 -169.5t143.5 -116t205 -42.5q110 0 201 47t144.5 150t54.5 272v1491z" />
    <glyph glyph-name="uni0134" unicode="&#x134;" horiz-adv-x="1485" 
d="M1064 2048h125v-1491q0 -204 -70.5 -333t-189 -190.5t-265.5 -61.5q-150 0 -268.5 56.5t-187.5 156.5t-68 231h124q-1 -96 51.5 -169.5t143.5 -116t205 -42.5q110 0 201 47t144.5 150t54.5 272v1491zM858 2216h-126v11l354 389h82l354 -389v-11h-126l-269 299z" />
    <glyph glyph-name="uni0248" unicode="&#x248;" horiz-adv-x="1485" 
d="M1064 2048h125v-1491q0 -204 -70.5 -333t-189 -190.5t-265.5 -61.5q-150 0 -268.5 56.5t-187.5 156.5t-68 231h124q-1 -96 51.5 -169.5t143.5 -116t205 -42.5q110 0 201 47t144.5 150t54.5 272v1491zM727 1164v104h800v-104h-800z" />
    <glyph glyph-name="uni037F" unicode="&#x37f;" horiz-adv-x="1485" 
d="M1064 2048h125v-1491q0 -204 -70.5 -333t-189 -190.5t-265.5 -61.5q-150 0 -268.5 56.5t-187.5 156.5t-68 231h124q-1 -96 51.5 -169.5t143.5 -116t205 -42.5q110 0 201 47t144.5 150t54.5 272v1491z" />
    <glyph glyph-name="uni0408" unicode="&#x408;" horiz-adv-x="1485" 
d="M1064 2048h125v-1491q0 -204 -70.5 -333t-189 -190.5t-265.5 -61.5q-150 0 -268.5 56.5t-187.5 156.5t-68 231h124q-1 -96 51.5 -169.5t143.5 -116t205 -42.5q110 0 201 47t144.5 150t54.5 272v1491z" />
    <glyph glyph-name="uni004B" unicode="K" horiz-adv-x="1769" 
d="M296 0v2048h125v-1189h14l1080 1189h166l-889 -969l881 -1079h-156l-805 989l-291 -322v-667h-125z" />
    <glyph glyph-name="uni0136" unicode="&#x136;" horiz-adv-x="1769" 
d="M296 0v2048h125v-1189h14l1080 1189h166l-889 -969l881 -1079h-156l-805 989l-291 -322v-667h-125zM697 -680l125 518h127l-156 -518h-96z" />
    <glyph glyph-name="uni01E8" unicode="&#x1e8;" horiz-adv-x="1769" 
d="M296 0v2048h125v-1189h14l1080 1189h166l-889 -969l881 -1079h-156l-805 989l-291 -322v-667h-125zM624 2650l269 -298l269 298h126v-10l-354 -390h-82l-354 390v10h126z" />
    <glyph glyph-name="uni1E30" unicode="&#x1e30;" horiz-adv-x="1769" 
d="M296 0v2048h125v-1189h14l1080 1189h166l-889 -969l881 -1079h-156l-805 989l-291 -322v-667h-125zM835 2267l268 442h145l-301 -442h-112z" />
    <glyph glyph-name="uni1E32" unicode="&#x1e32;" horiz-adv-x="1769" 
d="M296 0v2048h125v-1189h14l1080 1189h166l-889 -969l881 -1079h-156l-805 989l-291 -322v-667h-125zM888 -473q-41 0 -70 28t-29 68t29 68t70 28q40 0 69 -28t29 -68t-29 -68t-69 -28z" />
    <glyph glyph-name="uni1E34" unicode="&#x1e34;" horiz-adv-x="1769" 
d="M296 0v2048h125v-1189h14l1080 1189h166l-889 -969l881 -1079h-156l-805 989l-291 -322v-667h-125zM1258 -276v-109h-739v109h739z" />
    <glyph glyph-name="uni04A0" unicode="&#x4a0;" horiz-adv-x="1907" 
d="M1715 0l-707 992h-339v-992h-125v1932h-533v116h658v-941h263l689 941h150l-691 -945l785 -1103h-150z" />
    <glyph glyph-name="uni049A" unicode="&#x49a;" horiz-adv-x="1855" 
d="M1462 0l-707 992h-339v-992h-125v2048h125v-941h263l689 941h150l-691 -945l785 -1103h-150zM1632 175v-618h-122v618h122z" />
    <glyph glyph-name="uni0198" unicode="&#x198;" horiz-adv-x="1860" 
d="M296 0v2048h125v-1189h14l985 1085q59 69 134.5 97t150 16.5t131.5 -62.5l-63 -90q-68 48 -135 36.5t-134 -85.5l-712 -777l948 -1079h-159l-869 989l-291 -322v-667h-125z" />
    <glyph glyph-name="uni039A" unicode="&#x39a;" horiz-adv-x="1769" 
d="M296 0v2048h125v-1189h14l1080 1189h166l-889 -969l881 -1079h-156l-805 989l-291 -322v-667h-125z" />
    <glyph glyph-name="uni004C" unicode="L" horiz-adv-x="1584" 
d="M296 0v2048h125v-1932h1000v-116h-1125z" />
    <glyph glyph-name="uni0139" unicode="&#x139;" horiz-adv-x="1584" 
d="M296 0v2048h125v-1932h1000v-116h-1125zM300 2267l268 442h145l-301 -442h-112z" />
    <glyph glyph-name="uni013B" unicode="&#x13b;" horiz-adv-x="1584" 
d="M296 0v2048h125v-1932h1000v-116h-1125zM668 -680l125 518h127l-156 -518h-96z" />
    <glyph glyph-name="uni013D" unicode="&#x13d;" horiz-adv-x="1575" 
d="M296 0v2048h125v-1932h1000v-116h-1125zM826 1626v518h128l-36 -518h-92z" />
    <glyph glyph-name="uni1E36" unicode="&#x1e36;" horiz-adv-x="1584" 
d="M296 0v2048h125v-1932h1000v-116h-1125zM859 -473q-41 0 -70 28t-29 68t29 68t70 28q40 0 69 -28t29 -68t-29 -68t-69 -28z" />
    <glyph glyph-name="uni1E38" unicode="&#x1e38;" horiz-adv-x="1584" 
d="M296 0v2048h125v-1932h1000v-116h-1125zM859 -473q-41 0 -70 28t-29 68t29 68t70 28q40 0 69 -28t29 -68t-29 -68t-69 -28zM728 2469v-109h-739v109h739z" />
    <glyph glyph-name="uni1E3A" unicode="&#x1e3a;" horiz-adv-x="1584" 
d="M296 0v2048h125v-1932h1000v-116h-1125zM1229 -276v-109h-739v109h739z" />
    <glyph glyph-name="uni1E3C" unicode="&#x1e3c;" horiz-adv-x="1584" 
d="M296 0v2048h125v-1932h1000v-116h-1125zM590 -549h-126v11l354 389h82l354 -389v-11h-126l-269 299z" />
    <glyph glyph-name="uni0141" unicode="&#x141;" horiz-adv-x="1541" 
d="M755 1216v-104l-735 -256v107zM237 0v2048h126v-1932h1000v-116h-1126z" />
    <glyph glyph-name="uni023D" unicode="&#x23d;" horiz-adv-x="1584" 
d="M296 0v2048h125v-1932h1000v-116h-1125zM-41 1004v104h800v-104h-800z" />
    <glyph glyph-name="uni01C8" unicode="&#x1c8;" horiz-adv-x="2223" 
d="M296 0v2048h125v-1932h1000v-116h-1125zM1843 1536h121v-1723q0 -119 -49 -206.5t-134.5 -135t-197.5 -47.5q-8 0 -17 0.5t-21 2.5l6 113h15h15q112 0 187 72.5t75 200.5v1723zM1903 1808q-41 0 -70 28t-29 68t29 68t70 28q40 0 69 -28t29 -68t-29 -68t-69 -28z" />
    <glyph glyph-name="uni004D" unicode="M" horiz-adv-x="2456" 
d="M296 2048h136l789 -1868h14l789 1868h136v-2048h-120v1751h-12l-741 -1751h-118l-741 1751h-12v-1751h-120v2048z" />
    <glyph glyph-name="uni1E3E" unicode="&#x1e3e;" horiz-adv-x="2456" 
d="M296 2048h136l789 -1868h14l789 1868h136v-2048h-120v1751h-12l-741 -1751h-118l-741 1751h-12v-1751h-120v2048zM1169 2267l268 442h145l-301 -442h-112z" />
    <glyph glyph-name="uni1E40" unicode="&#x1e40;" horiz-adv-x="2456" 
d="M296 2048h136l789 -1868h14l789 1868h136v-2048h-120v1751h-12l-741 -1751h-118l-741 1751h-12v-1751h-120v2048zM1228 2320q-41 0 -70 28t-29 68t29 68t70 28q40 0 69 -28t29 -68t-29 -68t-69 -28z" />
    <glyph glyph-name="uni1E42" unicode="&#x1e42;" horiz-adv-x="2456" 
d="M296 2048h136l789 -1868h14l789 1868h136v-2048h-120v1751h-12l-741 -1751h-118l-741 1751h-12v-1751h-120v2048zM1228 -473q-41 0 -70 28t-29 68t29 68t70 28q40 0 69 -28t29 -68t-29 -68t-69 -28z" />
    <glyph glyph-name="uni04CD" unicode="&#x4cd;" horiz-adv-x="2456" 
d="M296 2048h136l789 -1868h14l789 1868h136v-2048h-120v1751h-12l-741 -1751h-118l-741 1751h-12v-1751h-120v2048zM2281 89v-124q-1 -70 -13 -137.5t-35 -133.5t-55 -131l-106 28q26 64 45.5 125.5t31 123t11.5 124.5v125h121z" />
    <glyph glyph-name="uni039C" unicode="&#x39c;" horiz-adv-x="2456" 
d="M296 2048h136l789 -1868h14l789 1868h136v-2048h-120v1751h-12l-741 -1751h-118l-741 1751h-12v-1751h-120v2048z" />
    <glyph glyph-name="uni03FA" unicode="&#x3fa;" horiz-adv-x="2456" 
d="M296 2048h136l789 -1868h14l789 1868h136v-2048h-120v1751h-12l-741 -1751h-118l-741 1751h-12v-1751h-120v2048z" />
    <glyph glyph-name="uni041C" unicode="&#x41c;" horiz-adv-x="2456" 
d="M296 2048h136l789 -1868h14l789 1868h136v-2048h-120v1751h-12l-741 -1751h-118l-741 1751h-12v-1751h-120v2048z" />
    <glyph glyph-name="uni004E" unicode="N" horiz-adv-x="2157" 
d="M1861 2048v-2048h-122l-1306 1821h-12v-1821h-125v2048h123l1306 -1823h12v1823h124z" />
    <glyph glyph-name="uni00D1" unicode="&#xd1;" horiz-adv-x="2157" 
d="M1861 2048v-2048h-122l-1306 1821h-12v-1821h-125v2048h123l1306 -1823h12v1823h124zM712 2288l-104 8q9 114 87.5 185.5t189.5 71.5q65 0 113 -23t89 -52.5t83.5 -53t97.5 -23.5q64 0 116 43.5t62 111.5l103 -16q-15 -113 -94.5 -181t-182.5 -68q-66 0 -111.5 23
t-84.5 52.5t-82 53t-105 23.5q-71 0 -121 -44.5t-56 -110.5z" />
    <glyph glyph-name="uni0143" unicode="&#x143;" horiz-adv-x="2157" 
d="M1861 2048v-2048h-122l-1306 1821h-12v-1821h-125v2048h123l1306 -1823h12v1823h124zM1020 2267l268 442h145l-301 -442h-112z" />
    <glyph glyph-name="uni0145" unicode="&#x145;" horiz-adv-x="2157" 
d="M1861 2048v-2048h-122l-1306 1821h-12v-1821h-125v2048h123l1306 -1823h12v1823h124zM888 -680l125 518h127l-156 -518h-96z" />
    <glyph glyph-name="uni0147" unicode="&#x147;" horiz-adv-x="2157" 
d="M1861 2048v-2048h-122l-1306 1821h-12v-1821h-125v2048h123l1306 -1823h12v1823h124zM810 2650l269 -298l269 298h126v-10l-354 -390h-82l-354 390v10h126z" />
    <glyph glyph-name="uni01F8" unicode="&#x1f8;" horiz-adv-x="2157" 
d="M1861 2048v-2048h-122l-1306 1821h-12v-1821h-125v2048h123l1306 -1823h12v1823h124zM1025 2267l-301 442h145l268 -442h-112z" />
    <glyph glyph-name="uni1E44" unicode="&#x1e44;" horiz-adv-x="2157" 
d="M1861 2048v-2048h-122l-1306 1821h-12v-1821h-125v2048h123l1306 -1823h12v1823h124zM1079 2320q-41 0 -70 28t-29 68t29 68t70 28q40 0 69 -28t29 -68t-29 -68t-69 -28z" />
    <glyph glyph-name="uni1E46" unicode="&#x1e46;" horiz-adv-x="2157" 
d="M1861 2048v-2048h-122l-1306 1821h-12v-1821h-125v2048h123l1306 -1823h12v1823h124zM1079 -473q-41 0 -70 28t-29 68t29 68t70 28q40 0 69 -28t29 -68t-29 -68t-69 -28z" />
    <glyph glyph-name="uni1E48" unicode="&#x1e48;" horiz-adv-x="2157" 
d="M1861 2048v-2048h-122l-1306 1821h-12v-1821h-125v2048h123l1306 -1823h12v1823h124zM1449 -276v-109h-739v109h739z" />
    <glyph glyph-name="uni1E4A" unicode="&#x1e4a;" horiz-adv-x="2157" 
d="M1861 2048v-2048h-122l-1306 1821h-12v-1821h-125v2048h123l1306 -1823h12v1823h124zM810 -549h-126v11l354 389h82l354 -389v-11h-126l-269 299z" />
    <glyph glyph-name="uni019D" unicode="&#x19d;" horiz-adv-x="2119" 
d="M257 0h126v-209q0 -88 -22.5 -156t-64.5 -114.5t-100.5 -70t-130.5 -23.5q-26 0 -52.5 1.5t-44.5 7.5v111q14 -4 33 -6t40 -2q104 0 160 60t56 193v208zM1823 2048v-2048h-123l-1305 1821h-12v-1821h-126v2048h123l1307 -1823h12v1823h124z" />
    <glyph glyph-name="uni014A" unicode="&#x14a;" horiz-adv-x="2157" 
d="M1739 0h122v-209q0 -118 -39.5 -199t-110.5 -123t-167 -42q-27 0 -53 1.5t-44 7.5v111q14 -4 32.5 -6t40.5 -2q104 0 161.5 60t57.5 193v208zM1861 2048v-2048h-122l-1306 1821h-12v-1821h-125v2048h123l1306 -1823h12v1823h124z" />
    <glyph glyph-name="uni0418" unicode="&#x418;" horiz-adv-x="2157" 
d="M296 2048h124v-1823h12l1307 1823h122v-2048h-125v1821h-12l-1305 -1821h-123v2048z" />
    <glyph glyph-name="uni040D" unicode="&#x40d;" horiz-adv-x="2157" 
d="M296 2048h124v-1823h12l1307 1823h122v-2048h-125v1821h-12l-1305 -1821h-123v2048zM1025 2267l-301 442h145l268 -442h-112z" />
    <glyph glyph-name="uni0419" unicode="&#x419;" horiz-adv-x="2157" 
d="M296 2048h124v-1823h12l1307 1823h122v-2048h-125v1821h-12l-1305 -1821h-123v2048zM1251 2560h116q0 -125 -77 -200t-211 -75q-133 0 -210 75t-77 200h116q0 -79 42 -127t129 -48t129.5 48t42.5 127z" />
    <glyph glyph-name="uni04E2" unicode="&#x4e2;" horiz-adv-x="2157" 
d="M296 2048h124v-1823h12l1307 1823h122v-2048h-125v1821h-12l-1305 -1821h-123v2048zM1448 2469v-109h-739v109h739z" />
    <glyph glyph-name="uni04E4" unicode="&#x4e4;" horiz-adv-x="2157" 
d="M296 2048h124v-1823h12l1307 1823h122v-2048h-125v1821h-12l-1305 -1821h-123v2048zM855 2320q-38 0 -67 29t-29 67q0 40 29 68t67 28q40 0 68 -28t28 -68q0 -38 -28 -67t-68 -29zM1303 2320q-38 0 -67 29t-29 67q0 40 29 68t67 28q40 0 68 -28t28 -68q0 -38 -28 -67
t-68 -29z" />
    <glyph glyph-name="uni048A" unicode="&#x48a;" horiz-adv-x="2157" 
d="M296 2048h124v-1823h12l1307 1823h122v-2048h-125v1821h-12l-1305 -1821h-123v2048zM1251 2560h116q0 -125 -77 -200t-211 -75q-133 0 -210 75t-77 200h116q0 -79 42 -127t129 -48t129.5 48t42.5 127zM1983 89v-124q-1 -70 -13 -137.5t-35 -133.5t-55 -131l-106 28
q26 64 45.5 125.5t31 123t11.5 124.5v125h121z" />
    <glyph glyph-name="uni0376" unicode="&#x376;" horiz-adv-x="2079" 
d="M259 2048h124v-1823h12l1307 1823h122v-2048h-125v1821h-12l-1305 -1821h-123v2048z" />
    <glyph glyph-name="uni039D" unicode="&#x39d;" horiz-adv-x="2157" 
d="M1861 2048v-2048h-122l-1306 1821h-12v-1821h-125v2048h123l1306 -1823h12v1823h124z" />
    <glyph glyph-name="uni01CB" unicode="&#x1cb;" horiz-adv-x="2775" 
d="M1861 2048v-2048h-122l-1306 1821h-12v-1821h-125v2048h123l1306 -1823h12v1823h124zM2395 1536h121v-1723q0 -119 -49 -206.5t-134.5 -135t-197.5 -47.5q-8 0 -17 0.5t-21 2.5l6 113h15h15q112 0 187 72.5t75 200.5v1723zM2455 1808q-41 0 -70 28t-29 68t29 68t70 28
q40 0 69 -28t29 -68t-29 -68t-69 -28z" />
    <glyph glyph-name="uni004F" unicode="O" horiz-adv-x="2117" 
d="M1925 1024q0 -317 -110 -553.5t-305.5 -367.5t-450.5 -131q-256 0 -451.5 131.5t-305.5 368t-110 552.5q0 317 110.5 553t305.5 367.5t451 131.5q255 0 450.5 -131t305.5 -367.5t110 -553.5zM1803 1024q0 285 -95.5 494t-263.5 323.5t-385 114.5t-385 -113.5t-263.5 -323
t-95.5 -495.5q0 -283 94.5 -492.5t262.5 -324.5t387 -115q217 0 385 114.5t263.5 323.5t95.5 494z" />
    <glyph glyph-name="uni00D6" unicode="&#xd6;" horiz-adv-x="2117" 
d="M1925 1024q0 -317 -110 -553.5t-305.5 -367.5t-450.5 -131q-256 0 -451.5 131.5t-305.5 368t-110 552.5q0 317 110.5 553t305.5 367.5t451 131.5q255 0 450.5 -131t305.5 -367.5t110 -553.5zM1803 1024q0 285 -95.5 494t-263.5 323.5t-385 114.5t-385 -113.5t-263.5 -323
t-95.5 -495.5q0 -283 94.5 -492.5t262.5 -324.5t387 -115q217 0 385 114.5t263.5 323.5t95.5 494zM835 2320q-38 0 -67 29t-29 67q0 40 29 68t67 28q40 0 68 -28t28 -68q0 -38 -28 -67t-68 -29zM1283 2320q-38 0 -67 29t-29 67q0 40 29 68t67 28q40 0 68 -28t28 -68
q0 -38 -28 -67t-68 -29z" />
    <glyph glyph-name="uni00D5" unicode="&#xd5;" horiz-adv-x="2117" 
d="M1925 1024q0 -317 -110 -553.5t-305.5 -367.5t-450.5 -131q-256 0 -451.5 131.5t-305.5 368t-110 552.5q0 317 110.5 553t305.5 367.5t451 131.5q255 0 450.5 -131t305.5 -367.5t110 -553.5zM1803 1024q0 285 -95.5 494t-263.5 323.5t-385 114.5t-385 -113.5t-263.5 -323
t-95.5 -495.5q0 -283 94.5 -492.5t262.5 -324.5t387 -115q217 0 385 114.5t263.5 323.5t95.5 494zM694 2313l-104 8q9 114 87.5 185.5t189.5 71.5q65 0 113 -23t89 -52.5t83.5 -53t97.5 -23.5q64 0 116 43.5t62 111.5l103 -16q-15 -113 -94.5 -181t-182.5 -68
q-66 0 -111.5 23t-84.5 52.5t-82 53t-105 23.5q-71 0 -121 -44.5t-56 -110.5z" />
    <glyph glyph-name="uni00D8" unicode="&#xd8;" horiz-adv-x="2117" 
d="M403 -60l-86 59l1395 2108l85 -59zM1925 1024q0 -317 -110 -553.5t-305.5 -367.5t-450.5 -131q-256 0 -451.5 131.5t-305.5 368t-110 552.5q0 317 110.5 553t305.5 367.5t451 131.5q255 0 450.5 -131t305.5 -367.5t110 -553.5zM1803 1024q0 285 -95.5 494t-263.5 323.5
t-385 114.5t-385 -113.5t-263.5 -323t-95.5 -495.5q0 -283 94.5 -492.5t262.5 -324.5t387 -115q217 0 385 114.5t263.5 323.5t95.5 494z" />
    <glyph glyph-name="uni01A0" unicode="&#x1a0;" horiz-adv-x="2107" 
d="M1888 2201h121q1 -216 -96.5 -330t-308.5 -140v108q157 26 220 110.5t64 251.5zM1925 1024q0 -317 -110 -553.5t-305.5 -367.5t-450.5 -131q-256 0 -451.5 131.5t-305.5 368t-110 552.5q0 317 110.5 553t305.5 367.5t451 131.5q255 0 450.5 -131t305.5 -367.5t110 -553.5
zM1803 1024q0 285 -95.5 494t-263.5 323.5t-385 114.5t-385 -113.5t-263.5 -323t-95.5 -495.5q0 -283 94.5 -492.5t262.5 -324.5t387 -115q217 0 385 114.5t263.5 323.5t95.5 494z" />
    <glyph glyph-name="uni00D2" unicode="&#xd2;" horiz-adv-x="2117" 
d="M1925 1024q0 -317 -110 -553.5t-305.5 -367.5t-450.5 -131q-256 0 -451.5 131.5t-305.5 368t-110 552.5q0 317 110.5 553t305.5 367.5t451 131.5q255 0 450.5 -131t305.5 -367.5t110 -553.5zM1803 1024q0 285 -95.5 494t-263.5 323.5t-385 114.5t-385 -113.5t-263.5 -323
t-95.5 -495.5q0 -283 94.5 -492.5t262.5 -324.5t387 -115q217 0 385 114.5t263.5 323.5t95.5 494zM1005 2267l-301 442h145l268 -442h-112z" />
    <glyph glyph-name="uni00D3" unicode="&#xd3;" horiz-adv-x="2117" 
d="M1925 1024q0 -317 -110 -553.5t-305.5 -367.5t-450.5 -131q-256 0 -451.5 131.5t-305.5 368t-110 552.5q0 317 110.5 553t305.5 367.5t451 131.5q255 0 450.5 -131t305.5 -367.5t110 -553.5zM1803 1024q0 285 -95.5 494t-263.5 323.5t-385 114.5t-385 -113.5t-263.5 -323
t-95.5 -495.5q0 -283 94.5 -492.5t262.5 -324.5t387 -115q217 0 385 114.5t263.5 323.5t95.5 494zM1000 2267l268 442h145l-301 -442h-112z" />
    <glyph glyph-name="uni00D4" unicode="&#xd4;" horiz-adv-x="2117" 
d="M1925 1024q0 -317 -110 -553.5t-305.5 -367.5t-450.5 -131q-256 0 -451.5 131.5t-305.5 368t-110 552.5q0 317 110.5 553t305.5 367.5t451 131.5q255 0 450.5 -131t305.5 -367.5t110 -553.5zM1803 1024q0 285 -95.5 494t-263.5 323.5t-385 114.5t-385 -113.5t-263.5 -323
t-95.5 -495.5q0 -283 94.5 -492.5t262.5 -324.5t387 -115q217 0 385 114.5t263.5 323.5t95.5 494zM790 2216h-126v11l354 389h82l354 -389v-11h-126l-269 299z" />
    <glyph glyph-name="uni014C" unicode="&#x14c;" horiz-adv-x="2117" 
d="M1925 1024q0 -317 -110 -553.5t-305.5 -367.5t-450.5 -131q-256 0 -451.5 131.5t-305.5 368t-110 552.5q0 317 110.5 553t305.5 367.5t451 131.5q255 0 450.5 -131t305.5 -367.5t110 -553.5zM1803 1024q0 285 -95.5 494t-263.5 323.5t-385 114.5t-385 -113.5t-263.5 -323
t-95.5 -495.5q0 -283 94.5 -492.5t262.5 -324.5t387 -115q217 0 385 114.5t263.5 323.5t95.5 494zM1428 2469v-109h-739v109h739z" />
    <glyph glyph-name="uni014E" unicode="&#x14e;" horiz-adv-x="2117" 
d="M1925 1024q0 -317 -110 -553.5t-305.5 -367.5t-450.5 -131q-256 0 -451.5 131.5t-305.5 368t-110 552.5q0 317 110.5 553t305.5 367.5t451 131.5q255 0 450.5 -131t305.5 -367.5t110 -553.5zM1803 1024q0 285 -95.5 494t-263.5 323.5t-385 114.5t-385 -113.5t-263.5 -323
t-95.5 -495.5q0 -283 94.5 -492.5t262.5 -324.5t387 -115q217 0 385 114.5t263.5 323.5t95.5 494zM1231 2560h116q0 -125 -77 -200t-211 -75q-133 0 -210 75t-77 200h116q0 -79 42 -127t129 -48t129.5 48t42.5 127z" />
    <glyph glyph-name="uni0150" unicode="&#x150;" horiz-adv-x="2117" 
d="M1925 1024q0 -317 -110 -553.5t-305.5 -367.5t-450.5 -131q-256 0 -451.5 131.5t-305.5 368t-110 552.5q0 317 110.5 553t305.5 367.5t451 131.5q255 0 450.5 -131t305.5 -367.5t110 -553.5zM1803 1024q0 285 -95.5 494t-263.5 323.5t-385 114.5t-385 -113.5t-263.5 -323
t-95.5 -495.5q0 -283 94.5 -492.5t262.5 -324.5t387 -115q217 0 385 114.5t263.5 323.5t95.5 494zM1112 2211l343 429h141l-372 -429h-112zM779 2211l261 429h140l-296 -429h-105z" />
    <glyph glyph-name="uni01D1" unicode="&#x1d1;" horiz-adv-x="2117" 
d="M1925 1024q0 -317 -110 -553.5t-305.5 -367.5t-450.5 -131q-256 0 -451.5 131.5t-305.5 368t-110 552.5q0 317 110.5 553t305.5 367.5t451 131.5q255 0 450.5 -131t305.5 -367.5t110 -553.5zM1803 1024q0 285 -95.5 494t-263.5 323.5t-385 114.5t-385 -113.5t-263.5 -323
t-95.5 -495.5q0 -283 94.5 -492.5t262.5 -324.5t387 -115q217 0 385 114.5t263.5 323.5t95.5 494zM790 2650l269 -298l269 298h126v-10l-354 -390h-82l-354 390v10h126z" />
    <glyph glyph-name="uni01EA" unicode="&#x1ea;" horiz-adv-x="2117" 
d="M1925 1024q0 -317 -110 -553.5t-305.5 -367.5t-450.5 -131q-256 0 -451.5 131.5t-305.5 368t-110 552.5q0 317 110.5 553t305.5 367.5t451 131.5q255 0 450.5 -131t305.5 -367.5t110 -553.5zM1803 1024q0 285 -95.5 494t-263.5 323.5t-385 114.5t-385 -113.5t-263.5 -323
t-95.5 -495.5q0 -283 94.5 -492.5t262.5 -324.5t387 -115q217 0 385 114.5t263.5 323.5t95.5 494zM1062 -608q-110 0 -181 62t-71 182q0 73 30 139t90 127.5t148 122.5l78 -28q-98 -91 -161 -174.5t-63 -176.5q0 -73 39.5 -109t110.5 -36q44 0 77.5 12.5t64.5 34.5l31 -94
q-40 -27 -86.5 -44.5t-106.5 -17.5z" />
    <glyph glyph-name="uni01EC" unicode="&#x1ec;" horiz-adv-x="2117" 
d="M1925 1024q0 -317 -110 -553.5t-305.5 -367.5t-450.5 -131q-256 0 -451.5 131.5t-305.5 368t-110 552.5q0 317 110.5 553t305.5 367.5t451 131.5q255 0 450.5 -131t305.5 -367.5t110 -553.5zM1803 1024q0 285 -95.5 494t-263.5 323.5t-385 114.5t-385 -113.5t-263.5 -323
t-95.5 -495.5q0 -283 94.5 -492.5t262.5 -324.5t387 -115q217 0 385 114.5t263.5 323.5t95.5 494zM1062 -608q-110 0 -181 62t-71 182q0 73 30 139t90 127.5t148 122.5l78 -28q-98 -91 -161 -174.5t-63 -176.5q0 -73 39.5 -109t110.5 -36q44 0 77.5 12.5t64.5 34.5l31 -94
q-40 -27 -86.5 -44.5t-106.5 -17.5zM1428 2469v-109h-739v109h739z" />
    <glyph glyph-name="uni020C" unicode="&#x20c;" horiz-adv-x="2117" 
d="M1925 1024q0 -317 -110 -553.5t-305.5 -367.5t-450.5 -131q-256 0 -451.5 131.5t-305.5 368t-110 552.5q0 317 110.5 553t305.5 367.5t451 131.5q255 0 450.5 -131t305.5 -367.5t110 -553.5zM1803 1024q0 285 -95.5 494t-263.5 323.5t-385 114.5t-385 -113.5t-263.5 -323
t-95.5 -495.5q0 -283 94.5 -492.5t262.5 -324.5t387 -115q217 0 385 114.5t263.5 323.5t95.5 494zM873 2267l-321 442h153l280 -442h-112zM1161 2267l-251 442h152l210 -442h-111z" />
    <glyph glyph-name="uni020E" unicode="&#x20e;" horiz-adv-x="2117" 
d="M1925 1024q0 -317 -110 -553.5t-305.5 -367.5t-450.5 -131q-256 0 -451.5 131.5t-305.5 368t-110 552.5q0 317 110.5 553t305.5 367.5t451 131.5q255 0 450.5 -131t305.5 -367.5t110 -553.5zM1803 1024q0 285 -95.5 494t-263.5 323.5t-385 114.5t-385 -113.5t-263.5 -323
t-95.5 -495.5q0 -283 94.5 -492.5t262.5 -324.5t387 -115q217 0 385 114.5t263.5 323.5t95.5 494zM774 2374q0 124 77 200t211 76t210.5 -76t76.5 -200h-116q0 80 -42.5 128t-128.5 48q-88 0 -130 -48.5t-42 -127.5h-116z" />
    <glyph glyph-name="uni022A" unicode="&#x22a;" horiz-adv-x="2117" 
d="M1925 1024q0 -317 -110 -553.5t-305.5 -367.5t-450.5 -131q-256 0 -451.5 131.5t-305.5 368t-110 552.5q0 317 110.5 553t305.5 367.5t451 131.5q255 0 450.5 -131t305.5 -367.5t110 -553.5zM1803 1024q0 285 -95.5 494t-263.5 323.5t-385 114.5t-385 -113.5t-263.5 -323
t-95.5 -495.5q0 -283 94.5 -492.5t262.5 -324.5t387 -115q217 0 385 114.5t263.5 323.5t95.5 494zM836 2320q-38 0 -67 29t-29 67q0 40 29 68t67 28q40 0 68 -28t28 -68q0 -38 -28 -67t-68 -29zM1284 2320q-38 0 -67 29t-29 67q0 40 29 68t67 28q40 0 68 -28t28 -68
q0 -38 -28 -67t-68 -29zM1431 2900v-109h-739v109h739z" />
    <glyph glyph-name="uni022C" unicode="&#x22c;" horiz-adv-x="2117" 
d="M1925 1024q0 -317 -110 -553.5t-305.5 -367.5t-450.5 -131q-256 0 -451.5 131.5t-305.5 368t-110 552.5q0 317 110.5 553t305.5 367.5t451 131.5q255 0 450.5 -131t305.5 -367.5t110 -553.5zM1803 1024q0 285 -95.5 494t-263.5 323.5t-385 114.5t-385 -113.5t-263.5 -323
t-95.5 -495.5q0 -283 94.5 -492.5t262.5 -324.5t387 -115q217 0 385 114.5t263.5 323.5t95.5 494zM1324 2531l79 -16q-7 -86 -60.5 -149t-134.5 -63q-68 0 -112.5 32.5t-85 65t-95.5 32.5q-49 0 -80.5 -40t-38.5 -92l-79 16q7 86 61 150t138 64q67 0 111.5 -33t85 -65
t94.5 -32q47 1 78.5 39.5t38.5 90.5zM1423 2781v-112h-740v112h740z" />
    <glyph glyph-name="uni022E" unicode="&#x22e;" horiz-adv-x="2117" 
d="M1925 1024q0 -317 -110 -553.5t-305.5 -367.5t-450.5 -131q-256 0 -451.5 131.5t-305.5 368t-110 552.5q0 317 110.5 553t305.5 367.5t451 131.5q255 0 450.5 -131t305.5 -367.5t110 -553.5zM1803 1024q0 285 -95.5 494t-263.5 323.5t-385 114.5t-385 -113.5t-263.5 -323
t-95.5 -495.5q0 -283 94.5 -492.5t262.5 -324.5t387 -115q217 0 385 114.5t263.5 323.5t95.5 494zM1059 2320q-41 0 -70 28t-29 68t29 68t70 28q40 0 69 -28t29 -68t-29 -68t-69 -28z" />
    <glyph glyph-name="uni0230" unicode="&#x230;" horiz-adv-x="2117" 
d="M1925 1024q0 -317 -110 -553.5t-305.5 -367.5t-450.5 -131q-256 0 -451.5 131.5t-305.5 368t-110 552.5q0 317 110.5 553t305.5 367.5t451 131.5q255 0 450.5 -131t305.5 -367.5t110 -553.5zM1803 1024q0 285 -95.5 494t-263.5 323.5t-385 114.5t-385 -113.5t-263.5 -323
t-95.5 -495.5q0 -283 94.5 -492.5t262.5 -324.5t387 -115q217 0 385 114.5t263.5 323.5t95.5 494zM1059 2245q-41 0 -70 28t-29 68t29 68t70 28q40 0 69 -28t29 -68t-29 -68t-69 -28zM1416 2720v-109h-739v109h739z" />
    <glyph glyph-name="uni1E4C" unicode="&#x1e4c;" horiz-adv-x="2117" 
d="M1925 1024q0 -317 -110 -553.5t-305.5 -367.5t-450.5 -131q-256 0 -451.5 131.5t-305.5 368t-110 552.5q0 317 110.5 553t305.5 367.5t451 131.5q255 0 450.5 -131t305.5 -367.5t110 -553.5zM1803 1024q0 285 -95.5 494t-263.5 323.5t-385 114.5t-385 -113.5t-263.5 -323
t-95.5 -495.5q0 -283 94.5 -492.5t262.5 -324.5t387 -115q217 0 385 114.5t263.5 323.5t95.5 494zM987 2576l254 272h154l-288 -272h-120zM691 2240l-104 8q9 114 87.5 185.5t189.5 71.5q65 0 113 -23t89 -52.5t83.5 -53t97.5 -23.5q64 0 116 43.5t62 111.5l103 -16
q-15 -113 -94.5 -181t-182.5 -68q-66 0 -111.5 23t-84.5 52.5t-82 53t-105 23.5q-71 0 -121 -44.5t-56 -110.5z" />
    <glyph glyph-name="uni1E4E" unicode="&#x1e4e;" horiz-adv-x="2117" 
d="M1925 1024q0 -317 -110 -553.5t-305.5 -367.5t-450.5 -131q-256 0 -451.5 131.5t-305.5 368t-110 552.5q0 317 110.5 553t305.5 367.5t451 131.5q255 0 450.5 -131t305.5 -367.5t110 -553.5zM1803 1024q0 285 -95.5 494t-263.5 323.5t-385 114.5t-385 -113.5t-263.5 -323
t-95.5 -495.5q0 -283 94.5 -492.5t262.5 -324.5t387 -115q217 0 385 114.5t263.5 323.5t95.5 494zM1311 2573l78 -16q-6 -86 -59.5 -148.5t-134.5 -63.5q-68 0 -113 33t-85 65.5t-96 32.5q-49 0 -80.5 -40t-37.5 -92l-79 16q7 86 60.5 149.5t138.5 63.5q67 0 111 -32
t84.5 -64.5t94.5 -32.5q47 1 79 40t39 89zM685 2765q0 39 26 66.5t69 27.5t69.5 -27t26.5 -67q0 -38 -26.5 -65t-69.5 -27q-42 0 -68.5 27t-26.5 65zM1249 2765q0 39 26.5 66.5t69.5 27.5t69 -27.5t26 -66.5q0 -38 -25.5 -65.5t-69.5 -27.5q-43 0 -69.5 27t-26.5 66z" />
    <glyph glyph-name="uni1E50" unicode="&#x1e50;" horiz-adv-x="2117" 
d="M1925 1024q0 -317 -110 -553.5t-305.5 -367.5t-450.5 -131q-256 0 -451.5 131.5t-305.5 368t-110 552.5q0 317 110.5 553t305.5 367.5t451 131.5q255 0 450.5 -131t305.5 -367.5t110 -553.5zM1803 1024q0 285 -95.5 494t-263.5 323.5t-385 114.5t-385 -113.5t-263.5 -323
t-95.5 -495.5q0 -283 94.5 -492.5t262.5 -324.5t387 -115q217 0 385 114.5t263.5 323.5t95.5 494zM1002 2565l-281 272h156l257 -272h-132zM1428 2392v-109h-739v109h739z" />
    <glyph glyph-name="uni1E52" unicode="&#x1e52;" horiz-adv-x="2117" 
d="M1925 1024q0 -317 -110 -553.5t-305.5 -367.5t-450.5 -131q-256 0 -451.5 131.5t-305.5 368t-110 552.5q0 317 110.5 553t305.5 367.5t451 131.5q255 0 450.5 -131t305.5 -367.5t110 -553.5zM1803 1024q0 285 -95.5 494t-263.5 323.5t-385 114.5t-385 -113.5t-263.5 -323
t-95.5 -495.5q0 -283 94.5 -492.5t262.5 -324.5t387 -115q217 0 385 114.5t263.5 323.5t95.5 494zM984 2565l257 272h156l-281 -272h-132zM1428 2392v-109h-739v109h739z" />
    <glyph glyph-name="uni1ECC" unicode="&#x1ecc;" horiz-adv-x="2117" 
d="M1925 1024q0 -317 -110 -553.5t-305.5 -367.5t-450.5 -131q-256 0 -451.5 131.5t-305.5 368t-110 552.5q0 317 110.5 553t305.5 367.5t451 131.5q255 0 450.5 -131t305.5 -367.5t110 -553.5zM1803 1024q0 285 -95.5 494t-263.5 323.5t-385 114.5t-385 -113.5t-263.5 -323
t-95.5 -495.5q0 -283 94.5 -492.5t262.5 -324.5t387 -115q217 0 385 114.5t263.5 323.5t95.5 494zM1059 -473q-41 0 -70 28t-29 68t29 68t70 28q40 0 69 -28t29 -68t-29 -68t-69 -28z" />
    <glyph glyph-name="uni1ECE" unicode="&#x1ece;" horiz-adv-x="2117" 
d="M1925 1024q0 -317 -110 -553.5t-305.5 -367.5t-450.5 -131q-256 0 -451.5 131.5t-305.5 368t-110 552.5q0 317 110.5 553t305.5 367.5t451 131.5q255 0 450.5 -131t305.5 -367.5t110 -553.5zM1803 1024q0 285 -95.5 494t-263.5 323.5t-385 114.5t-385 -113.5t-263.5 -323
t-95.5 -495.5q0 -283 94.5 -492.5t262.5 -324.5t387 -115q217 0 385 114.5t263.5 323.5t95.5 494zM1114 2248h-108v201q111 7 156.5 37.5t44.5 98.5q-1 80 -61 116t-172 36l9 94q172 -1 255.5 -67.5t84.5 -175.5q1 -97 -59.5 -151t-149.5 -64v-125z" />
    <glyph glyph-name="uni1ED0" unicode="&#x1ed0;" horiz-adv-x="2117" 
d="M1925 1024q0 -317 -110 -553.5t-305.5 -367.5t-450.5 -131q-256 0 -451.5 131.5t-305.5 368t-110 552.5q0 317 110.5 553t305.5 367.5t451 131.5q255 0 450.5 -131t305.5 -367.5t110 -553.5zM1803 1024q0 285 -95.5 494t-263.5 323.5t-385 114.5t-385 -113.5t-263.5 -323
t-95.5 -495.5q0 -283 94.5 -492.5t262.5 -324.5t387 -115q217 0 385 114.5t263.5 323.5t95.5 494zM900 2520l387 -135h17l-64 84l-296 -205l-132 70l175 186h-87zM1444 2510l226 355h150l-264 -355h-112z" />
    <glyph glyph-name="uni1ED2" unicode="&#x1ed2;" horiz-adv-x="2117" 
d="M1925 1024q0 -317 -110 -553.5t-305.5 -367.5t-450.5 -131q-256 0 -451.5 131.5t-305.5 368t-110 552.5q0 317 110.5 553t305.5 367.5t451 131.5q255 0 450.5 -131t305.5 -367.5t110 -553.5zM1803 1024q0 285 -95.5 494t-263.5 323.5t-385 114.5t-385 -113.5t-263.5 -323
t-95.5 -495.5q0 -283 94.5 -492.5t262.5 -324.5t387 -115q217 0 385 114.5t263.5 323.5t95.5 494zM1103 2675l387 -378h-152l-276 276l-276 -276h-152l385 378h84zM483 2900l211 -356h-111l-252 356h152z" />
    <glyph glyph-name="uni1ED4" unicode="&#x1ed4;" horiz-adv-x="2117" 
d="M1925 1024q0 -317 -110 -553.5t-305.5 -367.5t-450.5 -131q-256 0 -451.5 131.5t-305.5 368t-110 552.5q0 317 110.5 553t305.5 367.5t451 131.5q255 0 450.5 -131t305.5 -367.5t110 -553.5zM1803 1024q0 285 -95.5 494t-263.5 323.5t-385 114.5t-385 -113.5t-263.5 -323
t-95.5 -495.5q0 -283 94.5 -492.5t262.5 -324.5t387 -115q217 0 385 114.5t263.5 323.5t95.5 494zM1114 2603l377 -377h-139l-290 289l-290 -289h-138l377 377h103zM1564 2420h-98v170q104 6 148 33t44 84q-1 67 -58 100t-166 33l9 87q162 -1 241.5 -62t79.5 -154
q0 -83 -57 -133.5t-143 -58.5v-99z" />
    <glyph glyph-name="uni1ED6" unicode="&#x1ed6;" horiz-adv-x="2117" 
d="M1925 1024q0 -317 -110 -553.5t-305.5 -367.5t-450.5 -131q-256 0 -451.5 131.5t-305.5 368t-110 552.5q0 317 110.5 553t305.5 367.5t451 131.5q255 0 450.5 -131t305.5 -367.5t110 -553.5zM1803 1024q0 285 -95.5 494t-263.5 323.5t-385 114.5t-385 -113.5t-263.5 -323
t-95.5 -495.5q0 -283 94.5 -492.5t262.5 -324.5t387 -115q217 0 385 114.5t263.5 323.5t95.5 494zM1080 2550l390 -368h-138l-290 276l-289 -276h-139l391 368h75zM1337 2883l80 -16q-11 -94 -77 -153.5t-150 -59.5q-55 0 -93 21t-68.5 48.5t-63 49t-75.5 22.5
q-49 1 -93 -36.5t-52 -100.5l-79 14q12 95 77 155t146 60q50 0 88 -21t70.5 -48.5t67 -48.5t77.5 -22q50 -1 94 36t51 100z" />
    <glyph glyph-name="uni1ED8" unicode="&#x1ed8;" horiz-adv-x="2117" 
d="M1925 1024q0 -317 -110 -553.5t-305.5 -367.5t-450.5 -131q-256 0 -451.5 131.5t-305.5 368t-110 552.5q0 317 110.5 553t305.5 367.5t451 131.5q255 0 450.5 -131t305.5 -367.5t110 -553.5zM1803 1024q0 285 -95.5 494t-263.5 323.5t-385 114.5t-385 -113.5t-263.5 -323
t-95.5 -495.5q0 -283 94.5 -492.5t262.5 -324.5t387 -115q217 0 385 114.5t263.5 323.5t95.5 494zM790 2216h-126v11l354 389h82l354 -389v-11h-126l-269 299zM1059 -473q-41 0 -70 28t-29 68t29 68t70 28q40 0 69 -28t29 -68t-29 -68t-69 -28z" />
    <glyph glyph-name="uni1EDA" unicode="&#x1eda;" horiz-adv-x="2107" 
d="M1888 2201h121q1 -216 -96.5 -330t-308.5 -140v108q157 26 220 110.5t64 251.5zM1925 1024q0 -317 -110 -553.5t-305.5 -367.5t-450.5 -131q-256 0 -451.5 131.5t-305.5 368t-110 552.5q0 317 110.5 553t305.5 367.5t451 131.5q255 0 450.5 -131t305.5 -367.5t110 -553.5
zM1803 1024q0 285 -95.5 494t-263.5 323.5t-385 114.5t-385 -113.5t-263.5 -323t-95.5 -495.5q0 -283 94.5 -492.5t262.5 -324.5t387 -115q217 0 385 114.5t263.5 323.5t95.5 494zM1000 2267l268 442h145l-301 -442h-112z" />
    <glyph glyph-name="uni1EDC" unicode="&#x1edc;" horiz-adv-x="2107" 
d="M1888 2201h121q1 -216 -96.5 -330t-308.5 -140v108q157 26 220 110.5t64 251.5zM1925 1024q0 -317 -110 -553.5t-305.5 -367.5t-450.5 -131q-256 0 -451.5 131.5t-305.5 368t-110 552.5q0 317 110.5 553t305.5 367.5t451 131.5q255 0 450.5 -131t305.5 -367.5t110 -553.5
zM1803 1024q0 285 -95.5 494t-263.5 323.5t-385 114.5t-385 -113.5t-263.5 -323t-95.5 -495.5q0 -283 94.5 -492.5t262.5 -324.5t387 -115q217 0 385 114.5t263.5 323.5t95.5 494zM1005 2267l-301 442h145l268 -442h-112z" />
    <glyph glyph-name="uni1EDE" unicode="&#x1ede;" horiz-adv-x="2107" 
d="M1888 2201h121q1 -216 -96.5 -330t-308.5 -140v108q157 26 220 110.5t64 251.5zM1925 1024q0 -317 -110 -553.5t-305.5 -367.5t-450.5 -131q-256 0 -451.5 131.5t-305.5 368t-110 552.5q0 317 110.5 553t305.5 367.5t451 131.5q255 0 450.5 -131t305.5 -367.5t110 -553.5
zM1803 1024q0 285 -95.5 494t-263.5 323.5t-385 114.5t-385 -113.5t-263.5 -323t-95.5 -495.5q0 -283 94.5 -492.5t262.5 -324.5t387 -115q217 0 385 114.5t263.5 323.5t95.5 494zM1114 2248h-108v201q111 7 156.5 37.5t44.5 98.5q-1 80 -61 116t-172 36l9 94
q172 -1 255.5 -67.5t84.5 -175.5q1 -97 -59.5 -151t-149.5 -64v-125z" />
    <glyph glyph-name="uni1EE0" unicode="&#x1ee0;" horiz-adv-x="2107" 
d="M1888 2201h121q1 -216 -96.5 -330t-308.5 -140v108q157 26 220 110.5t64 251.5zM1925 1024q0 -317 -110 -553.5t-305.5 -367.5t-450.5 -131q-256 0 -451.5 131.5t-305.5 368t-110 552.5q0 317 110.5 553t305.5 367.5t451 131.5q255 0 450.5 -131t305.5 -367.5t110 -553.5
zM1803 1024q0 285 -95.5 494t-263.5 323.5t-385 114.5t-385 -113.5t-263.5 -323t-95.5 -495.5q0 -283 94.5 -492.5t262.5 -324.5t387 -115q217 0 385 114.5t263.5 323.5t95.5 494zM692 2288l-104 8q9 114 87.5 185.5t189.5 71.5q65 0 113 -23t89 -52.5t83.5 -53t97.5 -23.5
q64 0 116 43.5t62 111.5l103 -16q-15 -113 -94.5 -181t-182.5 -68q-66 0 -111.5 23t-84.5 52.5t-82 53t-105 23.5q-71 0 -121 -44.5t-56 -110.5z" />
    <glyph glyph-name="uni1EE2" unicode="&#x1ee2;" horiz-adv-x="2107" 
d="M1888 2201h121q1 -216 -96.5 -330t-308.5 -140v108q157 26 220 110.5t64 251.5zM1925 1024q0 -317 -110 -553.5t-305.5 -367.5t-450.5 -131q-256 0 -451.5 131.5t-305.5 368t-110 552.5q0 317 110.5 553t305.5 367.5t451 131.5q255 0 450.5 -131t305.5 -367.5t110 -553.5
zM1803 1024q0 285 -95.5 494t-263.5 323.5t-385 114.5t-385 -113.5t-263.5 -323t-95.5 -495.5q0 -283 94.5 -492.5t262.5 -324.5t387 -115q217 0 385 114.5t263.5 323.5t95.5 494zM1059 -473q-41 0 -70 28t-29 68t29 68t70 28q40 0 69 -28t29 -68t-29 -68t-69 -28z" />
    <glyph glyph-name="uni01FE" unicode="&#x1fe;" horiz-adv-x="2117" 
d="M403 -60l-86 59l1395 2108l85 -59zM1925 1024q0 -317 -110 -553.5t-305.5 -367.5t-450.5 -131q-256 0 -451.5 131.5t-305.5 368t-110 552.5q0 317 110.5 553t305.5 367.5t451 131.5q255 0 450.5 -131t305.5 -367.5t110 -553.5zM1803 1024q0 285 -95.5 494t-263.5 323.5
t-385 114.5t-385 -113.5t-263.5 -323t-95.5 -495.5q0 -283 94.5 -492.5t262.5 -324.5t387 -115q217 0 385 114.5t263.5 323.5t95.5 494zM1000 2267l268 442h145l-301 -442h-112z" />
    <glyph glyph-name="uni039F" unicode="&#x39f;" horiz-adv-x="2117" 
d="M1925 1024q0 -317 -110 -553.5t-305.5 -367.5t-450.5 -131q-256 0 -451.5 131.5t-305.5 368t-110 552.5q0 317 110.5 553t305.5 367.5t451 131.5q255 0 450.5 -131t305.5 -367.5t110 -553.5zM1803 1024q0 285 -95.5 494t-263.5 323.5t-385 114.5t-385 -113.5t-263.5 -323
t-95.5 -495.5q0 -283 94.5 -492.5t262.5 -324.5t387 -115q217 0 385 114.5t263.5 323.5t95.5 494z" />
    <glyph glyph-name="uni038C" unicode="&#x38c;" horiz-adv-x="2157" 
d="M1930 1024q0 -317 -110 -553.5t-305.5 -367.5t-450.5 -131q-256 0 -451.5 131.5t-305.5 368t-110 552.5q0 317 110.5 553t305.5 367.5t451 131.5q255 0 450.5 -131t305.5 -367.5t110 -553.5zM1808 1024q0 285 -95.5 494t-263.5 323.5t-385 114.5t-385 -113.5t-263.5 -323
t-95.5 -495.5q0 -283 94.5 -492.5t262.5 -324.5t387 -115q217 0 385 114.5t263.5 323.5t95.5 494zM4 1700l50 463h138l-101 -463h-87z" />
    <glyph glyph-name="uni1F48" unicode="&#x1f48;" horiz-adv-x="2291" 
d="M2064 1024q0 -317 -110 -553.5t-305.5 -367.5t-450.5 -131q-256 0 -451.5 131.5t-305.5 368t-110 552.5q0 317 110.5 553t305.5 367.5t451 131.5q255 0 450.5 -131t305.5 -367.5t110 -553.5zM1942 1024q0 285 -95.5 494t-263.5 323.5t-385 114.5t-385 -113.5t-263.5 -323
t-95.5 -495.5q0 -283 94.5 -492.5t262.5 -324.5t387 -115q217 0 385 114.5t263.5 323.5t95.5 494zM282 2048v-72q0 -87 -20 -158t-64.5 -134t-119.5 -125l-66 42q56 66 87.5 123t44.5 119t13 141v64h125z" />
    <glyph glyph-name="uni1F49" unicode="&#x1f49;" horiz-adv-x="2389" 
d="M2162 1024q0 -317 -110 -553.5t-305.5 -367.5t-450.5 -131q-256 0 -451.5 131.5t-305.5 368t-110 552.5q0 317 110.5 553t305.5 367.5t451 131.5q255 0 450.5 -131t305.5 -367.5t110 -553.5zM2040 1024q0 285 -95.5 494t-263.5 323.5t-385 114.5t-385 -113.5t-263.5 -323
t-95.5 -495.5q0 -283 94.5 -492.5t262.5 -324.5t387 -115q217 0 385 114.5t263.5 323.5t95.5 494zM167 1981v72h126v-64q0 -79 13 -140.5t44.5 -119t87.5 -122.5l-67 -43q-110 94 -157 190.5t-47 226.5z" />
    <glyph glyph-name="uni1F4A" unicode="&#x1f4a;" horiz-adv-x="2877" 
d="M2650 1024q0 -317 -110 -553.5t-305.5 -367.5t-450.5 -131q-256 0 -451.5 131.5t-305.5 368t-110 552.5q0 317 110.5 553t305.5 367.5t451 131.5q255 0 450.5 -131t305.5 -367.5t110 -553.5zM2528 1024q0 285 -95.5 494t-263.5 323.5t-385 114.5t-385 -113.5t-263.5 -323
t-95.5 -495.5q0 -283 94.5 -492.5t262.5 -324.5t387 -115q217 0 385 114.5t263.5 323.5t95.5 494zM725 1603v-19h-75l-294 443v21h141zM292 2048v-72q0 -87 -20.5 -158t-65 -134t-118.5 -125l-67 42q83 98 114 181t31 202v64h126z" />
    <glyph glyph-name="uni1F4B" unicode="&#x1f4b;" horiz-adv-x="2703" 
d="M2477 1024q0 -317 -110 -553.5t-305.5 -367.5t-450.5 -131q-256 0 -451.5 131.5t-305.5 368t-110 552.5q0 317 110.5 553t305.5 367.5t451 131.5q255 0 450.5 -131t305.5 -367.5t110 -553.5zM2355 1024q0 285 -95.5 494t-263.5 323.5t-385 114.5t-385 -113.5t-263.5 -323
t-95.5 -495.5q0 -283 94.5 -492.5t262.5 -324.5t387 -115q217 0 385 114.5t263.5 323.5t95.5 494zM462 1608v-19h-75l-295 443v21h143zM-110 1981v72h125v-64q0 -119 31 -202t114 -180l-66 -43q-111 94 -157.5 190.5t-46.5 226.5z" />
    <glyph glyph-name="uni1F4C" unicode="&#x1f4c;" horiz-adv-x="2604" 
d="M2377 1024q0 -317 -110 -553.5t-305.5 -367.5t-450.5 -131q-256 0 -451.5 131.5t-305.5 368t-110 552.5q0 317 110.5 553t305.5 367.5t451 131.5q255 0 450.5 -131t305.5 -367.5t110 -553.5zM2255 1024q0 285 -95.5 494t-263.5 323.5t-385 114.5t-385 -113.5t-263.5 -323
t-95.5 -495.5q0 -283 94.5 -492.5t262.5 -324.5t387 -115q217 0 385 114.5t263.5 323.5t95.5 494zM267 1601l176 304l98 148l96 -12l-190 -306l-137 -146zM245 2053v-72q0 -86 -20.5 -157t-65 -134t-118.5 -126l-67 43q83 97 114 180t31 202v64h126z" />
    <glyph glyph-name="uni1F4D" unicode="&#x1f4d;" horiz-adv-x="2636" 
d="M2409 1024q0 -317 -110 -553.5t-305.5 -367.5t-450.5 -131q-256 0 -451.5 131.5t-305.5 368t-110 552.5q0 317 110.5 553t305.5 367.5t451 131.5q255 0 450.5 -131t305.5 -367.5t110 -553.5zM2287 1024q0 285 -95.5 494t-263.5 323.5t-385 114.5t-385 -113.5t-263.5 -323
t-95.5 -495.5q0 -283 94.5 -492.5t262.5 -324.5t387 -115q217 0 385 114.5t263.5 323.5t95.5 494zM298 1601l176 304l96 148l98 -12l-190 -306l-137 -146zM-16 1981v72h125v-64q0 -119 31.5 -202t113.5 -180l-66 -43q-111 94 -157.5 190.5t-46.5 226.5z" />
    <glyph glyph-name="uni1FF8" unicode="&#x1ff8;" horiz-adv-x="2449" 
d="M2222 1024q0 -317 -110 -553.5t-305.5 -367.5t-450.5 -131q-256 0 -451.5 131.5t-305.5 368t-110 552.5q0 317 110.5 553t305.5 367.5t451 131.5q255 0 450.5 -131t305.5 -367.5t110 -553.5zM2100 1024q0 285 -95.5 494t-263.5 323.5t-385 114.5t-385 -113.5t-263.5 -323
t-95.5 -495.5q0 -283 94.5 -492.5t262.5 -324.5t387 -115q217 0 385 114.5t263.5 323.5t95.5 494zM356 1592l-42 -12l-138 147l-189 306l96 12l97 -148z" />
    <glyph glyph-name="uni03F4" unicode="&#x3f4;" horiz-adv-x="2117" 
d="M1857 1076v-105q-154 -75 -289.5 -86.5t-260.5 13.5t-247 63.5t-247.5 66.5t-260.5 22t-289 -71v108q154 72 289 82t260.5 -16t247.5 -64.5t247 -66t260.5 -20.5t289.5 74zM1925 1024q0 -317 -110 -553.5t-305.5 -367.5t-450.5 -131q-256 0 -451.5 131.5t-305.5 368
t-110 552.5q0 317 110.5 553t305.5 367.5t451 131.5q255 0 450.5 -131t305.5 -367.5t110 -553.5zM1803 1024q0 285 -95.5 494t-263.5 323.5t-385 114.5t-385 -113.5t-263.5 -323t-95.5 -495.5q0 -283 94.5 -492.5t262.5 -324.5t387 -115q217 0 385 114.5t263.5 323.5
t95.5 494z" />
    <glyph glyph-name="uni1FF9" unicode="&#x1ff9;" horiz-adv-x="2235" 
d="M2009 1024q0 -317 -110 -553.5t-305.5 -367.5t-450.5 -131q-256 0 -451.5 131.5t-305.5 368t-110 552.5q0 317 110.5 553t305.5 367.5t451 131.5q255 0 450.5 -131t305.5 -367.5t110 -553.5zM1887 1024q0 285 -95.5 494t-263.5 323.5t-385 114.5t-385 -113.5t-263.5 -323
t-95.5 -495.5q0 -283 94.5 -492.5t262.5 -324.5t387 -115q217 0 385 114.5t263.5 323.5t95.5 494zM162 1728v11l219 457h148v-12l-288 -456h-79z" />
    <glyph glyph-name="uni041E" unicode="&#x41e;" horiz-adv-x="2117" 
d="M1925 1024q0 -317 -110 -553.5t-305.5 -367.5t-450.5 -131q-256 0 -451.5 131.5t-305.5 368t-110 552.5q0 317 110.5 553t305.5 367.5t451 131.5q255 0 450.5 -131t305.5 -367.5t110 -553.5zM1803 1024q0 285 -95.5 494t-263.5 323.5t-385 114.5t-385 -113.5t-263.5 -323
t-95.5 -495.5q0 -283 94.5 -492.5t262.5 -324.5t387 -115q217 0 385 114.5t263.5 323.5t95.5 494z" />
    <glyph glyph-name="uni04E6" unicode="&#x4e6;" horiz-adv-x="2117" 
d="M1925 1024q0 -317 -110 -553.5t-305.5 -367.5t-450.5 -131q-256 0 -451.5 131.5t-305.5 368t-110 552.5q0 317 110.5 553t305.5 367.5t451 131.5q255 0 450.5 -131t305.5 -367.5t110 -553.5zM1803 1024q0 285 -95.5 494t-263.5 323.5t-385 114.5t-385 -113.5t-263.5 -323
t-95.5 -495.5q0 -283 94.5 -492.5t262.5 -324.5t387 -115q217 0 385 114.5t263.5 323.5t95.5 494zM835 2320q-38 0 -67 29t-29 67q0 40 29 68t67 28q40 0 68 -28t28 -68q0 -38 -28 -67t-68 -29zM1283 2320q-38 0 -67 29t-29 67q0 40 29 68t67 28q40 0 68 -28t28 -68
q0 -38 -28 -67t-68 -29z" />
    <glyph glyph-name="uni019F" unicode="&#x19f;" horiz-adv-x="2117" 
d="M1857 1076v-105q-154 -75 -289.5 -86.5t-260.5 13.5t-247 63.5t-247.5 66.5t-260.5 22t-289 -71v108q154 72 289 82t260.5 -16t247.5 -64.5t247 -66t260.5 -20.5t289.5 74zM1925 1024q0 -317 -110 -553.5t-305.5 -367.5t-450.5 -131q-256 0 -451.5 131.5t-305.5 368
t-110 552.5q0 317 110.5 553t305.5 367.5t451 131.5q255 0 450.5 -131t305.5 -367.5t110 -553.5zM1803 1024q0 285 -95.5 494t-263.5 323.5t-385 114.5t-385 -113.5t-263.5 -323t-95.5 -495.5q0 -283 94.5 -492.5t262.5 -324.5t387 -115q217 0 385 114.5t263.5 323.5
t95.5 494z" />
    <glyph glyph-name="uni04E8" unicode="&#x4e8;" horiz-adv-x="2117" 
d="M1857 1076v-105q-154 -75 -289.5 -86.5t-260.5 13.5t-247 63.5t-247.5 66.5t-260.5 22t-289 -71v108q154 72 289 82t260.5 -16t247.5 -64.5t247 -66t260.5 -20.5t289.5 74zM1925 1024q0 -317 -110 -553.5t-305.5 -367.5t-450.5 -131q-256 0 -451.5 131.5t-305.5 368
t-110 552.5q0 317 110.5 553t305.5 367.5t451 131.5q255 0 450.5 -131t305.5 -367.5t110 -553.5zM1803 1024q0 285 -95.5 494t-263.5 323.5t-385 114.5t-385 -113.5t-263.5 -323t-95.5 -495.5q0 -283 94.5 -492.5t262.5 -324.5t387 -115q217 0 385 114.5t263.5 323.5
t95.5 494z" />
    <glyph glyph-name="uni04EA" unicode="&#x4ea;" horiz-adv-x="2117" 
d="M1857 1076v-105q-154 -75 -289.5 -86.5t-260.5 13.5t-247 63.5t-247.5 66.5t-260.5 22t-289 -71v108q154 72 289 82t260.5 -16t247.5 -64.5t247 -66t260.5 -20.5t289.5 74zM1925 1024q0 -317 -110 -553.5t-305.5 -367.5t-450.5 -131q-256 0 -451.5 131.5t-305.5 368
t-110 552.5q0 317 110.5 553t305.5 367.5t451 131.5q255 0 450.5 -131t305.5 -367.5t110 -553.5zM1803 1024q0 285 -95.5 494t-263.5 323.5t-385 114.5t-385 -113.5t-263.5 -323t-95.5 -495.5q0 -283 94.5 -492.5t262.5 -324.5t387 -115q217 0 385 114.5t263.5 323.5
t95.5 494zM835 2320q-38 0 -67 29t-29 67q0 40 29 68t67 28q40 0 68 -28t28 -68q0 -38 -28 -67t-68 -29zM1283 2320q-38 0 -67 29t-29 67q0 40 29 68t67 28q40 0 68 -28t28 -68q0 -38 -28 -67t-68 -29z" />
    <glyph glyph-name="uni0152" unicode="&#x152;" horiz-adv-x="2625" 
d="M1059 0q-259 0 -454 129t-304 359.5t-109 535.5q0 306 109 536.5t304.5 359t453.5 128.5h1345v-116h-1015v-849h954v-116h-954v-851h1039v-116h-1369zM1264 116v1816h-205q-221 1 -388.5 -112.5t-261.5 -318t-94 -477.5q0 -269 93 -474t260.5 -319.5t390.5 -114.5h205z
" />
    <glyph glyph-name="uni0050" unicode="P" horiz-adv-x="1735" 
d="M296 0v2048h631q195 0 334.5 -80t214.5 -219t75 -317q0 -176 -75 -315t-214.5 -219.5t-333.5 -80.5h-544v116h541q158 0 270 64.5t172 177t60 257.5q0 146 -60 259t-172.5 177t-270.5 64h-503v-1932h-125z" />
    <glyph glyph-name="uni1E54" unicode="&#x1e54;" horiz-adv-x="1735" 
d="M296 0v2048h631q195 0 334.5 -80t214.5 -219t75 -317q0 -176 -75 -315t-214.5 -219.5t-333.5 -80.5h-544v116h541q158 0 270 64.5t172 177t60 257.5q0 146 -60 259t-172.5 177t-270.5 64h-503v-1932h-125zM823 2267l268 442h145l-301 -442h-112z" />
    <glyph glyph-name="uni1E56" unicode="&#x1e56;" horiz-adv-x="1735" 
d="M296 0v2048h631q195 0 334.5 -80t214.5 -219t75 -317q0 -176 -75 -315t-214.5 -219.5t-333.5 -80.5h-544v116h541q158 0 270 64.5t172 177t60 257.5q0 146 -60 259t-172.5 177t-270.5 64h-503v-1932h-125zM882 2320q-41 0 -70 28t-29 68t29 68t70 28q40 0 69 -28t29 -68
t-29 -68t-69 -28z" />
    <glyph glyph-name="uni048E" unicode="&#x48e;" horiz-adv-x="1739" 
d="M1139 1283l354 -540l-97 -64l-355 542zM288 0v2048h631q195 0 334.5 -80t214.5 -219t75 -317q0 -176 -75 -315t-214.5 -219.5t-333.5 -80.5h-544v116h541q158 0 270 64.5t172 177t60 257.5q0 146 -60 259t-172.5 177t-270.5 64h-503v-1932h-125z" />
    <glyph glyph-name="uni01A4" unicode="&#x1a4;" horiz-adv-x="2016" 
d="M280 1627h-120v93q1 100 37 173.5t107 114t173 40.5h702q195 0 334.5 -80t214.5 -219t75 -317q0 -176 -75 -315t-214.5 -219.5t-333.5 -80.5h-507v-817h-125v1932h-67q-77 0 -121 -29t-62 -86t-18 -141v-49zM673 933h504q158 0 270 64.5t172 177t60 257.5q0 146 -60 259
t-172.5 177t-270.5 64h-503v-999z" />
    <glyph glyph-name="uni03A1" unicode="&#x3a1;" horiz-adv-x="1735" 
d="M296 0v2048h631q195 0 334.5 -80t214.5 -219t75 -317q0 -176 -75 -315t-214.5 -219.5t-333.5 -80.5h-544v116h541q158 0 270 64.5t172 177t60 257.5q0 146 -60 259t-172.5 177t-270.5 64h-503v-1932h-125z" />
    <glyph glyph-name="uni1FEC" unicode="&#x1fec;" horiz-adv-x="2055" 
d="M616 0v2048h631q195 0 334.5 -80t214.5 -219t75 -317q0 -176 -75 -315t-214.5 -219.5t-333.5 -80.5h-544v116h541q158 0 270 64.5t172 177t60 257.5q0 146 -60 259t-172.5 177t-270.5 64h-503v-1932h-125zM199 1981v72h126v-64q0 -79 13 -140.5t44.5 -119t87.5 -122.5
l-67 -43q-110 94 -157 190.5t-47 226.5z" />
    </font>
</defs>
</svg>
