<?xml version="1.0" standalone="no"?>
<!DOCTYPE svg PUBLIC "-//W3C//DTD SVG 1.1//EN" "http://www.w3.org/Graphics/SVG/1.1/DTD/svg11.dtd" >
<svg xmlns="http://www.w3.org/2000/svg" xmlns:xlink="http://www.w3.org/1999/xlink" version="1.1">
<metadata>
Created by FontForge 20190801 at Thu Jan 23 23:42:53 2020
 By Jimmy Wärting
Copyright 2020 The Inter Project Authors (https://github.com/rsms/inter)
</metadata>
<defs>
<font id="Inter-Bold" horiz-adv-x="0" >
  <font-face 
    font-family="Inter"
    font-weight="700"
    font-stretch="normal"
    units-per-em="2816"
    panose-1="2 11 5 2 3 0 0 0 0 4"
    ascent="2252"
    descent="-564"
    x-height="1536"
    cap-height="2048"
    bbox="-2234 -900 7274 3272"
    underline-thickness="192"
    underline-position="-560"
    unicode-range="U+0020-1F852"
  />
<missing-glyph horiz-adv-x="2956" 
d="M291 -640v512h2374v-512h-2374zM291 1472v512h2374v-512h-2374zM291 2176v512h2374v-512h-2374zM291 64v512h2374v-512h-2374zM291 768v512h2374v-512h-2374z" />
    <glyph glyph-name="uni24B6" unicode="A&#x20dd;" horiz-adv-x="3912" 
d="M1434 0h-464l707 2048h558l706 -2048h-464l-513 1580h-16zM1405 805h1096v-338h-1096v338zM1956 -900q-319 0 -607.5 97t-529 273.5t-417 417t-273.5 529t-97 607.5t97 607.5t273.5 529t417 417t529 273.5t607.5 97t607.5 -97t529 -273.5t417 -417t273.5 -529t97 -607.5
t-97 -607.5t-273.5 -529t-417 -417t-529 -273.5t-607.5 -97zM1956 -615q272 0 517.5 82.5t450.5 233t355.5 355.5t233 451t82.5 517q0 272 -82.5 517.5t-233 450.5t-355.5 355.5t-450.5 233t-517.5 82.5t-518 -82.5t-450.5 -233t-355 -355.5t-233 -450.5t-82.5 -517.5
t82.5 -517.5t233 -450.5t355 -355.5t450.5 -233t518 -82.5z" />
    <glyph glyph-name="uni24B7" unicode="B&#x20dd;" horiz-adv-x="3912" 
d="M1246 0v2048h820q226 0 377 -67t227 -185.5t76 -272.5q0 -120 -48 -210.5t-131.5 -148t-190.5 -81.5v-20q117 -5 219.5 -66t166.5 -170.5t64 -260.5q0 -163 -80.5 -290.5t-237.5 -201.5t-387 -74h-875zM1679 354h353q181 0 264 69.5t83 185.5q0 85 -41 150t-116.5 102
t-179.5 37h-363v-544zM1679 1191h321q89 0 158.5 31.5t110 89.5t40.5 139q0 111 -78.5 179t-222.5 68h-329v-507zM1956 -900q-319 0 -607.5 97t-529 273.5t-417 417t-273.5 529t-97 607.5t97 607.5t273.5 529t417 417t529 273.5t607.5 97t607.5 -97t529 -273.5t417 -417
t273.5 -529t97 -607.5t-97 -607.5t-273.5 -529t-417 -417t-529 -273.5t-607.5 -97zM1956 -615q272 0 517.5 82.5t450.5 233t355.5 355.5t233 451t82.5 517q0 272 -82.5 517.5t-233 450.5t-355.5 355.5t-450.5 233t-517.5 82.5t-518 -82.5t-450.5 -233t-355 -355.5
t-233 -450.5t-82.5 -517.5t82.5 -517.5t233 -450.5t355 -355.5t450.5 -233t518 -82.5z" />
    <glyph glyph-name="uni24B8" unicode="C&#x20dd;" horiz-adv-x="3912" 
d="M2878 1331h-438q-12 85 -49 151.5t-95 113.5t-133.5 72t-163.5 25q-159 0 -277 -78.5t-183 -228t-65 -362.5q0 -219 65.5 -368t183.5 -225t273 -76q87 0 161.5 23t132.5 67.5t96.5 108.5t53.5 146l438 -2q-17 -141 -84.5 -271.5t-181 -233t-270 -162t-353.5 -59.5
q-274 0 -489.5 124t-340 359t-124.5 569q0 335 126 570t342 358.5t486 123.5q178 0 330.5 -50t270.5 -145.5t192.5 -233.5t95.5 -316zM1956 -900q-319 0 -607.5 97t-529 273.5t-417 417t-273.5 529t-97 607.5t97 607.5t273.5 529t417 417t529 273.5t607.5 97t607.5 -97
t529 -273.5t417 -417t273.5 -529t97 -607.5t-97 -607.5t-273.5 -529t-417 -417t-529 -273.5t-607.5 -97zM1956 -615q272 0 517.5 82.5t450.5 233t355.5 355.5t233 451t82.5 517q0 272 -82.5 517.5t-233 450.5t-355.5 355.5t-450.5 233t-517.5 82.5t-518 -82.5t-450.5 -233
t-355 -355.5t-233 -450.5t-82.5 -517.5t82.5 -517.5t233 -450.5t355 -355.5t450.5 -233t518 -82.5z" />
    <glyph glyph-name="uni24B9" unicode="D&#x20dd;" horiz-adv-x="3912" 
d="M1987 0h-726v2048h732q309 0 532 -122.5t343.5 -351.5t120.5 -548q0 -320 -120.5 -550t-345 -353t-536.5 -123zM1694 371h275q192 0 323.5 68.5t198 213t66.5 373.5q0 227 -66.5 371t-197.5 212t-323 68h-276v-1306zM1956 -900q-319 0 -607.5 97t-529 273.5t-417 417
t-273.5 529t-97 607.5t97 607.5t273.5 529t417 417t529 273.5t607.5 97t607.5 -97t529 -273.5t417 -417t273.5 -529t97 -607.5t-97 -607.5t-273.5 -529t-417 -417t-529 -273.5t-607.5 -97zM1956 -615q272 0 517.5 82.5t450.5 233t355.5 355.5t233 451t82.5 517
q0 272 -82.5 517.5t-233 450.5t-355.5 355.5t-450.5 233t-517.5 82.5t-518 -82.5t-450.5 -233t-355 -355.5t-233 -450.5t-82.5 -517.5t82.5 -517.5t233 -450.5t355 -355.5t450.5 -233t518 -82.5z" />
    <glyph glyph-name="uni24BA" unicode="E&#x20dd;" horiz-adv-x="3912" 
d="M1262 0v2048h1380v-357h-947v-488h876v-357h-876v-489h951v-357h-1384zM1956 -900q-319 0 -607.5 97t-529 273.5t-417 417t-273.5 529t-97 607.5t97 607.5t273.5 529t417 417t529 273.5t607.5 97t607.5 -97t529 -273.5t417 -417t273.5 -529t97 -607.5t-97 -607.5
t-273.5 -529t-417 -417t-529 -273.5t-607.5 -97zM1956 -615q272 0 517.5 82.5t450.5 233t355.5 355.5t233 451t82.5 517q0 272 -82.5 517.5t-233 450.5t-355.5 355.5t-450.5 233t-517.5 82.5t-518 -82.5t-450.5 -233t-355 -355.5t-233 -450.5t-82.5 -517.5t82.5 -517.5
t233 -450.5t355 -355.5t450.5 -233t518 -82.5z" />
    <glyph glyph-name="uni24BB" unicode="F&#x20dd;" horiz-adv-x="3912" 
d="M1278 0v2048h1356v-357h-923v-488h833v-357h-833v-846h-433zM1956 -900q-319 0 -607.5 97t-529 273.5t-417 417t-273.5 529t-97 607.5t97 607.5t273.5 529t417 417t529 273.5t607.5 97t607.5 -97t529 -273.5t417 -417t273.5 -529t97 -607.5t-97 -607.5t-273.5 -529
t-417 -417t-529 -273.5t-607.5 -97zM1956 -615q272 0 517.5 82.5t450.5 233t355.5 355.5t233 451t82.5 517q0 272 -82.5 517.5t-233 450.5t-355.5 355.5t-450.5 233t-517.5 82.5t-518 -82.5t-450.5 -233t-355 -355.5t-233 -450.5t-82.5 -517.5t82.5 -517.5t233 -450.5
t355 -355.5t450.5 -233t518 -82.5z" />
    <glyph glyph-name="uni24BC" unicode="G&#x20dd;" horiz-adv-x="3912" 
d="M2424 1386q-21 73 -59 129.5t-92.5 96t-124 60.5t-153.5 21q-157 0 -275.5 -78t-184.5 -226.5t-66 -362.5t65 -364t184 -228.5t281 -78.5q147 0 251.5 52.5t160 148.5t55.5 227l88 -13h-528v326h857v-258q0 -270 -114 -463.5t-314 -298t-458 -104.5q-288 0 -506 127.5
t-339.5 363t-121.5 559.5q0 249 72.5 444.5t203.5 331.5t305 207t377 71q174 0 324 -50.5t266.5 -142.5t190.5 -218.5t95 -278.5h-440zM1956 -900q-319 0 -607.5 97t-529 273.5t-417 417t-273.5 529t-97 607.5t97 607.5t273.5 529t417 417t529 273.5t607.5 97t607.5 -97
t529 -273.5t417 -417t273.5 -529t97 -607.5t-97 -607.5t-273.5 -529t-417 -417t-529 -273.5t-607.5 -97zM1956 -615q272 0 517.5 82.5t450.5 233t355.5 355.5t233 451t82.5 517q0 272 -82.5 517.5t-233 450.5t-355.5 355.5t-450.5 233t-517.5 82.5t-518 -82.5t-450.5 -233
t-355 -355.5t-233 -450.5t-82.5 -517.5t82.5 -517.5t233 -450.5t355 -355.5t450.5 -233t518 -82.5z" />
    <glyph glyph-name="uni24BD" unicode="H&#x20dd;" horiz-adv-x="3912" 
d="M1074 0v2048h433v-845h879v845h432v-2048h-432v846h-879v-846h-433zM1956 -900q-319 0 -607.5 97t-529 273.5t-417 417t-273.5 529t-97 607.5t97 607.5t273.5 529t417 417t529 273.5t607.5 97t607.5 -97t529 -273.5t417 -417t273.5 -529t97 -607.5t-97 -607.5
t-273.5 -529t-417 -417t-529 -273.5t-607.5 -97zM1956 -615q272 0 517.5 82.5t450.5 233t355.5 355.5t233 451t82.5 517q0 272 -82.5 517.5t-233 450.5t-355.5 355.5t-450.5 233t-517.5 82.5t-518 -82.5t-450.5 -233t-355 -355.5t-233 -450.5t-82.5 -517.5t82.5 -517.5
t233 -450.5t355 -355.5t450.5 -233t518 -82.5z" />
    <glyph glyph-name="uni24BE" unicode="I&#x20dd;" horiz-adv-x="3912" 
d="M2172 2048v-2048h-433v2048h433zM1956 -900q-319 0 -607.5 97t-529 273.5t-417 417t-273.5 529t-97 607.5t97 607.5t273.5 529t417 417t529 273.5t607.5 97t607.5 -97t529 -273.5t417 -417t273.5 -529t97 -607.5t-97 -607.5t-273.5 -529t-417 -417t-529 -273.5
t-607.5 -97zM1956 -615q272 0 517.5 82.5t450.5 233t355.5 355.5t233 451t82.5 517q0 272 -82.5 517.5t-233 450.5t-355.5 355.5t-450.5 233t-517.5 82.5t-518 -82.5t-450.5 -233t-355 -355.5t-233 -450.5t-82.5 -517.5t82.5 -517.5t233 -450.5t355 -355.5t450.5 -233
t518 -82.5z" />
    <glyph glyph-name="uni24BF" unicode="J&#x20dd;" horiz-adv-x="3912" 
d="M2152 2048h428v-1428q0 -198 -88.5 -344t-245.5 -225t-365 -79q-185 0 -335.5 65.5t-238.5 200t-87 338.5h431q2 -81 33.5 -138.5t87 -88t131.5 -30.5q80 0 135.5 34.5t84.5 101.5t29 165v1428zM1956 -900q-319 0 -607.5 97t-529 273.5t-417 417t-273.5 529t-97 607.5
t97 607.5t273.5 529t417 417t529 273.5t607.5 97t607.5 -97t529 -273.5t417 -417t273.5 -529t97 -607.5t-97 -607.5t-273.5 -529t-417 -417t-529 -273.5t-607.5 -97zM1956 -615q272 0 517.5 82.5t450.5 233t355.5 355.5t233 451t82.5 517q0 272 -82.5 517.5t-233 450.5
t-355.5 355.5t-450.5 233t-517.5 82.5t-518 -82.5t-450.5 -233t-355 -355.5t-233 -450.5t-82.5 -517.5t82.5 -517.5t233 -450.5t355 -355.5t450.5 -233t518 -82.5z" />
    <glyph glyph-name="uni24C0" unicode="K&#x20dd;" horiz-adv-x="3912" 
d="M1146 0v2048h433v-903h27l737 903h519l-760 -917l769 -1131h-518l-561 842l-213 -260v-582h-433zM1956 -900q-319 0 -607.5 97t-529 273.5t-417 417t-273.5 529t-97 607.5t97 607.5t273.5 529t417 417t529 273.5t607.5 97t607.5 -97t529 -273.5t417 -417t273.5 -529
t97 -607.5t-97 -607.5t-273.5 -529t-417 -417t-529 -273.5t-607.5 -97zM1956 -615q272 0 517.5 82.5t450.5 233t355.5 355.5t233 451t82.5 517q0 272 -82.5 517.5t-233 450.5t-355.5 355.5t-450.5 233t-517.5 82.5t-518 -82.5t-450.5 -233t-355 -355.5t-233 -450.5
t-82.5 -517.5t82.5 -517.5t233 -450.5t355 -355.5t450.5 -233t518 -82.5z" />
    <glyph glyph-name="uni24C1" unicode="L&#x20dd;" horiz-adv-x="3912" 
d="M1348 0v2048h433v-1691h878v-357h-1311zM1956 -900q-319 0 -607.5 97t-529 273.5t-417 417t-273.5 529t-97 607.5t97 607.5t273.5 529t417 417t529 273.5t607.5 97t607.5 -97t529 -273.5t417 -417t273.5 -529t97 -607.5t-97 -607.5t-273.5 -529t-417 -417t-529 -273.5
t-607.5 -97zM1956 -615q272 0 517.5 82.5t450.5 233t355.5 355.5t233 451t82.5 517q0 272 -82.5 517.5t-233 450.5t-355.5 355.5t-450.5 233t-517.5 82.5t-518 -82.5t-450.5 -233t-355 -355.5t-233 -450.5t-82.5 -517.5t82.5 -517.5t233 -450.5t355 -355.5t450.5 -233
t518 -82.5z" />
    <glyph glyph-name="uni24C2" unicode="M&#x20dd;" horiz-adv-x="3912" 
d="M846 2048h534l564 -1376h24l564 1376h534v-2048h-420v1333h-17l-530 -1323h-286l-530 1328h-17v-1338h-420v2048zM1956 -900q-319 0 -607.5 97t-529 273.5t-417 417t-273.5 529t-97 607.5t97 607.5t273.5 529t417 417t529 273.5t607.5 97t607.5 -97t529 -273.5t417 -417
t273.5 -529t97 -607.5t-97 -607.5t-273.5 -529t-417 -417t-529 -273.5t-607.5 -97zM1956 -615q272 0 517.5 82.5t450.5 233t355.5 355.5t233 451t82.5 517q0 272 -82.5 517.5t-233 450.5t-355.5 355.5t-450.5 233t-517.5 82.5t-518 -82.5t-450.5 -233t-355 -355.5
t-233 -450.5t-82.5 -517.5t82.5 -517.5t233 -450.5t355 -355.5t450.5 -233t518 -82.5z" />
    <glyph glyph-name="uni24C3" unicode="N&#x20dd;" horiz-adv-x="3912" 
d="M2812 2048v-2048h-374l-891 1289h-15v-1289h-433v2048h380l884 -1288h18v1288h431zM1956 -900q-319 0 -607.5 97t-529 273.5t-417 417t-273.5 529t-97 607.5t97 607.5t273.5 529t417 417t529 273.5t607.5 97t607.5 -97t529 -273.5t417 -417t273.5 -529t97 -607.5
t-97 -607.5t-273.5 -529t-417 -417t-529 -273.5t-607.5 -97zM1956 -615q272 0 517.5 82.5t450.5 233t355.5 355.5t233 451t82.5 517q0 272 -82.5 517.5t-233 450.5t-355.5 355.5t-450.5 233t-517.5 82.5t-518 -82.5t-450.5 -233t-355 -355.5t-233 -450.5t-82.5 -517.5
t82.5 -517.5t233 -450.5t355 -355.5t450.5 -233t518 -82.5z" />
    <glyph glyph-name="uni24C4" unicode="O&#x20dd;" horiz-adv-x="3912" 
d="M2915 1024q0 -335 -126.5 -570t-344 -358.5t-488.5 -123.5q-273 0 -490 124t-343 359t-126 569q0 335 126 570t343 358.5t490 123.5q271 0 488.5 -123.5t344 -358.5t126.5 -570zM2476 1024q0 217 -64.5 366t-181.5 226t-274 77t-274 -77t-181.5 -226t-64.5 -366
t64.5 -366t181.5 -226t274 -77t274 77t181.5 226t64.5 366zM1956 -900q-319 0 -607.5 97t-529 273.5t-417 417t-273.5 529t-97 607.5t97 607.5t273.5 529t417 417t529 273.5t607.5 97t607.5 -97t529 -273.5t417 -417t273.5 -529t97 -607.5t-97 -607.5t-273.5 -529t-417 -417
t-529 -273.5t-607.5 -97zM1956 -615q272 0 517.5 82.5t450.5 233t355.5 355.5t233 451t82.5 517q0 272 -82.5 517.5t-233 450.5t-355.5 355.5t-450.5 233t-517.5 82.5t-518 -82.5t-450.5 -233t-355 -355.5t-233 -450.5t-82.5 -517.5t82.5 -517.5t233 -450.5t355 -355.5
t450.5 -233t518 -82.5z" />
    <glyph glyph-name="uni24C5" unicode="P&#x20dd;" horiz-adv-x="3912" 
d="M1273 0v2048h808q233 0 397 -88.5t250.5 -245t86.5 -360.5t-88 -360t-254.5 -243t-402.5 -87h-515v347h445q125 0 206.5 43.5t122 121t40.5 178.5q0 102 -40.5 178.5t-122.5 119t-208 42.5h-292v-1694h-433zM1956 -900q-319 0 -607.5 97t-529 273.5t-417 417t-273.5 529
t-97 607.5t97 607.5t273.5 529t417 417t529 273.5t607.5 97t607.5 -97t529 -273.5t417 -417t273.5 -529t97 -607.5t-97 -607.5t-273.5 -529t-417 -417t-529 -273.5t-607.5 -97zM1956 -615q272 0 517.5 82.5t450.5 233t355.5 355.5t233 451t82.5 517q0 272 -82.5 517.5
t-233 450.5t-355.5 355.5t-450.5 233t-517.5 82.5t-518 -82.5t-450.5 -233t-355 -355.5t-233 -450.5t-82.5 -517.5t82.5 -517.5t233 -450.5t355 -355.5t450.5 -233t518 -82.5z" />
    <glyph glyph-name="uni24C6" unicode="Q&#x20dd;" horiz-adv-x="3912" 
d="M1805 712h368l185 -238l182 -212l343 -430h-404l-236 290l-121 172zM2914 1024q0 -335 -126.5 -570t-344 -358.5t-488.5 -123.5q-273 0 -490 124t-343 359t-126 569q0 335 126 570t343 358.5t490 123.5q271 0 488.5 -123.5t344 -358.5t126.5 -570zM2475 1024
q0 217 -64.5 366t-181.5 226t-274 77t-274 -77t-181.5 -226t-64.5 -366t64.5 -366t181.5 -226t274 -77t274 77t181.5 226t64.5 366zM1956 -900q-319 0 -607.5 97t-529 273.5t-417 417t-273.5 529t-97 607.5t97 607.5t273.5 529t417 417t529 273.5t607.5 97t607.5 -97
t529 -273.5t417 -417t273.5 -529t97 -607.5t-97 -607.5t-273.5 -529t-417 -417t-529 -273.5t-607.5 -97zM1956 -615q272 0 517.5 82.5t450.5 233t355.5 355.5t233 451t82.5 517q0 272 -82.5 517.5t-233 450.5t-355.5 355.5t-450.5 233t-517.5 82.5t-518 -82.5t-450.5 -233
t-355 -355.5t-233 -450.5t-82.5 -517.5t82.5 -517.5t233 -450.5t355 -355.5t450.5 -233t518 -82.5z" />
    <glyph glyph-name="uni24C7" unicode="R&#x20dd;" horiz-adv-x="3912" 
d="M1220 0v2048h808q232 0 396.5 -82.5t251 -233t86.5 -353.5q0 -204 -88 -350.5t-254.5 -224.5t-402.5 -78h-541v348h471q124 0 206 34t122.5 102t40.5 169q0 102 -40.5 172t-123 106.5t-207.5 36.5h-292v-1694h-433zM2326 932l509 -932h-478l-498 932h467zM1956 -900
q-319 0 -607.5 97t-529 273.5t-417 417t-273.5 529t-97 607.5t97 607.5t273.5 529t417 417t529 273.5t607.5 97t607.5 -97t529 -273.5t417 -417t273.5 -529t97 -607.5t-97 -607.5t-273.5 -529t-417 -417t-529 -273.5t-607.5 -97zM1956 -615q272 0 517.5 82.5t450.5 233
t355.5 355.5t233 451t82.5 517q0 272 -82.5 517.5t-233 450.5t-355.5 355.5t-450.5 233t-517.5 82.5t-518 -82.5t-450.5 -233t-355 -355.5t-233 -450.5t-82.5 -517.5t82.5 -517.5t233 -450.5t355 -355.5t450.5 -233t518 -82.5z" />
    <glyph glyph-name="uni24C8" unicode="S&#x20dd;" horiz-adv-x="3912" 
d="M2323 1459q-12 121 -103 188t-247 67q-106 0 -179 -29.5t-111.5 -81.5t-38.5 -118q-2 -55 23.5 -96t70.5 -70.5t104 -51t126 -36.5l184 -44q134 -30 246 -80t194 -123t127.5 -172t46.5 -227q-1 -188 -95.5 -325.5t-272 -213t-427.5 -75.5q-248 0 -431.5 76t-286 225.5
t-107.5 370.5h419q7 -103 59.5 -171.5t141 -103t200.5 -34.5q110 0 191.5 32t126.5 89t45 131q0 69 -40.5 116t-118 80t-189.5 60l-223 56q-259 63 -409 197t-149 361q-1 186 99.5 325t276.5 217t400 78q228 0 398.5 -78t265.5 -217t98 -322h-415zM1956 -900
q-319 0 -607.5 97t-529 273.5t-417 417t-273.5 529t-97 607.5t97 607.5t273.5 529t417 417t529 273.5t607.5 97t607.5 -97t529 -273.5t417 -417t273.5 -529t97 -607.5t-97 -607.5t-273.5 -529t-417 -417t-529 -273.5t-607.5 -97zM1956 -615q272 0 517.5 82.5t450.5 233
t355.5 355.5t233 451t82.5 517q0 272 -82.5 517.5t-233 450.5t-355.5 355.5t-450.5 233t-517.5 82.5t-518 -82.5t-450.5 -233t-355 -355.5t-233 -450.5t-82.5 -517.5t82.5 -517.5t233 -450.5t355 -355.5t450.5 -233t518 -82.5z" />
    <glyph glyph-name="uni24C9" unicode="T&#x20dd;" horiz-adv-x="3912" 
d="M1115 1691v357h1682v-357h-627v-1691h-428v1691h-627zM1956 -900q-319 0 -607.5 97t-529 273.5t-417 417t-273.5 529t-97 607.5t97 607.5t273.5 529t417 417t529 273.5t607.5 97t607.5 -97t529 -273.5t417 -417t273.5 -529t97 -607.5t-97 -607.5t-273.5 -529t-417 -417
t-529 -273.5t-607.5 -97zM1956 -615q272 0 517.5 82.5t450.5 233t355.5 355.5t233 451t82.5 517q0 272 -82.5 517.5t-233 450.5t-355.5 355.5t-450.5 233t-517.5 82.5t-518 -82.5t-450.5 -233t-355 -355.5t-233 -450.5t-82.5 -517.5t82.5 -517.5t233 -450.5t355 -355.5
t450.5 -233t518 -82.5z" />
    <glyph glyph-name="uni24CA" unicode="U&#x20dd;" horiz-adv-x="3912" 
d="M2372 2048h433v-1330q0 -224 -106.5 -392t-297.5 -261.5t-445 -93.5q-255 0 -446 93.5t-297 261.5t-106 392v1330h433v-1293q0 -117 51.5 -208t145.5 -143t219 -52q126 0 219.5 52t145 143t51.5 208v1293zM1956 -900q-319 0 -607.5 97t-529 273.5t-417 417t-273.5 529
t-97 607.5t97 607.5t273.5 529t417 417t529 273.5t607.5 97t607.5 -97t529 -273.5t417 -417t273.5 -529t97 -607.5t-97 -607.5t-273.5 -529t-417 -417t-529 -273.5t-607.5 -97zM1956 -615q272 0 517.5 82.5t450.5 233t355.5 355.5t233 451t82.5 517q0 272 -82.5 517.5
t-233 450.5t-355.5 355.5t-450.5 233t-517.5 82.5t-518 -82.5t-450.5 -233t-355 -355.5t-233 -450.5t-82.5 -517.5t82.5 -517.5t233 -450.5t355 -355.5t450.5 -233t518 -82.5z" />
    <glyph glyph-name="uni24CB" unicode="V&#x20dd;" horiz-adv-x="3912" 
d="M1451 2048l495 -1556h19l496 1556h480l-706 -2048h-558l-707 2048h481zM1956 -900q-319 0 -607.5 97t-529 273.5t-417 417t-273.5 529t-97 607.5t97 607.5t273.5 529t417 417t529 273.5t607.5 97t607.5 -97t529 -273.5t417 -417t273.5 -529t97 -607.5t-97 -607.5
t-273.5 -529t-417 -417t-529 -273.5t-607.5 -97zM1956 -615q272 0 517.5 82.5t450.5 233t355.5 355.5t233 451t82.5 517q0 272 -82.5 517.5t-233 450.5t-355.5 355.5t-450.5 233t-517.5 82.5t-518 -82.5t-450.5 -233t-355 -355.5t-233 -450.5t-82.5 -517.5t82.5 -517.5
t233 -450.5t355 -355.5t450.5 -233t518 -82.5z" />
    <glyph glyph-name="uni24CC" unicode="W&#x20dd;" horiz-adv-x="3912" 
d="M1137 0l-586 2048h473l339 -1423h17l374 1423h405l373 -1426h18l339 1426h473l-586 -2048h-422l-390 1339h-16l-389 -1339h-422zM1956 -900q-319 0 -607.5 97t-529 273.5t-417 417t-273.5 529t-97 607.5t97 607.5t273.5 529t417 417t529 273.5t607.5 97t607.5 -97
t529 -273.5t417 -417t273.5 -529t97 -607.5t-97 -607.5t-273.5 -529t-417 -417t-529 -273.5t-607.5 -97zM1956 -615q272 0 517.5 82.5t450.5 233t355.5 355.5t233 451t82.5 517q0 272 -82.5 517.5t-233 450.5t-355.5 355.5t-450.5 233t-517.5 82.5t-518 -82.5t-450.5 -233
t-355 -355.5t-233 -450.5t-82.5 -517.5t82.5 -517.5t233 -450.5t355 -355.5t450.5 -233t518 -82.5z" />
    <glyph glyph-name="uni24CD" unicode="X&#x20dd;" horiz-adv-x="3912" 
d="M1535 2048l413 -698h16l415 698h489l-625 -1024l639 -1024h-498l-420 699h-16l-420 -699h-496l641 1024l-629 1024h491zM1956 -900q-319 0 -607.5 97t-529 273.5t-417 417t-273.5 529t-97 607.5t97 607.5t273.5 529t417 417t529 273.5t607.5 97t607.5 -97t529 -273.5
t417 -417t273.5 -529t97 -607.5t-97 -607.5t-273.5 -529t-417 -417t-529 -273.5t-607.5 -97zM1956 -615q272 0 517.5 82.5t450.5 233t355.5 355.5t233 451t82.5 517q0 272 -82.5 517.5t-233 450.5t-355.5 355.5t-450.5 233t-517.5 82.5t-518 -82.5t-450.5 -233t-355 -355.5
t-233 -450.5t-82.5 -517.5t82.5 -517.5t233 -450.5t355 -355.5t450.5 -233t518 -82.5z" />
    <glyph glyph-name="uni24CE" unicode="Y&#x20dd;" horiz-adv-x="3912" 
d="M994 2048h485l467 -882h20l467 882h485l-747 -1324v-724h-430v724zM1956 -900q-319 0 -607.5 97t-529 273.5t-417 417t-273.5 529t-97 607.5t97 607.5t273.5 529t417 417t529 273.5t607.5 97t607.5 -97t529 -273.5t417 -417t273.5 -529t97 -607.5t-97 -607.5t-273.5 -529
t-417 -417t-529 -273.5t-607.5 -97zM1956 -615q272 0 517.5 82.5t450.5 233t355.5 355.5t233 451t82.5 517q0 272 -82.5 517.5t-233 450.5t-355.5 355.5t-450.5 233t-517.5 82.5t-518 -82.5t-450.5 -233t-355 -355.5t-233 -450.5t-82.5 -517.5t82.5 -517.5t233 -450.5
t355 -355.5t450.5 -233t518 -82.5z" />
    <glyph glyph-name="uni24CF" unicode="Z&#x20dd;" horiz-adv-x="3912" 
d="M1173 0v257l1022 1434h-1024v357h1568v-257l-1023 -1434h1025v-357h-1568zM1956 -900q-319 0 -607.5 97t-529 273.5t-417 417t-273.5 529t-97 607.5t97 607.5t273.5 529t417 417t529 273.5t607.5 97t607.5 -97t529 -273.5t417 -417t273.5 -529t97 -607.5t-97 -607.5
t-273.5 -529t-417 -417t-529 -273.5t-607.5 -97zM1956 -615q272 0 517.5 82.5t450.5 233t355.5 355.5t233 451t82.5 517q0 272 -82.5 517.5t-233 450.5t-355.5 355.5t-450.5 233t-517.5 82.5t-518 -82.5t-450.5 -233t-355 -355.5t-233 -450.5t-82.5 -517.5t82.5 -517.5
t233 -450.5t355 -355.5t450.5 -233t518 -82.5z" />
    <glyph glyph-name="uni24EA" unicode="&#x30;&#x20dd;" horiz-adv-x="3912" 
d="M1956 -45q-258 1 -443.5 127t-285 365t-98.5 575q0 335 99.5 571t285 359.5t442.5 123.5t442.5 -124t285.5 -359.5t99 -570.5q0 -337 -99.5 -576t-284.5 -365t-443 -126zM1956 314q176 0 281 177t104 531q0 233 -47.5 388t-134 233t-203.5 78q-175 0 -280 -175t-106 -524
q0 -236 47.5 -393.5t134.5 -236t204 -78.5zM1956 -900q-319 0 -607.5 97t-529 273.5t-417 417t-273.5 529t-97 607.5t97 607.5t273.5 529t417 417t529 273.5t607.5 97t607.5 -97t529 -273.5t417 -417t273.5 -529t97 -607.5t-97 -607.5t-273.5 -529t-417 -417t-529 -273.5
t-607.5 -97zM1956 -615q272 0 517.5 82.5t450.5 233t355.5 355.5t233 451t82.5 517q0 272 -82.5 517.5t-233 450.5t-355.5 355.5t-450.5 233t-517.5 82.5t-518 -82.5t-450.5 -233t-355 -355.5t-233 -450.5t-82.5 -517.5t82.5 -517.5t233 -450.5t355 -355.5t450.5 -233
t518 -82.5z" />
    <glyph glyph-name="uni2460" unicode="&#x31;&#x20dd;" horiz-adv-x="3912" 
d="M2224 2048v-2048h-433v1637h-12l-469 -294v384l507 321h407zM1956 -900q-319 0 -607.5 97t-529 273.5t-417 417t-273.5 529t-97 607.5t97 607.5t273.5 529t417 417t529 273.5t607.5 97t607.5 -97t529 -273.5t417 -417t273.5 -529t97 -607.5t-97 -607.5t-273.5 -529
t-417 -417t-529 -273.5t-607.5 -97zM1956 -615q272 0 517.5 82.5t450.5 233t355.5 355.5t233 451t82.5 517q0 272 -82.5 517.5t-233 450.5t-355.5 355.5t-450.5 233t-517.5 82.5t-518 -82.5t-450.5 -233t-355 -355.5t-233 -450.5t-82.5 -517.5t82.5 -517.5t233 -450.5
t355 -355.5t450.5 -233t518 -82.5z" />
    <glyph glyph-name="uni2461" unicode="&#x32;&#x20dd;" horiz-adv-x="3912" 
d="M1238 0v312l729 675q93 90 156.5 162t96.5 141.5t33 150.5q0 90 -41 155.5t-112 101t-161 35.5q-94 0 -164 -38t-108 -109t-38 -169h-411q0 201 91 349t255 229t378 81q220 0 383.5 -77.5t254.5 -214.5t91 -314q0 -116 -45.5 -229t-161.5 -250.5t-327 -329.5l-299 -293
v-14h860v-354h-1460zM1956 -900q-319 0 -607.5 97t-529 273.5t-417 417t-273.5 529t-97 607.5t97 607.5t273.5 529t417 417t529 273.5t607.5 97t607.5 -97t529 -273.5t417 -417t273.5 -529t97 -607.5t-97 -607.5t-273.5 -529t-417 -417t-529 -273.5t-607.5 -97zM1956 -615
q272 0 517.5 82.5t450.5 233t355.5 355.5t233 451t82.5 517q0 272 -82.5 517.5t-233 450.5t-355.5 355.5t-450.5 233t-517.5 82.5t-518 -82.5t-450.5 -233t-355 -355.5t-233 -450.5t-82.5 -517.5t82.5 -517.5t233 -450.5t355 -355.5t450.5 -233t518 -82.5z" />
    <glyph glyph-name="uni2462" unicode="&#x33;&#x20dd;" horiz-adv-x="3912" 
d="M1951 -28q-224 0 -398.5 77.5t-275 214t-103.5 315.5h436q4 -75 49.5 -131.5t121.5 -87.5t171 -31q99 0 175 35t119 97t43 143q0 82 -45.5 145.5t-130 99.5t-200.5 36h-191v318h191q98 0 173.5 34t117.5 94.5t42 141.5q0 77 -36.5 135.5t-102 91.5t-152.5 33
q-88 0 -161 -31.5t-117 -89.5t-47 -136h-415q3 177 101 312t264.5 211.5t376.5 76.5q212 0 371 -77t247.5 -207.5t87.5 -292.5q1 -172 -106.5 -287t-279.5 -146v-16q226 -29 344.5 -156.5t117.5 -318.5q1 -175 -100.5 -311t-279.5 -214t-408 -78zM1956 -900
q-319 0 -607.5 97t-529 273.5t-417 417t-273.5 529t-97 607.5t97 607.5t273.5 529t417 417t529 273.5t607.5 97t607.5 -97t529 -273.5t417 -417t273.5 -529t97 -607.5t-97 -607.5t-273.5 -529t-417 -417t-529 -273.5t-607.5 -97zM1956 -615q272 0 517.5 82.5t450.5 233
t355.5 355.5t233 451t82.5 517q0 272 -82.5 517.5t-233 450.5t-355.5 355.5t-450.5 233t-517.5 82.5t-518 -82.5t-450.5 -233t-355 -355.5t-233 -450.5t-82.5 -517.5t82.5 -517.5t233 -450.5t355 -355.5t450.5 -233t518 -82.5z" />
    <glyph glyph-name="uni2463" unicode="&#x34;&#x20dd;" horiz-adv-x="3912" 
d="M1023 360v341l855 1347h294v-472h-174l-539 -853v-16h1215v-347h-1651zM2006 0v464l8 151v1433h406v-2048h-414zM1956 -900q-319 0 -607.5 97t-529 273.5t-417 417t-273.5 529t-97 607.5t97 607.5t273.5 529t417 417t529 273.5t607.5 97t607.5 -97t529 -273.5t417 -417
t273.5 -529t97 -607.5t-97 -607.5t-273.5 -529t-417 -417t-529 -273.5t-607.5 -97zM1956 -615q272 0 517.5 82.5t450.5 233t355.5 355.5t233 451t82.5 517q0 272 -82.5 517.5t-233 450.5t-355.5 355.5t-450.5 233t-517.5 82.5t-518 -82.5t-450.5 -233t-355 -355.5
t-233 -450.5t-82.5 -517.5t82.5 -517.5t233 -450.5t355 -355.5t450.5 -233t518 -82.5z" />
    <glyph glyph-name="uni2464" unicode="&#x35;&#x20dd;" horiz-adv-x="3912" 
d="M1944 -28q-212 0 -377.5 78t-262.5 215t-101 314h420q7 -119 100 -193t221 -74q102 0 180.5 45.5t123 127t44.5 187.5q0 108 -45.5 190t-125.5 128t-183 47q-90 0 -174.5 -37t-131.5 -101l-385 69l97 1080h1252v-354h-895l-53 -513h12q54 76 163 126t244 50
q185 0 330 -87t229 -238.5t83 -348.5q1 -207 -95.5 -367.5t-269 -252t-400.5 -91.5zM1956 -900q-319 0 -607.5 97t-529 273.5t-417 417t-273.5 529t-97 607.5t97 607.5t273.5 529t417 417t529 273.5t607.5 97t607.5 -97t529 -273.5t417 -417t273.5 -529t97 -607.5
t-97 -607.5t-273.5 -529t-417 -417t-529 -273.5t-607.5 -97zM1956 -615q272 0 517.5 82.5t450.5 233t355.5 355.5t233 451t82.5 517q0 272 -82.5 517.5t-233 450.5t-355.5 355.5t-450.5 233t-517.5 82.5t-518 -82.5t-450.5 -233t-355 -355.5t-233 -450.5t-82.5 -517.5
t82.5 -517.5t233 -450.5t355 -355.5t450.5 -233t518 -82.5z" />
    <glyph glyph-name="uni2465" unicode="&#x36;&#x20dd;" horiz-adv-x="3912" 
d="M1970 -28q-158 1 -304.5 53t-262 169t-183 310t-68.5 474q1 260 59.5 465t168 347.5t262.5 217t343 74.5q205 0 362 -80t252.5 -217t115.5 -309h-427q-25 112 -105 173.5t-198 61.5q-200 0 -303.5 -174.5t-105.5 -478.5h14q46 91 124.5 155.5t179 99t212.5 34.5
q182 0 324 -85.5t224 -234.5t82 -341q0 -208 -96.5 -370t-269 -253.5t-400.5 -90.5zM1968 312q100 0 179 48t124 130t45 184t-44.5 183t-122.5 129t-178 48q-75 0 -138.5 -28t-111 -78t-74.5 -115.5t-27 -139.5q0 -99 45.5 -181t124 -131t178.5 -49zM1956 -900
q-319 0 -607.5 97t-529 273.5t-417 417t-273.5 529t-97 607.5t97 607.5t273.5 529t417 417t529 273.5t607.5 97t607.5 -97t529 -273.5t417 -417t273.5 -529t97 -607.5t-97 -607.5t-273.5 -529t-417 -417t-529 -273.5t-607.5 -97zM1956 -615q272 0 517.5 82.5t450.5 233
t355.5 355.5t233 451t82.5 517q0 272 -82.5 517.5t-233 450.5t-355.5 355.5t-450.5 233t-517.5 82.5t-518 -82.5t-450.5 -233t-355 -355.5t-233 -450.5t-82.5 -517.5t82.5 -517.5t233 -450.5t355 -355.5t450.5 -233t518 -82.5z" />
    <glyph glyph-name="uni2466" unicode="&#x37;&#x20dd;" horiz-adv-x="3912" 
d="M1424 0l849 1680v14h-989v354h1437v-359l-850 -1689h-447zM1956 -900q-319 0 -607.5 97t-529 273.5t-417 417t-273.5 529t-97 607.5t97 607.5t273.5 529t417 417t529 273.5t607.5 97t607.5 -97t529 -273.5t417 -417t273.5 -529t97 -607.5t-97 -607.5t-273.5 -529
t-417 -417t-529 -273.5t-607.5 -97zM1956 -615q272 0 517.5 82.5t450.5 233t355.5 355.5t233 451t82.5 517q0 272 -82.5 517.5t-233 450.5t-355.5 355.5t-450.5 233t-517.5 82.5t-518 -82.5t-450.5 -233t-355 -355.5t-233 -450.5t-82.5 -517.5t82.5 -517.5t233 -450.5
t355 -355.5t450.5 -233t518 -82.5z" />
    <glyph glyph-name="uni2467" unicode="&#x38;&#x20dd;" horiz-adv-x="3912" 
d="M1956 -28q-231 0 -410.5 75.5t-281.5 206.5t-102 297q0 128 58.5 235.5t159.5 179t226 91.5v14q-164 33 -266 159.5t-102 294.5q0 159 93 283.5t255.5 196t369.5 71.5t369.5 -72t255.5 -196.5t94 -282.5q-1 -169 -104 -295t-264 -159v-14q123 -20 223.5 -91.5t160 -179
t60.5 -235.5q-1 -166 -103 -297t-281.5 -206.5t-410.5 -75.5zM1956 290q103 0 180 37.5t120.5 104t43.5 153.5q0 89 -45 157.5t-122 108t-177 39.5q-99 0 -177 -39.5t-122.5 -108t-44.5 -157.5q0 -87 43 -153.5t121 -104t180 -37.5zM1956 1205q86 0 153 35t105 97t38 143
q0 80 -38 140.5t-104 95t-154 34.5q-87 0 -154 -34.5t-104.5 -95t-37.5 -140.5q0 -81 38 -143t105 -97t153 -35zM1956 -900q-319 0 -607.5 97t-529 273.5t-417 417t-273.5 529t-97 607.5t97 607.5t273.5 529t417 417t529 273.5t607.5 97t607.5 -97t529 -273.5t417 -417
t273.5 -529t97 -607.5t-97 -607.5t-273.5 -529t-417 -417t-529 -273.5t-607.5 -97zM1956 -615q272 0 517.5 82.5t450.5 233t355.5 355.5t233 451t82.5 517q0 272 -82.5 517.5t-233 450.5t-355.5 355.5t-450.5 233t-517.5 82.5t-518 -82.5t-450.5 -233t-355 -355.5
t-233 -450.5t-82.5 -517.5t82.5 -517.5t233 -450.5t355 -355.5t450.5 -233t518 -82.5z" />
    <glyph glyph-name="uni2468" unicode="&#x39;&#x20dd;" horiz-adv-x="3912" 
d="M1937 2082q158 0 304.5 -52.5t262 -169.5t183 -309.5t68.5 -473.5q-1 -261 -59.5 -465.5t-167.5 -347.5t-262.5 -217.5t-343.5 -74.5q-205 0 -362 79.5t-252.5 217t-115.5 309.5h427q25 -112 105 -173.5t198 -61.5q200 0 304 174.5t105 478.5h-14q-46 -90 -124 -154.5
t-178.5 -99.5t-213.5 -35q-181 0 -323.5 85t-224.5 234.5t-81 341.5q-1 208 95 369.5t268.5 253.5t401.5 91zM1940 1742q-101 0 -179.5 -48t-124 -130t-44.5 -184q-1 -102 43.5 -183t122.5 -128.5t178 -47.5q75 0 138.5 28t111 77.5t74.5 115t28 140.5q-1 99 -46 181
t-124 130.5t-178 48.5zM1956 -900q-319 0 -607.5 97t-529 273.5t-417 417t-273.5 529t-97 607.5t97 607.5t273.5 529t417 417t529 273.5t607.5 97t607.5 -97t529 -273.5t417 -417t273.5 -529t97 -607.5t-97 -607.5t-273.5 -529t-417 -417t-529 -273.5t-607.5 -97zM1956 -615
q272 0 517.5 82.5t450.5 233t355.5 355.5t233 451t82.5 517q0 272 -82.5 517.5t-233 450.5t-355.5 355.5t-450.5 233t-517.5 82.5t-518 -82.5t-450.5 -233t-355 -355.5t-233 -450.5t-82.5 -517.5t82.5 -517.5t233 -450.5t355 -355.5t450.5 -233t518 -82.5z" />
    <glyph glyph-name="uniE12B" unicode="&#xe06b;&#x20dd;" horiz-adv-x="3912" 
d="M2257 1829l164 -85l-774 -1522l-156 95zM1956 -42q-258 0 -443.5 126.5t-285 365t-98.5 574.5q0 336 99.5 571.5t285 359t442.5 123.5t442.5 -123.5t285.5 -359.5t99 -571q0 -337 -99.5 -576t-284.5 -364.5t-443 -125.5zM1956 317q176 0 281 176.5t104 530.5
q0 233 -47.5 388t-134 233t-203.5 78q-175 0 -280 -175t-106 -524q0 -235 47.5 -392.5t134.5 -236t204 -78.5zM1956 -900q-319 0 -607.5 97t-529 273.5t-417 417t-273.5 529t-97 607.5t97 607.5t273.5 529t417 417t529 273.5t607.5 97t607.5 -97t529 -273.5t417 -417
t273.5 -529t97 -607.5t-97 -607.5t-273.5 -529t-417 -417t-529 -273.5t-607.5 -97zM1956 -615q272 0 517.5 82.5t450.5 233t355.5 355.5t233 451t82.5 517q0 272 -82.5 517.5t-233 450.5t-355.5 355.5t-450.5 233t-517.5 82.5t-518 -82.5t-450.5 -233t-355 -355.5
t-233 -450.5t-82.5 -517.5t82.5 -517.5t233 -450.5t355 -355.5t450.5 -233t518 -82.5z" />
    <glyph glyph-name="uniE12C" unicode="&#xe06c;&#x20dd;" horiz-adv-x="3912" 
d="M2256 2048v-2048h-432v1518h-19q-22 -34 -77.5 -69t-141 -59t-198.5 -24v344q99 0 179.5 34.5t139.5 87.5t91 111t34 105h424zM1956 -900q-319 0 -607.5 97t-529 273.5t-417 417t-273.5 529t-97 607.5t97 607.5t273.5 529t417 417t529 273.5t607.5 97t607.5 -97
t529 -273.5t417 -417t273.5 -529t97 -607.5t-97 -607.5t-273.5 -529t-417 -417t-529 -273.5t-607.5 -97zM1956 -615q272 0 517.5 82.5t450.5 233t355.5 355.5t233 451t82.5 517q0 272 -82.5 517.5t-233 450.5t-355.5 355.5t-450.5 233t-517.5 82.5t-518 -82.5t-450.5 -233
t-355 -355.5t-233 -450.5t-82.5 -517.5t82.5 -517.5t233 -450.5t355 -355.5t450.5 -233t518 -82.5z" />
    <glyph glyph-name="uniE12D" unicode="&#xe06d;&#x20dd;" horiz-adv-x="3912" 
d="M1172 579h437q6 -77 52.5 -133.5t122.5 -86.5t168 -30q100 0 175.5 34t118.5 98t43 151q0 85 -43 151.5t-129 105t-213 38.5h-221v301l454 472v14h-862v354h1394v-312l-550 -556v-16q162 -16 279.5 -70t192.5 -134.5t112 -177.5t37 -199q0 -181 -103.5 -319t-281.5 -215
t-404 -77q-225 0 -398.5 76t-274 212.5t-106.5 318.5zM1956 -900q-319 0 -607.5 97t-529 273.5t-417 417t-273.5 529t-97 607.5t97 607.5t273.5 529t417 417t529 273.5t607.5 97t607.5 -97t529 -273.5t417 -417t273.5 -529t97 -607.5t-97 -607.5t-273.5 -529t-417 -417
t-529 -273.5t-607.5 -97zM1956 -615q272 0 517.5 82.5t450.5 233t355.5 355.5t233 451t82.5 517q0 272 -82.5 517.5t-233 450.5t-355.5 355.5t-450.5 233t-517.5 82.5t-518 -82.5t-450.5 -233t-355 -355.5t-233 -450.5t-82.5 -517.5t82.5 -517.5t233 -450.5t355 -355.5
t450.5 -233t518 -82.5z" />
    <glyph glyph-name="uniE12E" unicode="&#xe06e;&#x20dd;" horiz-adv-x="3912" 
d="M1083 360v341l765 1347h417l-747 -1325v-16h1216v-347h-1651zM2066 0v461l12 154v665h395v-1280h-407zM1956 -900q-319 0 -607.5 97t-529 273.5t-417 417t-273.5 529t-97 607.5t97 607.5t273.5 529t417 417t529 273.5t607.5 97t607.5 -97t529 -273.5t417 -417t273.5 -529
t97 -607.5t-97 -607.5t-273.5 -529t-417 -417t-529 -273.5t-607.5 -97zM1956 -615q272 0 517.5 82.5t450.5 233t355.5 355.5t233 451t82.5 517q0 272 -82.5 517.5t-233 450.5t-355.5 355.5t-450.5 233t-517.5 82.5t-518 -82.5t-450.5 -233t-355 -355.5t-233 -450.5
t-82.5 -517.5t82.5 -517.5t233 -450.5t355 -355.5t450.5 -233t518 -82.5z" />
    <glyph glyph-name="uniE12F" unicode="&#xe06f;&#x20dd;" horiz-adv-x="3912" 
d="M1214 665q0 108 28.5 215t86.5 221t147 245l474 702h436l-497 -728q38 8 78.5 14.5t82.5 6.5q189 0 335 -85t229.5 -235t83.5 -347q0 -211 -95 -369t-261 -245.5t-379 -87.5q-205 0 -375.5 82t-272.5 237t-101 374zM1637 661q0 -103 41 -182t114 -124t169 -45
q95 0 167.5 45t113 124t40.5 180q0 103 -41.5 181.5t-114 123t-165.5 44.5q-96 0 -169 -44.5t-114 -123t-41 -179.5zM1956 -900q-319 0 -607.5 97t-529 273.5t-417 417t-273.5 529t-97 607.5t97 607.5t273.5 529t417 417t529 273.5t607.5 97t607.5 -97t529 -273.5t417 -417
t273.5 -529t97 -607.5t-97 -607.5t-273.5 -529t-417 -417t-529 -273.5t-607.5 -97zM1956 -615q272 0 517.5 82.5t450.5 233t355.5 355.5t233 451t82.5 517q0 272 -82.5 517.5t-233 450.5t-355.5 355.5t-450.5 233t-517.5 82.5t-518 -82.5t-450.5 -233t-355 -355.5
t-233 -450.5t-82.5 -517.5t82.5 -517.5t233 -450.5t355 -355.5t450.5 -233t518 -82.5z" />
    <glyph glyph-name="uniE130" unicode="&#xe070;&#x20dd;" horiz-adv-x="3912" 
d="M1214 1374q0 211 95 369t260.5 245.5t379.5 87.5q204 0 374.5 -81.5t273 -236.5t102.5 -375q-1 -108 -30 -215t-87 -221t-146 -245l-474 -702h-435l496 730q-38 -10 -78.5 -16.5t-82.5 -6.5q-190 0 -336 85t-229 235t-83 347zM1630 1389q0 -103 41 -181.5t113.5 -123
t166.5 -44.5q95 0 168 44.5t114.5 122.5t41.5 180q0 103 -41 182t-114.5 124t-168.5 45q-94 0 -166.5 -45t-113.5 -124t-41 -180zM1956 -900q-319 0 -607.5 97t-529 273.5t-417 417t-273.5 529t-97 607.5t97 607.5t273.5 529t417 417t529 273.5t607.5 97t607.5 -97
t529 -273.5t417 -417t273.5 -529t97 -607.5t-97 -607.5t-273.5 -529t-417 -417t-529 -273.5t-607.5 -97zM1956 -615q272 0 517.5 82.5t450.5 233t355.5 355.5t233 451t82.5 517q0 272 -82.5 517.5t-233 450.5t-355.5 355.5t-450.5 233t-517.5 82.5t-518 -82.5t-450.5 -233
t-355 -355.5t-233 -450.5t-82.5 -517.5t82.5 -517.5t233 -450.5t355 -355.5t450.5 -233t518 -82.5z" />
    <glyph glyph-name="uniE131" unicode="&#x21;&#x20dd;" horiz-adv-x="3912" 
d="M2178 2048l-39 -1434h-366l-40 1434h445zM1956 -26q-99 0 -170 70.5t-70 169.5q-1 98 70 168t170 70q95 0 167 -70t73 -168q-1 -66 -34.5 -120.5t-87.5 -87t-118 -32.5zM1956 -900q-319 0 -607.5 97t-529 273.5t-417 417t-273.5 529t-97 607.5t97 607.5t273.5 529
t417 417t529 273.5t607.5 97t607.5 -97t529 -273.5t417 -417t273.5 -529t97 -607.5t-97 -607.5t-273.5 -529t-417 -417t-529 -273.5t-607.5 -97zM1956 -615q272 0 517.5 82.5t450.5 233t355.5 355.5t233 451t82.5 517q0 272 -82.5 517.5t-233 450.5t-355.5 355.5t-450.5 233
t-517.5 82.5t-518 -82.5t-450.5 -233t-355 -355.5t-233 -450.5t-82.5 -517.5t82.5 -517.5t233 -450.5t355 -355.5t450.5 -233t518 -82.5z" />
    <glyph glyph-name="uniE132" unicode="&#x3f;&#x20dd;" horiz-adv-x="3912" 
d="M1739 614v34q1 175 31.5 279t89.5 168t142 116q62 40 111 83t78 95.5t29 117.5q0 69 -33 121t-88.5 80t-122.5 28q-65 0 -123 -28.5t-95 -84t-40 -137.5h-408q5 200 96 330.5t241 195t331 64.5q199 0 352 -65.5t240 -189.5t87 -299q0 -117 -38.5 -207.5t-107.5 -160
t-163 -125.5q-79 -47 -129.5 -98t-75 -118t-25.5 -165v-34h-379zM1937 -26q-100 0 -170.5 70.5t-69.5 169.5q-1 98 69.5 168t170.5 70q95 0 167 -70t73 -168q-1 -66 -34.5 -120.5t-87.5 -87t-118 -32.5zM1956 -900q-319 0 -607.5 97t-529 273.5t-417 417t-273.5 529
t-97 607.5t97 607.5t273.5 529t417 417t529 273.5t607.5 97t607.5 -97t529 -273.5t417 -417t273.5 -529t97 -607.5t-97 -607.5t-273.5 -529t-417 -417t-529 -273.5t-607.5 -97zM1956 -615q272 0 517.5 82.5t450.5 233t355.5 355.5t233 451t82.5 517q0 272 -82.5 517.5
t-233 450.5t-355.5 355.5t-450.5 233t-517.5 82.5t-518 -82.5t-450.5 -233t-355 -355.5t-233 -450.5t-82.5 -517.5t82.5 -517.5t233 -450.5t355 -355.5t450.5 -233t518 -82.5z" />
    <glyph glyph-name="uniE133" unicode="&#x23;&#x20dd;" horiz-adv-x="3912" 
d="M1988 0l336 2048h320l-336 -2048h-320zM1071 508l53 320h1600l-53 -320h-1600zM1268 0l336 2048h320l-336 -2048h-320zM1188 1220l54 320h1600l-54 -320h-1600zM1956 -900q-319 0 -607.5 97t-529 273.5t-417 417t-273.5 529t-97 607.5t97 607.5t273.5 529t417 417
t529 273.5t607.5 97t607.5 -97t529 -273.5t417 -417t273.5 -529t97 -607.5t-97 -607.5t-273.5 -529t-417 -417t-529 -273.5t-607.5 -97zM1956 -615q272 0 517.5 82.5t450.5 233t355.5 355.5t233 451t82.5 517q0 272 -82.5 517.5t-233 450.5t-355.5 355.5t-450.5 233
t-517.5 82.5t-518 -82.5t-450.5 -233t-355 -355.5t-233 -450.5t-82.5 -517.5t82.5 -517.5t233 -450.5t355 -355.5t450.5 -233t518 -82.5z" />
    <glyph glyph-name="uniE134" unicode="&#x2d;&#x20dd;" horiz-adv-x="3912" 
d="M2423 1193v-338h-934v338h934zM1956 -900q-319 0 -607.5 97t-529 273.5t-417 417t-273.5 529t-97 607.5t97 607.5t273.5 529t417 417t529 273.5t607.5 97t607.5 -97t529 -273.5t417 -417t273.5 -529t97 -607.5t-97 -607.5t-273.5 -529t-417 -417t-529 -273.5t-607.5 -97z
M1956 -615q272 0 517.5 82.5t450.5 233t355.5 355.5t233 451t82.5 517q0 272 -82.5 517.5t-233 450.5t-355.5 355.5t-450.5 233t-517.5 82.5t-518 -82.5t-450.5 -233t-355 -355.5t-233 -450.5t-82.5 -517.5t82.5 -517.5t233 -450.5t355 -355.5t450.5 -233t518 -82.5z" />
    <glyph glyph-name="uniE135" unicode="&#x3c;&#x20dd;" horiz-adv-x="3912" 
d="M1212 835v352l1408 620v-405l-964 -387l13 21v-50l-13 21l964 -387v-405zM1956 -900q-319 0 -607.5 97t-529 273.5t-417 417t-273.5 529t-97 607.5t97 607.5t273.5 529t417 417t529 273.5t607.5 97t607.5 -97t529 -273.5t417 -417t273.5 -529t97 -607.5t-97 -607.5
t-273.5 -529t-417 -417t-529 -273.5t-607.5 -97zM1956 -615q272 0 517.5 82.5t450.5 233t355.5 355.5t233 451t82.5 517q0 272 -82.5 517.5t-233 450.5t-355.5 355.5t-450.5 233t-517.5 82.5t-518 -82.5t-450.5 -233t-355 -355.5t-233 -450.5t-82.5 -517.5t82.5 -517.5
t233 -450.5t355 -355.5t450.5 -233t518 -82.5z" />
    <glyph glyph-name="uniE136" unicode="&#x3e;&#x20dd;" horiz-adv-x="3912" 
d="M2700 835l-1408 -620v405l964 387l-13 -21v50l13 -21l-964 387v405l1408 -620v-352zM1956 -900q-319 0 -607.5 97t-529 273.5t-417 417t-273.5 529t-97 607.5t97 607.5t273.5 529t417 417t529 273.5t607.5 97t607.5 -97t529 -273.5t417 -417t273.5 -529t97 -607.5
t-97 -607.5t-273.5 -529t-417 -417t-529 -273.5t-607.5 -97zM1956 -615q272 0 517.5 82.5t450.5 233t355.5 355.5t233 451t82.5 517q0 272 -82.5 517.5t-233 450.5t-355.5 355.5t-450.5 233t-517.5 82.5t-518 -82.5t-450.5 -233t-355 -355.5t-233 -450.5t-82.5 -517.5
t82.5 -517.5t233 -450.5t355 -355.5t450.5 -233t518 -82.5z" />
    <glyph glyph-name="uniE137" unicode="&#x3d;&#x20dd;" horiz-adv-x="3912" 
d="M1265 1179v355h1381v-355h-1381zM1265 515v355h1381v-355h-1381zM1956 -900q-319 0 -607.5 97t-529 273.5t-417 417t-273.5 529t-97 607.5t97 607.5t273.5 529t417 417t529 273.5t607.5 97t607.5 -97t529 -273.5t417 -417t273.5 -529t97 -607.5t-97 -607.5t-273.5 -529
t-417 -417t-529 -273.5t-607.5 -97zM1956 -615q272 0 517.5 82.5t450.5 233t355.5 355.5t233 451t82.5 517q0 272 -82.5 517.5t-233 450.5t-355.5 355.5t-450.5 233t-517.5 82.5t-518 -82.5t-450.5 -233t-355 -355.5t-233 -450.5t-82.5 -517.5t82.5 -517.5t233 -450.5
t355 -355.5t450.5 -233t518 -82.5z" />
    <glyph glyph-name="uni2295" unicode="&#x2b;&#x20dd;" horiz-adv-x="3912" 
d="M1777 312v1416h358v-1416h-358zM1248 841v358h1416v-358h-1416zM1956 -900q-319 0 -607.5 97t-529 273.5t-417 417t-273.5 529t-97 607.5t97 607.5t273.5 529t417 417t529 273.5t607.5 97t607.5 -97t529 -273.5t417 -417t273.5 -529t97 -607.5t-97 -607.5t-273.5 -529
t-417 -417t-529 -273.5t-607.5 -97zM1956 -615q272 0 517.5 82.5t450.5 233t355.5 355.5t233 451t82.5 517q0 272 -82.5 517.5t-233 450.5t-355.5 355.5t-450.5 233t-517.5 82.5t-518 -82.5t-450.5 -233t-355 -355.5t-233 -450.5t-82.5 -517.5t82.5 -517.5t233 -450.5
t355 -355.5t450.5 -233t518 -82.5z" />
    <glyph glyph-name="uni2296" unicode="&#x2212;&#x20dd;" horiz-adv-x="3912" 
d="M2656 1203v-358h-1400v358h1400zM1956 -900q-319 0 -607.5 97t-529 273.5t-417 417t-273.5 529t-97 607.5t97 607.5t273.5 529t417 417t529 273.5t607.5 97t607.5 -97t529 -273.5t417 -417t273.5 -529t97 -607.5t-97 -607.5t-273.5 -529t-417 -417t-529 -273.5
t-607.5 -97zM1956 -615q272 0 517.5 82.5t450.5 233t355.5 355.5t233 451t82.5 517q0 272 -82.5 517.5t-233 450.5t-355.5 355.5t-450.5 233t-517.5 82.5t-518 -82.5t-450.5 -233t-355 -355.5t-233 -450.5t-82.5 -517.5t82.5 -517.5t233 -450.5t355 -355.5t450.5 -233
t518 -82.5z" />
    <glyph glyph-name="uni2297" unicode="&#xd7;&#x20dd;" horiz-adv-x="3912" 
d="M2422 284l-1195 1193l262 265l1196 -1195zM1489 284l-262 263l1195 1195l263 -265zM1956 -900q-319 0 -607.5 97t-529 273.5t-417 417t-273.5 529t-97 607.5t97 607.5t273.5 529t417 417t529 273.5t607.5 97t607.5 -97t529 -273.5t417 -417t273.5 -529t97 -607.5
t-97 -607.5t-273.5 -529t-417 -417t-529 -273.5t-607.5 -97zM1956 -615q272 0 517.5 82.5t450.5 233t355.5 355.5t233 451t82.5 517q0 272 -82.5 517.5t-233 450.5t-355.5 355.5t-450.5 233t-517.5 82.5t-518 -82.5t-450.5 -233t-355 -355.5t-233 -450.5t-82.5 -517.5
t82.5 -517.5t233 -450.5t355 -355.5t450.5 -233t518 -82.5z" />
    <glyph glyph-name="uni2A38" unicode="&#xf7;&#x20dd;" horiz-adv-x="3912" 
d="M2656 1194v-339h-1400v339h1400zM1956 227q-101 0 -172 71t-71 172q0 98 71 168t172 70q98 0 168 -70t70 -168q0 -101 -70 -172t-168 -71zM1956 1340q-67 0 -122 33t-88 88t-33 122q0 99 71.5 168.5t171.5 69.5q99 0 168.5 -69.5t69.5 -168.5q0 -101 -69.5 -172
t-168.5 -71zM1956 -900q-319 0 -607.5 97t-529 273.5t-417 417t-273.5 529t-97 607.5t97 607.5t273.5 529t417 417t529 273.5t607.5 97t607.5 -97t529 -273.5t417 -417t273.5 -529t97 -607.5t-97 -607.5t-273.5 -529t-417 -417t-529 -273.5t-607.5 -97zM1956 -615
q272 0 517.5 82.5t450.5 233t355.5 355.5t233 451t82.5 517q0 272 -82.5 517.5t-233 450.5t-355.5 355.5t-450.5 233t-517.5 82.5t-518 -82.5t-450.5 -233t-355 -355.5t-233 -450.5t-82.5 -517.5t82.5 -517.5t233 -450.5t355 -355.5t450.5 -233t518 -82.5z" />
    <glyph glyph-name="uniE138" unicode="&#x2191;&#x20dd;" horiz-adv-x="3912" 
d="M1789 0v1429l-533 -535l-234 232l936 934l934 -934l-230 -232l-535 535v-1429h-338zM1956 -900q-319 0 -607.5 97t-529 273.5t-417 417t-273.5 529t-97 607.5t97 607.5t273.5 529t417 417t529 273.5t607.5 97t607.5 -97t529 -273.5t417 -417t273.5 -529t97 -607.5
t-97 -607.5t-273.5 -529t-417 -417t-529 -273.5t-607.5 -97zM1956 -615q272 0 517.5 82.5t450.5 233t355.5 355.5t233 451t82.5 517q0 272 -82.5 517.5t-233 450.5t-355.5 355.5t-450.5 233t-517.5 82.5t-518 -82.5t-450.5 -233t-355 -355.5t-233 -450.5t-82.5 -517.5
t82.5 -517.5t233 -450.5t355 -355.5t450.5 -233t518 -82.5z" />
    <glyph glyph-name="uniE139" unicode="&#x2193;&#x20dd;" horiz-adv-x="3912" 
d="M2125 2048v-1429l533 535l234 -232l-936 -934l-934 934l230 232l535 -535v1429h338zM1956 -900q-319 0 -607.5 97t-529 273.5t-417 417t-273.5 529t-97 607.5t97 607.5t273.5 529t417 417t529 273.5t607.5 97t607.5 -97t529 -273.5t417 -417t273.5 -529t97 -607.5
t-97 -607.5t-273.5 -529t-417 -417t-529 -273.5t-607.5 -97zM1956 -615q272 0 517.5 82.5t450.5 233t355.5 355.5t233 451t82.5 517q0 272 -82.5 517.5t-233 450.5t-355.5 355.5t-450.5 233t-517.5 82.5t-518 -82.5t-450.5 -233t-355 -355.5t-233 -450.5t-82.5 -517.5
t82.5 -517.5t233 -450.5t355 -355.5t450.5 -233t518 -82.5z" />
    <glyph glyph-name="uniE13A" unicode="&#x2190;&#x20dd;" horiz-adv-x="3912" 
d="M1936 16l-1008 1008l1008 1008l232 -230l-609 -609h1427v-338h-1427l609 -608zM1956 -900q-319 0 -607.5 97t-529 273.5t-417 417t-273.5 529t-97 607.5t97 607.5t273.5 529t417 417t529 273.5t607.5 97t607.5 -97t529 -273.5t417 -417t273.5 -529t97 -607.5t-97 -607.5
t-273.5 -529t-417 -417t-529 -273.5t-607.5 -97zM1956 -615q272 0 517.5 82.5t450.5 233t355.5 355.5t233 451t82.5 517q0 272 -82.5 517.5t-233 450.5t-355.5 355.5t-450.5 233t-517.5 82.5t-518 -82.5t-450.5 -233t-355 -355.5t-233 -450.5t-82.5 -517.5t82.5 -517.5
t233 -450.5t355 -355.5t450.5 -233t518 -82.5z" />
    <glyph glyph-name="uniE13B" unicode="&#x2192;&#x20dd;" horiz-adv-x="3912" 
d="M1978 16l-232 230l609 609h-1427v338h1427l-609 608l232 231l1008 -1008zM1956 -900q-319 0 -607.5 97t-529 273.5t-417 417t-273.5 529t-97 607.5t97 607.5t273.5 529t417 417t529 273.5t607.5 97t607.5 -97t529 -273.5t417 -417t273.5 -529t97 -607.5t-97 -607.5
t-273.5 -529t-417 -417t-529 -273.5t-607.5 -97zM1956 -615q272 0 517.5 82.5t450.5 233t355.5 355.5t233 451t82.5 517q0 272 -82.5 517.5t-233 450.5t-355.5 355.5t-450.5 233t-517.5 82.5t-518 -82.5t-450.5 -233t-355 -355.5t-233 -450.5t-82.5 -517.5t82.5 -517.5
t233 -450.5t355 -355.5t450.5 -233t518 -82.5z" />
    <glyph glyph-name="uniE13C" unicode="&#x2713;&#x20dd;" horiz-adv-x="3912" 
d="M968 968l282 283l463 -455l1027 1023l284 -283l-1311 -1304zM1956 -900q-319 0 -607.5 97t-529 273.5t-417 417t-273.5 529t-97 607.5t97 607.5t273.5 529t417 417t529 273.5t607.5 97t607.5 -97t529 -273.5t417 -417t273.5 -529t97 -607.5t-97 -607.5t-273.5 -529
t-417 -417t-529 -273.5t-607.5 -97zM1956 -615q272 0 517.5 82.5t450.5 233t355.5 355.5t233 451t82.5 517q0 272 -82.5 517.5t-233 450.5t-355.5 355.5t-450.5 233t-517.5 82.5t-518 -82.5t-450.5 -233t-355 -355.5t-233 -450.5t-82.5 -517.5t82.5 -517.5t233 -450.5
t355 -355.5t450.5 -233t518 -82.5z" />
    <glyph glyph-name="uniE13D" unicode="&#x2717;&#x20dd;" horiz-adv-x="3912" 
d="M1451 238l-283 283l1295 1289l283 -283zM2461 238l-1295 1289l283 283l1295 -1289zM1956 -900q-319 0 -607.5 97t-529 273.5t-417 417t-273.5 529t-97 607.5t97 607.5t273.5 529t417 417t529 273.5t607.5 97t607.5 -97t529 -273.5t417 -417t273.5 -529t97 -607.5
t-97 -607.5t-273.5 -529t-417 -417t-529 -273.5t-607.5 -97zM1956 -615q272 0 517.5 82.5t450.5 233t355.5 355.5t233 451t82.5 517q0 272 -82.5 517.5t-233 450.5t-355.5 355.5t-450.5 233t-517.5 82.5t-518 -82.5t-450.5 -233t-355 -355.5t-233 -450.5t-82.5 -517.5
t82.5 -517.5t233 -450.5t355 -355.5t450.5 -233t518 -82.5z" />
    <glyph glyph-name="u1F130" unicode="A&#x20de;" horiz-adv-x="3912" 
d="M1434 0h-464l707 2048h558l706 -2048h-464l-513 1580h-16zM1405 805h1096v-338h-1096v338zM444 -832q-168 0 -256 88t-88 256v3024q0 168 88 256t256 88h3024q168 0 256 -88t88 -256v-3024q0 -168 -88 -256t-256 -88h-3024zM425 -547h3061q19 0 30 11.5t11 29.5v3060
q0 19 -11 30t-30 11h-3061q-17 0 -28.5 -11t-11.5 -30v-3060q0 -18 11.5 -29.5t28.5 -11.5z" />
    <glyph glyph-name="u1F131" unicode="B&#x20de;" horiz-adv-x="3912" 
d="M1205 0v2048h820q226 0 377 -67t227 -185.5t76 -272.5q0 -120 -48 -210.5t-131.5 -148t-190.5 -81.5v-20q117 -5 219.5 -66t166.5 -170.5t64 -260.5q0 -163 -80.5 -290.5t-237.5 -201.5t-387 -74h-875zM1638 354h353q181 0 264 69.5t83 185.5q0 85 -41 150t-116.5 102
t-179.5 37h-363v-544zM1638 1191h321q89 0 158.5 31.5t110 89.5t40.5 139q0 111 -78.5 179t-222.5 68h-329v-507zM444 -832q-168 0 -256 88t-88 256v3024q0 168 88 256t256 88h3024q168 0 256 -88t88 -256v-3024q0 -168 -88 -256t-256 -88h-3024zM425 -547h3061
q19 0 30 11.5t11 29.5v3060q0 19 -11 30t-30 11h-3061q-17 0 -28.5 -11t-11.5 -30v-3060q0 -18 11.5 -29.5t28.5 -11.5z" />
    <glyph glyph-name="u1F132" unicode="C&#x20de;" horiz-adv-x="3912" 
d="M2878 1331h-438q-12 85 -49 151.5t-95 113.5t-133.5 72t-163.5 25q-159 0 -277 -78.5t-183 -228t-65 -362.5q0 -219 65.5 -368t183.5 -225t273 -76q87 0 161.5 23t132.5 67.5t96.5 108.5t53.5 146l438 -2q-17 -141 -84.5 -271.5t-181 -233t-270 -162t-353.5 -59.5
q-274 0 -489.5 124t-340 359t-124.5 569q0 335 126 570t342 358.5t486 123.5q178 0 330.5 -50t270.5 -145.5t192.5 -233.5t95.5 -316zM444 -832q-168 0 -256 88t-88 256v3024q0 168 88 256t256 88h3024q168 0 256 -88t88 -256v-3024q0 -168 -88 -256t-256 -88h-3024z
M425 -547h3061q19 0 30 11.5t11 29.5v3060q0 19 -11 30t-30 11h-3061q-17 0 -28.5 -11t-11.5 -30v-3060q0 -18 11.5 -29.5t28.5 -11.5z" />
    <glyph glyph-name="u1F133" unicode="D&#x20de;" horiz-adv-x="3912" 
d="M1854 0h-726v2048h732q309 0 532 -122.5t343.5 -351.5t120.5 -548q0 -320 -120.5 -550t-345 -353t-536.5 -123zM1561 371h275q192 0 323.5 68.5t198 213t66.5 373.5q0 227 -66.5 371t-197.5 212t-323 68h-276v-1306zM444 -832q-168 0 -256 88t-88 256v3024q0 168 88 256
t256 88h3024q168 0 256 -88t88 -256v-3024q0 -168 -88 -256t-256 -88h-3024zM425 -547h3061q19 0 30 11.5t11 29.5v3060q0 19 -11 30t-30 11h-3061q-17 0 -28.5 -11t-11.5 -30v-3060q0 -18 11.5 -29.5t28.5 -11.5z" />
    <glyph glyph-name="u1F134" unicode="E&#x20de;" horiz-adv-x="3912" 
d="M1262 0v2048h1380v-357h-947v-488h876v-357h-876v-489h951v-357h-1384zM444 -832q-168 0 -256 88t-88 256v3024q0 168 88 256t256 88h3024q168 0 256 -88t88 -256v-3024q0 -168 -88 -256t-256 -88h-3024zM425 -547h3061q19 0 30 11.5t11 29.5v3060q0 19 -11 30t-30 11
h-3061q-17 0 -28.5 -11t-11.5 -30v-3060q0 -18 11.5 -29.5t28.5 -11.5z" />
    <glyph glyph-name="u1F135" unicode="F&#x20de;" horiz-adv-x="3912" 
d="M1298 0v2048h1356v-357h-923v-488h833v-357h-833v-846h-433zM444 -832q-168 0 -256 88t-88 256v3024q0 168 88 256t256 88h3024q168 0 256 -88t88 -256v-3024q0 -168 -88 -256t-256 -88h-3024zM425 -547h3061q19 0 30 11.5t11 29.5v3060q0 19 -11 30t-30 11h-3061
q-17 0 -28.5 -11t-11.5 -30v-3060q0 -18 11.5 -29.5t28.5 -11.5z" />
    <glyph glyph-name="u1F136" unicode="G&#x20de;" horiz-adv-x="3912" 
d="M2424 1386q-21 73 -59 129.5t-92.5 96t-124 60.5t-153.5 21q-157 0 -275.5 -78t-184.5 -226.5t-66 -362.5t65 -364t184 -228.5t281 -78.5q147 0 251.5 52.5t160 148.5t55.5 227l88 -13h-528v326h857v-258q0 -270 -114 -463.5t-314 -298t-458 -104.5q-288 0 -506 127.5
t-339.5 363t-121.5 559.5q0 249 72.5 444.5t203.5 331.5t305 207t377 71q174 0 324 -50.5t266.5 -142.5t190.5 -218.5t95 -278.5h-440zM444 -832q-168 0 -256 88t-88 256v3024q0 168 88 256t256 88h3024q168 0 256 -88t88 -256v-3024q0 -168 -88 -256t-256 -88h-3024z
M425 -547h3061q19 0 30 11.5t11 29.5v3060q0 19 -11 30t-30 11h-3061q-17 0 -28.5 -11t-11.5 -30v-3060q0 -18 11.5 -29.5t28.5 -11.5z" />
    <glyph glyph-name="u1F137" unicode="H&#x20de;" horiz-adv-x="3912" 
d="M1084 0v2048h433v-845h879v845h432v-2048h-432v846h-879v-846h-433zM444 -832q-168 0 -256 88t-88 256v3024q0 168 88 256t256 88h3024q168 0 256 -88t88 -256v-3024q0 -168 -88 -256t-256 -88h-3024zM425 -547h3061q19 0 30 11.5t11 29.5v3060q0 19 -11 30t-30 11h-3061
q-17 0 -28.5 -11t-11.5 -30v-3060q0 -18 11.5 -29.5t28.5 -11.5z" />
    <glyph glyph-name="u1F138" unicode="I&#x20de;" horiz-adv-x="3912" 
d="M2172 2048v-2048h-433v2048h433zM444 -832q-168 0 -256 88t-88 256v3024q0 168 88 256t256 88h3024q168 0 256 -88t88 -256v-3024q0 -168 -88 -256t-256 -88h-3024zM425 -547h3061q19 0 30 11.5t11 29.5v3060q0 19 -11 30t-30 11h-3061q-17 0 -28.5 -11t-11.5 -30v-3060
q0 -18 11.5 -29.5t28.5 -11.5z" />
    <glyph glyph-name="u1F139" unicode="J&#x20de;" horiz-adv-x="3912" 
d="M2168 2048h428v-1428q0 -198 -88.5 -344t-245.5 -225t-365 -79q-185 0 -335.5 65.5t-238.5 200t-87 338.5h431q2 -81 33.5 -138.5t87 -88t131.5 -30.5q80 0 135.5 34.5t84.5 101.5t29 165v1428zM444 -832q-168 0 -256 88t-88 256v3024q0 168 88 256t256 88h3024
q168 0 256 -88t88 -256v-3024q0 -168 -88 -256t-256 -88h-3024zM425 -547h3061q19 0 30 11.5t11 29.5v3060q0 19 -11 30t-30 11h-3061q-17 0 -28.5 -11t-11.5 -30v-3060q0 -18 11.5 -29.5t28.5 -11.5z" />
    <glyph glyph-name="u1F13A" unicode="K&#x20de;" horiz-adv-x="3912" 
d="M1121 0v2048h433v-903h27l737 903h519l-760 -917l769 -1131h-518l-561 842l-213 -260v-582h-433zM444 -832q-168 0 -256 88t-88 256v3024q0 168 88 256t256 88h3024q168 0 256 -88t88 -256v-3024q0 -168 -88 -256t-256 -88h-3024zM425 -547h3061q19 0 30 11.5t11 29.5
v3060q0 19 -11 30t-30 11h-3061q-17 0 -28.5 -11t-11.5 -30v-3060q0 -18 11.5 -29.5t28.5 -11.5z" />
    <glyph glyph-name="u1F13B" unicode="L&#x20de;" horiz-adv-x="3912" 
d="M1328 0v2048h433v-1691h878v-357h-1311zM444 -832q-168 0 -256 88t-88 256v3024q0 168 88 256t256 88h3024q168 0 256 -88t88 -256v-3024q0 -168 -88 -256t-256 -88h-3024zM425 -547h3061q19 0 30 11.5t11 29.5v3060q0 19 -11 30t-30 11h-3061q-17 0 -28.5 -11t-11.5 -30
v-3060q0 -18 11.5 -29.5t28.5 -11.5z" />
    <glyph glyph-name="u1F13C" unicode="M&#x20de;" horiz-adv-x="3912" 
d="M846 2048h534l564 -1376h24l564 1376h534v-2048h-420v1333h-17l-530 -1323h-286l-530 1328h-17v-1338h-420v2048zM444 -832q-168 0 -256 88t-88 256v3024q0 168 88 256t256 88h3024q168 0 256 -88t88 -256v-3024q0 -168 -88 -256t-256 -88h-3024zM425 -547h3061
q19 0 30 11.5t11 29.5v3060q0 19 -11 30t-30 11h-3061q-17 0 -28.5 -11t-11.5 -30v-3060q0 -18 11.5 -29.5t28.5 -11.5z" />
    <glyph glyph-name="u1F13D" unicode="N&#x20de;" horiz-adv-x="3912" 
d="M2812 2048v-2048h-374l-891 1289h-15v-1289h-433v2048h380l884 -1288h18v1288h431zM444 -832q-168 0 -256 88t-88 256v3024q0 168 88 256t256 88h3024q168 0 256 -88t88 -256v-3024q0 -168 -88 -256t-256 -88h-3024zM425 -547h3061q19 0 30 11.5t11 29.5v3060
q0 19 -11 30t-30 11h-3061q-17 0 -28.5 -11t-11.5 -30v-3060q0 -18 11.5 -29.5t28.5 -11.5z" />
    <glyph glyph-name="u1F13E" unicode="O&#x20de;" horiz-adv-x="3912" 
d="M2915 1024q0 -335 -126.5 -570t-344 -358.5t-488.5 -123.5q-273 0 -490 124t-343 359t-126 569q0 335 126 570t343 358.5t490 123.5q271 0 488.5 -123.5t344 -358.5t126.5 -570zM2476 1024q0 217 -64.5 366t-181.5 226t-274 77t-274 -77t-181.5 -226t-64.5 -366
t64.5 -366t181.5 -226t274 -77t274 77t181.5 226t64.5 366zM444 -832q-168 0 -256 88t-88 256v3024q0 168 88 256t256 88h3024q168 0 256 -88t88 -256v-3024q0 -168 -88 -256t-256 -88h-3024zM425 -547h3061q19 0 30 11.5t11 29.5v3060q0 19 -11 30t-30 11h-3061
q-17 0 -28.5 -11t-11.5 -30v-3060q0 -18 11.5 -29.5t28.5 -11.5z" />
    <glyph glyph-name="u1F13F" unicode="P&#x20de;" horiz-adv-x="3912" 
d="M1237 0v2048h808q233 0 397 -88.5t250.5 -245t86.5 -360.5t-88 -360t-254.5 -243t-402.5 -87h-515v347h445q125 0 206.5 43.5t122 121t40.5 178.5q0 102 -40.5 178.5t-122.5 119t-208 42.5h-292v-1694h-433zM444 -832q-168 0 -256 88t-88 256v3024q0 168 88 256t256 88
h3024q168 0 256 -88t88 -256v-3024q0 -168 -88 -256t-256 -88h-3024zM425 -547h3061q19 0 30 11.5t11 29.5v3060q0 19 -11 30t-30 11h-3061q-17 0 -28.5 -11t-11.5 -30v-3060q0 -18 11.5 -29.5t28.5 -11.5z" />
    <glyph glyph-name="u1F140" unicode="Q&#x20de;" horiz-adv-x="3912" 
d="M1805 712h368l185 -238l182 -212l343 -430h-404l-236 290l-121 172zM2914 1024q0 -335 -126.5 -570t-344 -358.5t-488.5 -123.5q-273 0 -490 124t-343 359t-126 569q0 335 126 570t343 358.5t490 123.5q271 0 488.5 -123.5t344 -358.5t126.5 -570zM2475 1024
q0 217 -64.5 366t-181.5 226t-274 77t-274 -77t-181.5 -226t-64.5 -366t64.5 -366t181.5 -226t274 -77t274 77t181.5 226t64.5 366zM444 -832q-168 0 -256 88t-88 256v3024q0 168 88 256t256 88h3024q168 0 256 -88t88 -256v-3024q0 -168 -88 -256t-256 -88h-3024zM425 -547
h3061q19 0 30 11.5t11 29.5v3060q0 19 -11 30t-30 11h-3061q-17 0 -28.5 -11t-11.5 -30v-3060q0 -18 11.5 -29.5t28.5 -11.5z" />
    <glyph glyph-name="u1F141" unicode="R&#x20de;" horiz-adv-x="3912" 
d="M1204 0v2048h808q232 0 396.5 -82.5t251 -233t86.5 -353.5q0 -204 -88 -350.5t-254.5 -224.5t-402.5 -78h-541v348h471q124 0 206 34t122.5 102t40.5 169q0 102 -40.5 172t-123 106.5t-207.5 36.5h-292v-1694h-433zM2310 932l509 -932h-478l-498 932h467zM444 -832
q-168 0 -256 88t-88 256v3024q0 168 88 256t256 88h3024q168 0 256 -88t88 -256v-3024q0 -168 -88 -256t-256 -88h-3024zM425 -547h3061q19 0 30 11.5t11 29.5v3060q0 19 -11 30t-30 11h-3061q-17 0 -28.5 -11t-11.5 -30v-3060q0 -18 11.5 -29.5t28.5 -11.5z" />
    <glyph glyph-name="u1F142" unicode="S&#x20de;" horiz-adv-x="3912" 
d="M2323 1459q-12 121 -103 188t-247 67q-106 0 -179 -29.5t-111.5 -81.5t-38.5 -118q-2 -55 23.5 -96t70.5 -70.5t104 -51t126 -36.5l184 -44q134 -30 246 -80t194 -123t127.5 -172t46.5 -227q-1 -188 -95.5 -325.5t-272 -213t-427.5 -75.5q-248 0 -431.5 76t-286 225.5
t-107.5 370.5h419q7 -103 59.5 -171.5t141 -103t200.5 -34.5q110 0 191.5 32t126.5 89t45 131q0 69 -40.5 116t-118 80t-189.5 60l-223 56q-259 63 -409 197t-149 361q-1 186 99.5 325t276.5 217t400 78q228 0 398.5 -78t265.5 -217t98 -322h-415zM444 -832q-168 0 -256 88
t-88 256v3024q0 168 88 256t256 88h3024q168 0 256 -88t88 -256v-3024q0 -168 -88 -256t-256 -88h-3024zM425 -547h3061q19 0 30 11.5t11 29.5v3060q0 19 -11 30t-30 11h-3061q-17 0 -28.5 -11t-11.5 -30v-3060q0 -18 11.5 -29.5t28.5 -11.5z" />
    <glyph glyph-name="u1F143" unicode="T&#x20de;" horiz-adv-x="3912" 
d="M1115 1691v357h1682v-357h-627v-1691h-428v1691h-627zM444 -832q-168 0 -256 88t-88 256v3024q0 168 88 256t256 88h3024q168 0 256 -88t88 -256v-3024q0 -168 -88 -256t-256 -88h-3024zM425 -547h3061q19 0 30 11.5t11 29.5v3060q0 19 -11 30t-30 11h-3061
q-17 0 -28.5 -11t-11.5 -30v-3060q0 -18 11.5 -29.5t28.5 -11.5z" />
    <glyph glyph-name="u1F144" unicode="U&#x20de;" horiz-adv-x="3912" 
d="M2372 2048h433v-1330q0 -224 -106.5 -392t-297.5 -261.5t-445 -93.5q-255 0 -446 93.5t-297 261.5t-106 392v1330h433v-1293q0 -117 51.5 -208t145.5 -143t219 -52q126 0 219.5 52t145 143t51.5 208v1293zM444 -832q-168 0 -256 88t-88 256v3024q0 168 88 256t256 88
h3024q168 0 256 -88t88 -256v-3024q0 -168 -88 -256t-256 -88h-3024zM425 -547h3061q19 0 30 11.5t11 29.5v3060q0 19 -11 30t-30 11h-3061q-17 0 -28.5 -11t-11.5 -30v-3060q0 -18 11.5 -29.5t28.5 -11.5z" />
    <glyph glyph-name="u1F145" unicode="V&#x20de;" horiz-adv-x="3912" 
d="M1451 2048l495 -1556h19l496 1556h480l-706 -2048h-558l-707 2048h481zM444 -832q-168 0 -256 88t-88 256v3024q0 168 88 256t256 88h3024q168 0 256 -88t88 -256v-3024q0 -168 -88 -256t-256 -88h-3024zM425 -547h3061q19 0 30 11.5t11 29.5v3060q0 19 -11 30t-30 11
h-3061q-17 0 -28.5 -11t-11.5 -30v-3060q0 -18 11.5 -29.5t28.5 -11.5z" />
    <glyph glyph-name="u1F146" unicode="W&#x20de;" horiz-adv-x="3912" 
d="M1137 0l-586 2048h473l339 -1423h17l374 1423h405l373 -1426h18l339 1426h473l-586 -2048h-422l-390 1339h-16l-389 -1339h-422zM444 -832q-168 0 -256 88t-88 256v3024q0 168 88 256t256 88h3024q168 0 256 -88t88 -256v-3024q0 -168 -88 -256t-256 -88h-3024zM425 -547
h3061q19 0 30 11.5t11 29.5v3060q0 19 -11 30t-30 11h-3061q-17 0 -28.5 -11t-11.5 -30v-3060q0 -18 11.5 -29.5t28.5 -11.5z" />
    <glyph glyph-name="u1F147" unicode="X&#x20de;" horiz-adv-x="3912" 
d="M1535 2048l413 -698h16l415 698h489l-625 -1024l639 -1024h-498l-420 699h-16l-420 -699h-496l641 1024l-629 1024h491zM444 -832q-168 0 -256 88t-88 256v3024q0 168 88 256t256 88h3024q168 0 256 -88t88 -256v-3024q0 -168 -88 -256t-256 -88h-3024zM425 -547h3061
q19 0 30 11.5t11 29.5v3060q0 19 -11 30t-30 11h-3061q-17 0 -28.5 -11t-11.5 -30v-3060q0 -18 11.5 -29.5t28.5 -11.5z" />
    <glyph glyph-name="u1F148" unicode="Y&#x20de;" horiz-adv-x="3912" 
d="M994 2048h485l467 -882h20l467 882h485l-747 -1324v-724h-430v724zM444 -832q-168 0 -256 88t-88 256v3024q0 168 88 256t256 88h3024q168 0 256 -88t88 -256v-3024q0 -168 -88 -256t-256 -88h-3024zM425 -547h3061q19 0 30 11.5t11 29.5v3060q0 19 -11 30t-30 11h-3061
q-17 0 -28.5 -11t-11.5 -30v-3060q0 -18 11.5 -29.5t28.5 -11.5z" />
    <glyph glyph-name="u1F149" unicode="Z&#x20de;" horiz-adv-x="3912" 
d="M1173 0v257l1022 1434h-1024v357h1568v-257l-1023 -1434h1025v-357h-1568zM444 -832q-168 0 -256 88t-88 256v3024q0 168 88 256t256 88h3024q168 0 256 -88t88 -256v-3024q0 -168 -88 -256t-256 -88h-3024zM425 -547h3061q19 0 30 11.5t11 29.5v3060q0 19 -11 30t-30 11
h-3061q-17 0 -28.5 -11t-11.5 -30v-3060q0 -18 11.5 -29.5t28.5 -11.5z" />
    <glyph glyph-name="uniE13E" unicode="&#x30;&#x20de;" horiz-adv-x="3912" 
d="M1956 -45q-258 1 -443.5 127t-285 365t-98.5 575q0 335 99.5 571t285 359.5t442.5 123.5t442.5 -124t285.5 -359.5t99 -570.5q0 -337 -99.5 -576t-284.5 -365t-443 -126zM1956 314q176 0 281 177t104 531q0 233 -47.5 388t-134 233t-203.5 78q-175 0 -280 -175t-106 -524
q0 -236 47.5 -393.5t134.5 -236t204 -78.5zM444 -832q-168 0 -256 88t-88 256v3024q0 168 88 256t256 88h3024q168 0 256 -88t88 -256v-3024q0 -168 -88 -256t-256 -88h-3024zM425 -547h3061q19 0 30 11.5t11 29.5v3060q0 19 -11 30t-30 11h-3061q-17 0 -28.5 -11t-11.5 -30
v-3060q0 -18 11.5 -29.5t28.5 -11.5z" />
    <glyph glyph-name="uniE13F" unicode="&#x31;&#x20de;" horiz-adv-x="3912" 
d="M2224 2048v-2048h-433v1637h-12l-469 -294v384l507 321h407zM444 -832q-168 0 -256 88t-88 256v3024q0 168 88 256t256 88h3024q168 0 256 -88t88 -256v-3024q0 -168 -88 -256t-256 -88h-3024zM425 -547h3061q19 0 30 11.5t11 29.5v3060q0 19 -11 30t-30 11h-3061
q-17 0 -28.5 -11t-11.5 -30v-3060q0 -18 11.5 -29.5t28.5 -11.5z" />
    <glyph glyph-name="uniE140" unicode="&#x32;&#x20de;" horiz-adv-x="3912" 
d="M1238 0v312l729 675q93 90 156.5 162t96.5 141.5t33 150.5q0 90 -41 155.5t-112 101t-161 35.5q-94 0 -164 -38t-108 -109t-38 -169h-411q0 201 91 349t255 229t378 81q220 0 383.5 -77.5t254.5 -214.5t91 -314q0 -116 -45.5 -229t-161.5 -250.5t-327 -329.5l-299 -293
v-14h860v-354h-1460zM444 -832q-168 0 -256 88t-88 256v3024q0 168 88 256t256 88h3024q168 0 256 -88t88 -256v-3024q0 -168 -88 -256t-256 -88h-3024zM425 -547h3061q19 0 30 11.5t11 29.5v3060q0 19 -11 30t-30 11h-3061q-17 0 -28.5 -11t-11.5 -30v-3060
q0 -18 11.5 -29.5t28.5 -11.5z" />
    <glyph glyph-name="uniE141" unicode="&#x33;&#x20de;" horiz-adv-x="3912" 
d="M1945 -28q-224 0 -398.5 77.5t-275 214t-103.5 315.5h436q4 -75 49.5 -131.5t121.5 -87.5t171 -31q99 0 175 35t119 97t43 143q0 82 -45.5 145.5t-130 99.5t-200.5 36h-191v318h191q98 0 173.5 34t117.5 94.5t42 141.5q0 77 -36.5 135.5t-102 91.5t-152.5 33
q-88 0 -161 -31.5t-117 -89.5t-47 -136h-415q3 177 101 312t264.5 211.5t376.5 76.5q212 0 371 -77t247.5 -207.5t87.5 -292.5q1 -172 -106.5 -287t-279.5 -146v-16q226 -29 344.5 -156.5t117.5 -318.5q1 -175 -100.5 -311t-279.5 -214t-408 -78zM444 -832q-168 0 -256 88
t-88 256v3024q0 168 88 256t256 88h3024q168 0 256 -88t88 -256v-3024q0 -168 -88 -256t-256 -88h-3024zM425 -547h3061q19 0 30 11.5t11 29.5v3060q0 19 -11 30t-30 11h-3061q-17 0 -28.5 -11t-11.5 -30v-3060q0 -18 11.5 -29.5t28.5 -11.5z" />
    <glyph glyph-name="uniE142" unicode="&#x34;&#x20de;" horiz-adv-x="3912" 
d="M1075 360v341l855 1347h294v-472h-174l-539 -853v-16h1215v-347h-1651zM2058 0v464l8 151v1433h406v-2048h-414zM444 -832q-168 0 -256 88t-88 256v3024q0 168 88 256t256 88h3024q168 0 256 -88t88 -256v-3024q0 -168 -88 -256t-256 -88h-3024zM425 -547h3061
q19 0 30 11.5t11 29.5v3060q0 19 -11 30t-30 11h-3061q-17 0 -28.5 -11t-11.5 -30v-3060q0 -18 11.5 -29.5t28.5 -11.5z" />
    <glyph glyph-name="uniE143" unicode="&#x35;&#x20de;" horiz-adv-x="3912" 
d="M1944 -28q-212 0 -377.5 78t-262.5 215t-101 314h420q7 -119 100 -193t221 -74q102 0 180.5 45.5t123 127t44.5 187.5q0 108 -45.5 190t-125.5 128t-183 47q-90 0 -174.5 -37t-131.5 -101l-385 69l97 1080h1252v-354h-895l-53 -513h12q54 76 163 126t244 50
q185 0 330 -87t229 -238.5t83 -348.5q1 -207 -95.5 -367.5t-269 -252t-400.5 -91.5zM444 -832q-168 0 -256 88t-88 256v3024q0 168 88 256t256 88h3024q168 0 256 -88t88 -256v-3024q0 -168 -88 -256t-256 -88h-3024zM425 -547h3061q19 0 30 11.5t11 29.5v3060q0 19 -11 30
t-30 11h-3061q-17 0 -28.5 -11t-11.5 -30v-3060q0 -18 11.5 -29.5t28.5 -11.5z" />
    <glyph glyph-name="uniE144" unicode="&#x36;&#x20de;" horiz-adv-x="3912" 
d="M1962 -28q-158 1 -304.5 53t-262 169t-183 310t-68.5 474q1 260 59.5 465t168 347.5t262.5 217t343 74.5q205 0 362 -80t252.5 -217t115.5 -309h-427q-25 112 -105 173.5t-198 61.5q-200 0 -303.5 -174.5t-105.5 -478.5h14q46 91 124.5 155.5t179 99t212.5 34.5
q182 0 324 -85.5t224 -234.5t82 -341q0 -208 -96.5 -370t-269 -253.5t-400.5 -90.5zM1960 312q100 0 179 48t124 130t45 184t-44.5 183t-122.5 129t-178 48q-75 0 -138.5 -28t-111 -78t-74.5 -115.5t-27 -139.5q0 -99 45.5 -181t124 -131t178.5 -49zM444 -832
q-168 0 -256 88t-88 256v3024q0 168 88 256t256 88h3024q168 0 256 -88t88 -256v-3024q0 -168 -88 -256t-256 -88h-3024zM425 -547h3061q19 0 30 11.5t11 29.5v3060q0 19 -11 30t-30 11h-3061q-17 0 -28.5 -11t-11.5 -30v-3060q0 -18 11.5 -29.5t28.5 -11.5z" />
    <glyph glyph-name="uniE145" unicode="&#x37;&#x20de;" horiz-adv-x="3912" 
d="M1417 0l849 1680v14h-989v354h1437v-359l-850 -1689h-447zM444 -832q-168 0 -256 88t-88 256v3024q0 168 88 256t256 88h3024q168 0 256 -88t88 -256v-3024q0 -168 -88 -256t-256 -88h-3024zM425 -547h3061q19 0 30 11.5t11 29.5v3060q0 19 -11 30t-30 11h-3061
q-17 0 -28.5 -11t-11.5 -30v-3060q0 -18 11.5 -29.5t28.5 -11.5z" />
    <glyph glyph-name="uniE146" unicode="&#x38;&#x20de;" horiz-adv-x="3912" 
d="M1956 -28q-231 0 -410.5 75.5t-281.5 206.5t-102 297q0 128 58.5 235.5t159.5 179t226 91.5v14q-164 33 -266 159.5t-102 294.5q0 159 93 283.5t255.5 196t369.5 71.5t369.5 -72t255.5 -196.5t94 -282.5q-1 -169 -104 -295t-264 -159v-14q123 -20 223.5 -91.5t160 -179
t60.5 -235.5q-1 -166 -103 -297t-281.5 -206.5t-410.5 -75.5zM1956 290q103 0 180 37.5t120.5 104t43.5 153.5q0 89 -45 157.5t-122 108t-177 39.5q-99 0 -177 -39.5t-122.5 -108t-44.5 -157.5q0 -87 43 -153.5t121 -104t180 -37.5zM1956 1205q86 0 153 35t105 97t38 143
q0 80 -38 140.5t-104 95t-154 34.5q-87 0 -154 -34.5t-104.5 -95t-37.5 -140.5q0 -81 38 -143t105 -97t153 -35zM444 -832q-168 0 -256 88t-88 256v3024q0 168 88 256t256 88h3024q168 0 256 -88t88 -256v-3024q0 -168 -88 -256t-256 -88h-3024zM425 -547h3061q19 0 30 11.5
t11 29.5v3060q0 19 -11 30t-30 11h-3061q-17 0 -28.5 -11t-11.5 -30v-3060q0 -18 11.5 -29.5t28.5 -11.5z" />
    <glyph glyph-name="uniE147" unicode="&#x39;&#x20de;" horiz-adv-x="3912" 
d="M1938 2082q158 0 304.5 -52.5t262 -169.5t183 -309.5t68.5 -473.5q-1 -261 -59.5 -465.5t-167.5 -347.5t-262.5 -217.5t-343.5 -74.5q-205 0 -362 79.5t-252.5 217t-115.5 309.5h427q25 -112 105 -173.5t198 -61.5q200 0 304 174.5t105 478.5h-14q-46 -90 -124 -154.5
t-178.5 -99.5t-213.5 -35q-181 0 -323.5 85t-224.5 234.5t-81 341.5q-1 208 95 369.5t268.5 253.5t401.5 91zM1941 1742q-101 0 -179.5 -48t-124 -130t-44.5 -184q-1 -102 43.5 -183t122.5 -128.5t178 -47.5q75 0 138.5 28t111 77.5t74.5 115t28 140.5q-1 99 -46 181
t-124 130.5t-178 48.5zM444 -832q-168 0 -256 88t-88 256v3024q0 168 88 256t256 88h3024q168 0 256 -88t88 -256v-3024q0 -168 -88 -256t-256 -88h-3024zM425 -547h3061q19 0 30 11.5t11 29.5v3060q0 19 -11 30t-30 11h-3061q-17 0 -28.5 -11t-11.5 -30v-3060
q0 -18 11.5 -29.5t28.5 -11.5z" />
    <glyph glyph-name="uniE148" unicode="&#xe06b;&#x20de;" horiz-adv-x="3912" 
d="M2257 1829l164 -85l-774 -1522l-156 95zM1956 -42q-258 0 -443.5 126.5t-285 365t-98.5 574.5q0 336 99.5 571.5t285 359t442.5 123.5t442.5 -123.5t285.5 -359.5t99 -571q0 -337 -99.5 -576t-284.5 -364.5t-443 -125.5zM1956 317q176 0 281 176.5t104 530.5
q0 233 -47.5 388t-134 233t-203.5 78q-175 0 -280 -175t-106 -524q0 -235 47.5 -392.5t134.5 -236t204 -78.5zM444 -832q-168 0 -256 88t-88 256v3024q0 168 88 256t256 88h3024q168 0 256 -88t88 -256v-3024q0 -168 -88 -256t-256 -88h-3024zM425 -547h3061q19 0 30 11.5
t11 29.5v3060q0 19 -11 30t-30 11h-3061q-17 0 -28.5 -11t-11.5 -30v-3060q0 -18 11.5 -29.5t28.5 -11.5z" />
    <glyph glyph-name="uniE149" unicode="&#xe06c;&#x20de;" horiz-adv-x="3912" 
d="M2256 2048v-2048h-432v1518h-19q-22 -34 -77.5 -69t-141 -59t-198.5 -24v344q99 0 179.5 34.5t139.5 87.5t91 111t34 105h424zM444 -832q-168 0 -256 88t-88 256v3024q0 168 88 256t256 88h3024q168 0 256 -88t88 -256v-3024q0 -168 -88 -256t-256 -88h-3024zM425 -547
h3061q19 0 30 11.5t11 29.5v3060q0 19 -11 30t-30 11h-3061q-17 0 -28.5 -11t-11.5 -30v-3060q0 -18 11.5 -29.5t28.5 -11.5z" />
    <glyph glyph-name="uniE14A" unicode="&#xe06d;&#x20de;" horiz-adv-x="3912" 
d="M1160 579h437q6 -77 52.5 -133.5t122.5 -86.5t168 -30q100 0 175.5 34t118.5 98t43 151q0 85 -43 151.5t-129 105t-213 38.5h-221v301l454 472v14h-862v354h1394v-312l-550 -556v-16q162 -16 279.5 -70t192.5 -134.5t112 -177.5t37 -199q0 -181 -103.5 -319t-281.5 -215
t-404 -77q-225 0 -398.5 76t-274 212.5t-106.5 318.5zM444 -832q-168 0 -256 88t-88 256v3024q0 168 88 256t256 88h3024q168 0 256 -88t88 -256v-3024q0 -168 -88 -256t-256 -88h-3024zM425 -547h3061q19 0 30 11.5t11 29.5v3060q0 19 -11 30t-30 11h-3061q-17 0 -28.5 -11
t-11.5 -30v-3060q0 -18 11.5 -29.5t28.5 -11.5z" />
    <glyph glyph-name="uniE14B" unicode="&#xe06e;&#x20de;" horiz-adv-x="3912" 
d="M1083 360v341l765 1347h417l-747 -1325v-16h1216v-347h-1651zM2066 0v461l12 154v665h395v-1280h-407zM444 -832q-168 0 -256 88t-88 256v3024q0 168 88 256t256 88h3024q168 0 256 -88t88 -256v-3024q0 -168 -88 -256t-256 -88h-3024zM425 -547h3061q19 0 30 11.5
t11 29.5v3060q0 19 -11 30t-30 11h-3061q-17 0 -28.5 -11t-11.5 -30v-3060q0 -18 11.5 -29.5t28.5 -11.5z" />
    <glyph glyph-name="uniE14C" unicode="&#xe06f;&#x20de;" horiz-adv-x="3912" 
d="M1214 665q0 108 28.5 215t86.5 221t147 245l474 702h436l-497 -728q38 8 78.5 14.5t82.5 6.5q189 0 335 -85t229.5 -235t83.5 -347q0 -211 -95 -369t-261 -245.5t-379 -87.5q-205 0 -375.5 82t-272.5 237t-101 374zM1637 661q0 -103 41 -182t114 -124t169 -45
q95 0 167.5 45t113 124t40.5 180q0 103 -41.5 181.5t-114 123t-165.5 44.5q-96 0 -169 -44.5t-114 -123t-41 -179.5zM444 -832q-168 0 -256 88t-88 256v3024q0 168 88 256t256 88h3024q168 0 256 -88t88 -256v-3024q0 -168 -88 -256t-256 -88h-3024zM425 -547h3061
q19 0 30 11.5t11 29.5v3060q0 19 -11 30t-30 11h-3061q-17 0 -28.5 -11t-11.5 -30v-3060q0 -18 11.5 -29.5t28.5 -11.5z" />
    <glyph glyph-name="uniE14D" unicode="&#xe070;&#x20de;" horiz-adv-x="3912" 
d="M1214 1374q0 211 95 369t260.5 245.5t379.5 87.5q204 0 374.5 -81.5t273 -236.5t102.5 -375q-1 -108 -30 -215t-87 -221t-146 -245l-474 -702h-435l496 730q-38 -10 -78.5 -16.5t-82.5 -6.5q-190 0 -336 85t-229 235t-83 347zM1630 1389q0 -103 41 -181.5t113.5 -123
t166.5 -44.5q95 0 168 44.5t114.5 122.5t41.5 180q0 103 -41 182t-114.5 124t-168.5 45q-94 0 -166.5 -45t-113.5 -124t-41 -180zM444 -832q-168 0 -256 88t-88 256v3024q0 168 88 256t256 88h3024q168 0 256 -88t88 -256v-3024q0 -168 -88 -256t-256 -88h-3024zM425 -547
h3061q19 0 30 11.5t11 29.5v3060q0 19 -11 30t-30 11h-3061q-17 0 -28.5 -11t-11.5 -30v-3060q0 -18 11.5 -29.5t28.5 -11.5z" />
    <glyph glyph-name="uniE14E" unicode="&#x21;&#x20de;" horiz-adv-x="3912" 
d="M2178 2048l-39 -1434h-366l-40 1434h445zM1956 -26q-99 0 -170 70.5t-70 169.5q-1 98 70 168t170 70q95 0 167 -70t73 -168q-1 -66 -34.5 -120.5t-87.5 -87t-118 -32.5zM444 -832q-168 0 -256 88t-88 256v3024q0 168 88 256t256 88h3024q168 0 256 -88t88 -256v-3024
q0 -168 -88 -256t-256 -88h-3024zM425 -547h3061q19 0 30 11.5t11 29.5v3060q0 19 -11 30t-30 11h-3061q-17 0 -28.5 -11t-11.5 -30v-3060q0 -18 11.5 -29.5t28.5 -11.5z" />
    <glyph glyph-name="uniE14F" unicode="&#x3f;&#x20de;" horiz-adv-x="3912" 
d="M1739 614v34q1 175 31.5 279t89.5 168t142 116q62 40 111 83t78 95.5t29 117.5q0 69 -33 121t-88.5 80t-122.5 28q-65 0 -123 -28.5t-95 -84t-40 -137.5h-408q5 200 96 330.5t241 195t331 64.5q199 0 352 -65.5t240 -189.5t87 -299q0 -117 -38.5 -207.5t-107.5 -160
t-163 -125.5q-79 -47 -129.5 -98t-75 -118t-25.5 -165v-34h-379zM1937 -26q-100 0 -170.5 70.5t-69.5 169.5q-1 98 69.5 168t170.5 70q95 0 167 -70t73 -168q-1 -66 -34.5 -120.5t-87.5 -87t-118 -32.5zM444 -832q-168 0 -256 88t-88 256v3024q0 168 88 256t256 88h3024
q168 0 256 -88t88 -256v-3024q0 -168 -88 -256t-256 -88h-3024zM425 -547h3061q19 0 30 11.5t11 29.5v3060q0 19 -11 30t-30 11h-3061q-17 0 -28.5 -11t-11.5 -30v-3060q0 -18 11.5 -29.5t28.5 -11.5z" />
    <glyph glyph-name="uniE150" unicode="&#x23;&#x20de;" horiz-adv-x="3912" 
d="M1988 0l336 2048h320l-336 -2048h-320zM1071 508l53 320h1600l-53 -320h-1600zM1268 0l336 2048h320l-336 -2048h-320zM1188 1220l54 320h1600l-54 -320h-1600zM444 -832q-168 0 -256 88t-88 256v3024q0 168 88 256t256 88h3024q168 0 256 -88t88 -256v-3024
q0 -168 -88 -256t-256 -88h-3024zM425 -547h3061q19 0 30 11.5t11 29.5v3060q0 19 -11 30t-30 11h-3061q-17 0 -28.5 -11t-11.5 -30v-3060q0 -18 11.5 -29.5t28.5 -11.5z" />
    <glyph glyph-name="uniE151" unicode="&#x2d;&#x20de;" horiz-adv-x="3912" 
d="M2423 1193v-338h-934v338h934zM444 -832q-168 0 -256 88t-88 256v3024q0 168 88 256t256 88h3024q168 0 256 -88t88 -256v-3024q0 -168 -88 -256t-256 -88h-3024zM425 -547h3061q19 0 30 11.5t11 29.5v3060q0 19 -11 30t-30 11h-3061q-17 0 -28.5 -11t-11.5 -30v-3060
q0 -18 11.5 -29.5t28.5 -11.5z" />
    <glyph glyph-name="uniE152" unicode="&#x3c;&#x20de;" horiz-adv-x="3912" 
d="M1212 835v352l1408 620v-405l-964 -387l13 21v-50l-13 21l964 -387v-405zM444 -832q-168 0 -256 88t-88 256v3024q0 168 88 256t256 88h3024q168 0 256 -88t88 -256v-3024q0 -168 -88 -256t-256 -88h-3024zM425 -547h3061q19 0 30 11.5t11 29.5v3060q0 19 -11 30t-30 11
h-3061q-17 0 -28.5 -11t-11.5 -30v-3060q0 -18 11.5 -29.5t28.5 -11.5z" />
    <glyph glyph-name="uniE153" unicode="&#x3e;&#x20de;" horiz-adv-x="3912" 
d="M2700 835l-1408 -620v405l964 387l-13 -21v50l13 -21l-964 387v405l1408 -620v-352zM444 -832q-168 0 -256 88t-88 256v3024q0 168 88 256t256 88h3024q168 0 256 -88t88 -256v-3024q0 -168 -88 -256t-256 -88h-3024zM425 -547h3061q19 0 30 11.5t11 29.5v3060
q0 19 -11 30t-30 11h-3061q-17 0 -28.5 -11t-11.5 -30v-3060q0 -18 11.5 -29.5t28.5 -11.5z" />
    <glyph glyph-name="uniE154" unicode="&#x3d;&#x20de;" horiz-adv-x="3912" 
d="M1265 1179v355h1381v-355h-1381zM1265 515v355h1381v-355h-1381zM444 -832q-168 0 -256 88t-88 256v3024q0 168 88 256t256 88h3024q168 0 256 -88t88 -256v-3024q0 -168 -88 -256t-256 -88h-3024zM425 -547h3061q19 0 30 11.5t11 29.5v3060q0 19 -11 30t-30 11h-3061
q-17 0 -28.5 -11t-11.5 -30v-3060q0 -18 11.5 -29.5t28.5 -11.5z" />
    <glyph glyph-name="uniE155" unicode="&#x2b;&#x20de;" horiz-adv-x="3912" 
d="M1777 312v1416h358v-1416h-358zM1248 841v358h1416v-358h-1416zM444 -832q-168 0 -256 88t-88 256v3024q0 168 88 256t256 88h3024q168 0 256 -88t88 -256v-3024q0 -168 -88 -256t-256 -88h-3024zM425 -547h3061q19 0 30 11.5t11 29.5v3060q0 19 -11 30t-30 11h-3061
q-17 0 -28.5 -11t-11.5 -30v-3060q0 -18 11.5 -29.5t28.5 -11.5z" />
    <glyph glyph-name="uniE156" unicode="&#x2212;&#x20de;" horiz-adv-x="3912" 
d="M2656 1203v-358h-1400v358h1400zM444 -832q-168 0 -256 88t-88 256v3024q0 168 88 256t256 88h3024q168 0 256 -88t88 -256v-3024q0 -168 -88 -256t-256 -88h-3024zM425 -547h3061q19 0 30 11.5t11 29.5v3060q0 19 -11 30t-30 11h-3061q-17 0 -28.5 -11t-11.5 -30v-3060
q0 -18 11.5 -29.5t28.5 -11.5z" />
    <glyph glyph-name="uniE157" unicode="&#xd7;&#x20de;" horiz-adv-x="3912" 
d="M2422 284l-1195 1193l262 265l1196 -1195zM1489 284l-262 263l1195 1195l263 -265zM444 -832q-168 0 -256 88t-88 256v3024q0 168 88 256t256 88h3024q168 0 256 -88t88 -256v-3024q0 -168 -88 -256t-256 -88h-3024zM425 -547h3061q19 0 30 11.5t11 29.5v3060
q0 19 -11 30t-30 11h-3061q-17 0 -28.5 -11t-11.5 -30v-3060q0 -18 11.5 -29.5t28.5 -11.5z" />
    <glyph glyph-name="uniE158" unicode="&#xf7;&#x20de;" horiz-adv-x="3912" 
d="M2656 1194v-339h-1400v339h1400zM1956 227q-101 0 -172 71t-71 172q0 98 71 168t172 70q98 0 168 -70t70 -168q0 -101 -70 -172t-168 -71zM1956 1340q-67 0 -122 33t-88 88t-33 122q0 99 71.5 168.5t171.5 69.5q99 0 168.5 -69.5t69.5 -168.5q0 -101 -69.5 -172
t-168.5 -71zM444 -832q-168 0 -256 88t-88 256v3024q0 168 88 256t256 88h3024q168 0 256 -88t88 -256v-3024q0 -168 -88 -256t-256 -88h-3024zM425 -547h3061q19 0 30 11.5t11 29.5v3060q0 19 -11 30t-30 11h-3061q-17 0 -28.5 -11t-11.5 -30v-3060q0 -18 11.5 -29.5
t28.5 -11.5z" />
    <glyph glyph-name="uniE159" unicode="&#x2191;&#x20de;" horiz-adv-x="3912" 
d="M1789 0v1429l-533 -535l-234 232l936 934l934 -934l-230 -232l-535 535v-1429h-338zM444 -832q-168 0 -256 88t-88 256v3024q0 168 88 256t256 88h3024q168 0 256 -88t88 -256v-3024q0 -168 -88 -256t-256 -88h-3024zM425 -547h3061q19 0 30 11.5t11 29.5v3060
q0 19 -11 30t-30 11h-3061q-17 0 -28.5 -11t-11.5 -30v-3060q0 -18 11.5 -29.5t28.5 -11.5z" />
    <glyph glyph-name="uniE15A" unicode="&#x2193;&#x20de;" horiz-adv-x="3912" 
d="M2125 2048v-1429l533 535l234 -232l-936 -934l-934 934l230 232l535 -535v1429h338zM444 -832q-168 0 -256 88t-88 256v3024q0 168 88 256t256 88h3024q168 0 256 -88t88 -256v-3024q0 -168 -88 -256t-256 -88h-3024zM425 -547h3061q19 0 30 11.5t11 29.5v3060
q0 19 -11 30t-30 11h-3061q-17 0 -28.5 -11t-11.5 -30v-3060q0 -18 11.5 -29.5t28.5 -11.5z" />
    <glyph glyph-name="uniE15B" unicode="&#x2190;&#x20de;" horiz-adv-x="3912" 
d="M1936 16l-1008 1008l1008 1008l232 -230l-609 -609h1427v-338h-1427l609 -608zM444 -832q-168 0 -256 88t-88 256v3024q0 168 88 256t256 88h3024q168 0 256 -88t88 -256v-3024q0 -168 -88 -256t-256 -88h-3024zM425 -547h3061q19 0 30 11.5t11 29.5v3060q0 19 -11 30
t-30 11h-3061q-17 0 -28.5 -11t-11.5 -30v-3060q0 -18 11.5 -29.5t28.5 -11.5z" />
    <glyph glyph-name="uniE15C" unicode="&#x2192;&#x20de;" horiz-adv-x="3912" 
d="M1978 16l-232 230l609 609h-1427v338h1427l-609 608l232 231l1008 -1008zM444 -832q-168 0 -256 88t-88 256v3024q0 168 88 256t256 88h3024q168 0 256 -88t88 -256v-3024q0 -168 -88 -256t-256 -88h-3024zM425 -547h3061q19 0 30 11.5t11 29.5v3060q0 19 -11 30t-30 11
h-3061q-17 0 -28.5 -11t-11.5 -30v-3060q0 -18 11.5 -29.5t28.5 -11.5z" />
    <glyph glyph-name="uniE15D" unicode="&#x2713;&#x20de;" horiz-adv-x="3912" 
d="M968 963l282 283l463 -455l1027 1023l284 -283l-1311 -1304zM444 -832q-168 0 -256 88t-88 256v3024q0 168 88 256t256 88h3024q168 0 256 -88t88 -256v-3024q0 -168 -88 -256t-256 -88h-3024zM425 -547h3061q19 0 30 11.5t11 29.5v3060q0 19 -11 30t-30 11h-3061
q-17 0 -28.5 -11t-11.5 -30v-3060q0 -18 11.5 -29.5t28.5 -11.5z" />
    <glyph glyph-name="uniE15E" unicode="&#x2717;&#x20de;" horiz-adv-x="3912" 
d="M1451 238l-283 283l1295 1289l283 -283zM2461 238l-1295 1289l283 283l1295 -1289zM444 -832q-168 0 -256 88t-88 256v3024q0 168 88 256t256 88h3024q168 0 256 -88t88 -256v-3024q0 -168 -88 -256t-256 -88h-3024zM425 -547h3061q19 0 30 11.5t11 29.5v3060
q0 19 -11 30t-30 11h-3061q-17 0 -28.5 -11t-11.5 -30v-3060q0 -18 11.5 -29.5t28.5 -11.5z" />
    <glyph glyph-name=".notdef" horiz-adv-x="2956" 
d="M291 -640v512h2374v-512h-2374zM291 1472v512h2374v-512h-2374zM291 2176v512h2374v-512h-2374zM291 64v512h2374v-512h-2374zM291 768v512h2374v-512h-2374z" />
    <glyph glyph-name=".null" 
 />
    <glyph glyph-name="uni0041" unicode="A" horiz-adv-x="2106" 
d="M531 0h-464l707 2048h558l706 -2048h-464l-513 1580h-16zM502 805h1096v-338h-1096v338z" />
    <glyph glyph-name="uni00C4" unicode="&#xc4;" horiz-adv-x="2106" 
d="M531 0h-464l707 2048h558l706 -2048h-464l-513 1580h-16zM502 805h1096v-338h-1096v338zM748 2258q-86 0 -148 60.5t-62 143.5q0 85 62 144t148 59q87 0 147.5 -59t60.5 -144q0 -83 -60.5 -143.5t-147.5 -60.5zM1360 2258q-86 0 -148 60.5t-62 143.5q0 85 62 144t148 59
q87 0 147.5 -59t60.5 -144q0 -83 -60.5 -143.5t-147.5 -60.5z" />
    <glyph glyph-name="uni00C3" unicode="&#xc3;" horiz-adv-x="2106" 
d="M531 0h-464l707 2048h558l706 -2048h-464l-513 1580h-16zM502 805h1096v-338h-1096v338zM767 2250l-237 3q0 191 94.5 293t230.5 103q70 0 120.5 -22.5t91 -52.5t77.5 -52.5t80 -22.5q58 1 88.5 43.5t30.5 111.5l233 -7q-2 -189 -96 -291.5t-229 -103.5
q-75 0 -125.5 22.5t-88.5 52t-74 52.5t-81 23q-52 0 -83.5 -41t-31.5 -111z" />
    <glyph glyph-name="uni00C0" unicode="&#xc0;" horiz-adv-x="2106" 
d="M531 0h-464l707 2048h558l706 -2048h-464l-513 1580h-16zM502 805h1096v-338h-1096v338zM905 2246l-305 455h393l213 -455h-301z" />
    <glyph glyph-name="uni00C1" unicode="&#xc1;" horiz-adv-x="2106" 
d="M531 0h-464l707 2048h558l706 -2048h-464l-513 1580h-16zM502 805h1096v-338h-1096v338zM900 2246l212 455h394l-305 -455h-301z" />
    <glyph glyph-name="uni00C2" unicode="&#xc2;" horiz-adv-x="2106" 
d="M531 0h-464l707 2048h558l706 -2048h-464l-513 1580h-16zM502 805h1096v-338h-1096v338zM852 2231h-363v13l405 440h317l406 -440v-13h-363l-201 244z" />
    <glyph glyph-name="uni00C5" unicode="&#xc5;" horiz-adv-x="2106" 
d="M531 0h-464l707 2048h558l706 -2048h-464l-513 1580h-16zM502 805h1096v-338h-1096v338zM1053 2158q-89 0 -163 41.5t-118 112t-44 155.5q0 86 44 156t118 112t163 42q90 0 163.5 -42t117.5 -112.5t44 -155.5t-44 -155.5t-117.5 -112t-163.5 -41.5zM1053 2331
q58 1 100 40.5t42 96.5q0 56 -41.5 96t-100.5 39q-59 0 -101 -39.5t-42 -96.5q0 -56 42 -96t101 -40z" />
    <glyph glyph-name="uni0100" unicode="&#x100;" horiz-adv-x="2106" 
d="M531 0h-464l707 2048h558l706 -2048h-464l-513 1580h-16zM502 805h1096v-338h-1096v338zM1540 2560v-231h-974v231h974z" />
    <glyph glyph-name="uni0102" unicode="&#x102;" horiz-adv-x="2106" 
d="M531 0h-464l707 2048h558l706 -2048h-464l-513 1580h-16zM502 805h1096v-338h-1096v338zM1251 2584h297q-1 -182 -134.5 -293t-360.5 -111q-228 0 -361 111t-133 293h295q-1 -69 44.5 -124t154.5 -55q106 0 152 54t46 125z" />
    <glyph glyph-name="uni0104" unicode="&#x104;" horiz-adv-x="2106" 
d="M531 0h-464l707 2048h558l706 -2048h-464l-513 1580h-16zM502 805h1096v-338h-1096v338zM1844 -574q-133 0 -222.5 68.5t-112.5 195.5q-15 82 2.5 165t70 152t140.5 108l317 -115q-94 -44 -154 -95t-59 -123q-1 -48 24 -74t73 -26q33 0 59 8.5t46 15.5l44 -220
q-37 -21 -94.5 -40.5t-133.5 -19.5z" />
    <glyph glyph-name="uni01CD" unicode="&#x1cd;" horiz-adv-x="2106" 
d="M531 0h-464l707 2048h558l706 -2048h-464l-513 1580h-16zM502 805h1096v-338h-1096v338zM852 2686l201 -244l201 244h363v-14l-406 -440h-317l-405 440v14h363z" />
    <glyph glyph-name="uni01DE" unicode="&#x1de;" horiz-adv-x="2106" 
d="M531 0h-464l707 2048h558l706 -2048h-464l-513 1580h-16zM502 805h1096v-338h-1096v338zM749 2258q-86 0 -148 60.5t-62 143.5q0 85 62 144t148 59q87 0 147.5 -59t60.5 -144q0 -83 -60.5 -143.5t-147.5 -60.5zM1361 2258q-86 0 -148 60.5t-62 143.5q0 85 62 144t148 59
q87 0 147.5 -59t60.5 -144q0 -83 -60.5 -143.5t-147.5 -60.5zM1540 3072v-231h-974v231h974z" />
    <glyph glyph-name="uni01E0" unicode="&#x1e0;" horiz-adv-x="2106" 
d="M531 0h-464l707 2048h558l706 -2048h-464l-513 1580h-16zM502 805h1096v-338h-1096v338zM1054 2480q-95 0 -163 63.5t-68 152.5q0 88 68 151.5t162 63.5q96 0 163.5 -63.5t67.5 -151.5q0 -89 -67.5 -152.5t-162.5 -63.5zM1561 3272v-231h-974v231h974z" />
    <glyph glyph-name="uni01FA" unicode="&#x1fa;" horiz-adv-x="2106" 
d="M531 0h-464l707 2048h558l706 -2048h-464l-513 1580h-16zM502 805h1096v-338h-1096v338zM1052 2153q-103 0 -177.5 71t-74.5 170q0 100 74.5 171t177.5 71q107 0 180 -71t73 -171q0 -99 -73 -170t-180 -71zM1052 2298q42 0 70.5 28.5t28.5 67.5q0 36 -28.5 64t-70.5 28
q-40 0 -69 -28t-29 -64q0 -39 29 -67.5t69 -28.5zM907 2731l272 289h375l-386 -289h-261z" />
    <glyph glyph-name="uni0200" unicode="&#x200;" horiz-adv-x="2106" 
d="M531 0h-464l707 2048h558l706 -2048h-464l-513 1580h-16zM502 805h1096v-338h-1096v338zM887 2246l-350 186l-63 269l381 -186zM1376 2246l-310 186l3 269l328 -186z" />
    <glyph glyph-name="uni0202" unicode="&#x202;" horiz-adv-x="2106" 
d="M531 0h-464l707 2048h558l706 -2048h-464l-513 1580h-16zM502 805h1096v-338h-1096v338zM555 2295q-1 182 133 298.5t362 116.5t362 -116.5t134 -298.5h-297q0 70 -46 124t-153 54q-108 0 -153.5 -54.5t-44.5 -123.5h-297z" />
    <glyph glyph-name="uni0226" unicode="&#x226;" horiz-adv-x="2106" 
d="M531 0h-464l707 2048h558l706 -2048h-464l-513 1580h-16zM502 805h1096v-338h-1096v338zM1053 2246q-95 0 -163 63.5t-68 152.5q0 88 68 151.5t162 63.5q96 0 163.5 -63.5t67.5 -151.5q0 -89 -67.5 -152.5t-162.5 -63.5z" />
    <glyph glyph-name="uni1E00" unicode="&#x1e00;" horiz-adv-x="2106" 
d="M531 0h-464l707 2048h558l706 -2048h-464l-513 1580h-16zM502 805h1096v-338h-1096v338zM776 -312q0 98 77 166t191 68q109 0 186.5 -68t77.5 -166q0 -105 -77.5 -171t-186.5 -66q-114 0 -191 67t-77 170zM936 -312q0 -46 30.5 -74.5t77.5 -28.5q42 0 71.5 28.5
t29.5 74.5q0 42 -29.5 70t-71.5 28q-47 0 -77.5 -28t-30.5 -70z" />
    <glyph glyph-name="uni1EA0" unicode="&#x1ea0;" horiz-adv-x="2106" 
d="M531 0h-464l707 2048h558l706 -2048h-464l-513 1580h-16zM502 805h1096v-338h-1096v338zM1053 -576q-95 0 -163 63.5t-68 152.5q0 88 68 151.5t162 63.5q96 0 163.5 -63.5t67.5 -151.5q0 -89 -67.5 -152.5t-162.5 -63.5z" />
    <glyph glyph-name="uni1EA2" unicode="&#x1ea2;" horiz-adv-x="2106" 
d="M531 0h-464l707 2048h558l706 -2048h-464l-513 1580h-16zM502 805h1096v-338h-1096v338zM1210 2268h-316l-22 180q106 5 151 28.5t44 62.5q1 54 -56.5 73t-143.5 19l11 193q267 0 406.5 -72t138.5 -200q1 -91 -65.5 -137.5t-147.5 -58.5v-88z" />
    <glyph glyph-name="uni1EA4" unicode="&#x1ea4;" horiz-adv-x="2106" 
d="M531 0h-464l707 2048h558l706 -2048h-464l-513 1580h-16zM502 805h1096v-338h-1096v338zM532 2216l403 311h230l405 -311h-307l-211 168l-214 -168h-306zM1465 2392l234 375h330l-323 -375h-241z" />
    <glyph glyph-name="uni1EA6" unicode="&#x1ea6;" horiz-adv-x="2106" 
d="M531 0h-464l707 2048h558l706 -2048h-464l-513 1580h-16zM502 805h1096v-338h-1096v338zM1165 2521l406 -311h-307l-212 168l-213 -168h-305l402 311h229zM403 2760l235 -374h-238l-324 374h327z" />
    <glyph glyph-name="uni1EA8" unicode="&#x1ea8;" horiz-adv-x="2106" 
d="M531 0h-464l707 2048h558l706 -2048h-464l-513 1580h-16zM502 805h1096v-338h-1096v338zM1172 2516l394 -311h-293l-222 175l-225 -175h-293l394 311h245zM1657 2380h-221l-19 150q86 4 125 22t39 53q0 46 -49 62t-122 16l10 161q203 0 310 -59.5t107 -167.5
q0 -75 -56.5 -114.5t-123.5 -50.5v-72z" />
    <glyph glyph-name="uni1EAA" unicode="&#x1eaa;" horiz-adv-x="2106" 
d="M531 0h-464l707 2048h558l706 -2048h-464l-513 1580h-16zM502 805h1096v-338h-1096v338zM1167 2508l403 -307h-294l-225 168l-220 -168h-298l406 307h228zM1271 2848l148 -51q-1 -81 -52.5 -148.5t-137.5 -67.5q-47 0 -86.5 13t-74 31t-68 31t-71.5 13q-34 0 -53.5 -28.5
t-19.5 -66.5l-144 40q0 78 50.5 145.5t137.5 67.5q39 0 76.5 -13t75.5 -29.5t75 -29.5t73 -13q31 0 50.5 34t20.5 72z" />
    <glyph glyph-name="uni1EAC" unicode="&#x1eac;" horiz-adv-x="2106" 
d="M531 0h-464l707 2048h558l706 -2048h-464l-513 1580h-16zM502 805h1096v-338h-1096v338zM852 2231h-363v13l405 440h317l406 -440v-13h-363l-201 244zM1053 -576q-95 0 -163 63.5t-68 152.5q0 88 68 151.5t162 63.5q96 0 163.5 -63.5t67.5 -151.5q0 -89 -67.5 -152.5
t-162.5 -63.5z" />
    <glyph glyph-name="uni1EAE" unicode="&#x1eae;" horiz-adv-x="2106" 
d="M531 0h-464l707 2048h558l706 -2048h-464l-513 1580h-16zM502 805h1096v-338h-1096v338zM1269 2535h277q0 -146 -135 -237.5t-364 -91.5q-228 0 -361.5 91.5t-132.5 237.5h272q-1 -59 50 -107.5t172 -48.5t171.5 48.5t50.5 107.5zM931 2533l177 256h293l-248 -256h-222z
" />
    <glyph glyph-name="uni1EB0" unicode="&#x1eb0;" horiz-adv-x="2106" 
d="M531 0h-464l707 2048h558l706 -2048h-464l-513 1580h-16zM502 805h1096v-338h-1096v338zM1269 2537h277q0 -142 -134.5 -234t-364.5 -92q-228 0 -361.5 92t-132.5 234h272q-1 -59 50 -107.5t172 -48.5q119 0 170.5 48.5t51.5 107.5zM958 2533l-250 256h293l175 -256h-218
z" />
    <glyph glyph-name="uni1EB2" unicode="&#x1eb2;" horiz-adv-x="2106" 
d="M531 0h-464l707 2048h558l706 -2048h-464l-513 1580h-16zM502 805h1096v-338h-1096v338zM1266 2520h276q1 -146 -134 -235t-366 -89q-230 0 -363.5 89t-134.5 235h274q1 -61 53 -103.5t171 -42.5q121 0 173 43.5t51 102.5zM1166 2565h-260l-25 142q102 3 148 19t45 46
q1 46 -55.5 60t-142.5 14l12 149q242 0 365.5 -55.5t122.5 -154.5q1 -73 -64.5 -107.5t-145.5 -43.5v-69z" />
    <glyph glyph-name="uni1EB4" unicode="&#x1eb4;" horiz-adv-x="2106" 
d="M531 0h-464l707 2048h558l706 -2048h-464l-513 1580h-16zM502 805h1096v-338h-1096v338zM1264 2525h275q-1 -147 -135 -238.5t-361 -91.5q-226 0 -360 91.5t-134 238.5h273q0 -59 49.5 -102.5t171.5 -43.5q117 0 168.5 42.5t52.5 103.5zM1282 2953l175 -53
q0 -98 -66 -173t-166 -75q-75 0 -127 22.5t-98.5 45.5t-106.5 23q-39 0 -68 -33.5t-28 -84.5l-172 47q-1 99 64 175t168 76q45 0 85.5 -13.5t80 -31.5t80.5 -31.5t86 -13.5q36 0 64.5 34.5t28.5 85.5z" />
    <glyph glyph-name="uni1EB6" unicode="&#x1eb6;" horiz-adv-x="2106" 
d="M531 0h-464l707 2048h558l706 -2048h-464l-513 1580h-16zM502 805h1096v-338h-1096v338zM1251 2584h297q-1 -182 -134.5 -293t-360.5 -111q-228 0 -361 111t-133 293h295q-1 -69 44.5 -124t154.5 -55q106 0 152 54t46 125zM1053 -576q-95 0 -163 63.5t-68 152.5
q0 88 68 151.5t162 63.5q96 0 163.5 -63.5t67.5 -151.5q0 -89 -67.5 -152.5t-162.5 -63.5z" />
    <glyph glyph-name="uni0391" unicode="&#x391;" horiz-adv-x="2106" 
d="M531 0h-464l707 2048h558l706 -2048h-464l-513 1580h-16zM502 805h1096v-338h-1096v338z" />
    <glyph glyph-name="uni0386" unicode="&#x386;" horiz-adv-x="2106" 
d="M531 0h-464l707 2048h558l706 -2048h-464l-513 1580h-16zM502 805h1096v-338h-1096v338zM180 1720l107 475h381l-237 -475h-251z" />
    <glyph glyph-name="uni1F08" unicode="&#x1f08;" horiz-adv-x="2106" 
d="M531 0h-464l707 2048h558l706 -2048h-464l-513 1580h-16zM502 805h1096v-338h-1096v338zM552 2048v-131q0 -86 -30.5 -157t-83 -123.5t-119.5 -84.5l-118 125q42 29 66 66t34 82.5t10 99.5v123h241z" />
    <glyph glyph-name="uni1F09" unicode="&#x1f09;" horiz-adv-x="2106" 
d="M531 0h-464l707 2048h558l706 -2048h-464l-513 1580h-16zM502 805h1096v-338h-1096v338zM248 1917v131h244v-123q0 -48 9 -93.5t32.5 -85t65.5 -69.5l-118 -125q-99 48 -165 142t-68 223z" />
    <glyph glyph-name="uni1F0A" unicode="&#x1f0a;" horiz-adv-x="2106" 
d="M531 0h-464l707 2048h558l706 -2048h-464l-513 1580h-16zM502 805h1096v-338h-1096v338zM602 1604v-20h-133l-326 436v28h298zM79 2048v-112q1 -80 -30 -151t-89.5 -130t-141.5 -103l-111 84q57 63 86 137t29 171v104h257z" />
    <glyph glyph-name="uni1F0B" unicode="&#x1f0b;" horiz-adv-x="2106" 
d="M531 0h-464l707 2048h558l706 -2048h-464l-513 1580h-16zM502 805h1096v-338h-1096v338zM600 1614v-32h-133l-326 438v28h302zM-215 1917v131h245v-123q0 -72 20.5 -137.5t89.5 -110.5l-118 -125q-104 48 -171 142t-66 223z" />
    <glyph glyph-name="uni1F0C" unicode="&#x1f0c;" horiz-adv-x="2106" 
d="M531 0h-464l707 2048h558l706 -2048h-464l-513 1580h-16zM502 805h1096v-338h-1096v338zM164 1582v32l160 434h298v-28l-326 -438h-132zM122 2048v-131q-1 -85 -31.5 -155.5t-84 -124t-122.5 -85.5l-117 125q66 45 87.5 110.5t21.5 137.5v123h246z" />
    <glyph glyph-name="uni1F0D" unicode="&#x1f0d;" horiz-adv-x="2106" 
d="M531 0h-464l707 2048h558l706 -2048h-464l-513 1580h-16zM502 805h1096v-338h-1096v338zM155 1582v32l154 434h302v-28l-328 -438h-128zM-274 1917v131h243v-123q1 -81 24 -143t83 -105l-117 -125q-96 46 -164.5 139t-68.5 226z" />
    <glyph glyph-name="uni1F0E" unicode="&#x1f0e;" horiz-adv-x="2106" 
d="M531 0h-464l707 2048h558l706 -2048h-464l-513 1580h-16zM502 805h1096v-338h-1096v338zM606 2389l173 -53q0 -99 -65 -173.5t-167 -74.5q-55 0 -97 14t-77.5 32.5t-72.5 32.5t-83 14q-42 0 -68 -35.5t-26 -84.5l-173 49q0 99 64.5 176t166.5 77q45 0 86 -13.5t81 -32
t80 -32.5t83 -14q40 0 67.5 34.5t27.5 83.5zM501 2018v-111q0 -103 -58.5 -181t-148.5 -118l-113 102q60 35 77.5 90.5t17.5 112.5v105h225z" />
    <glyph glyph-name="uni1F0F" unicode="&#x1f0f;" horiz-adv-x="2106" 
d="M531 0h-464l707 2048h558l706 -2048h-464l-513 1580h-16zM502 805h1096v-338h-1096v338zM235 1907v111h225v-105q0 -57 17.5 -112.5t77.5 -90.5l-117 -102q-82 38 -142.5 115t-60.5 184zM568 2389l173 -53q0 -99 -65 -173.5t-167 -74.5q-55 0 -97 14t-77.5 32.5
t-72.5 32.5t-83 14q-42 0 -68 -35.5t-26 -84.5l-173 49q0 99 64.5 176t166.5 77q45 0 86 -13.5t81 -32t80 -32.5t83 -14q40 0 67.5 34.5t27.5 83.5z" />
    <glyph glyph-name="uni1FB8" unicode="&#x1fb8;" horiz-adv-x="2106" 
d="M531 0h-464l707 2048h558l706 -2048h-464l-513 1580h-16zM502 805h1096v-338h-1096v338zM1251 2584h297q-1 -182 -134.5 -293t-360.5 -111q-228 0 -361 111t-133 293h295q-1 -69 44.5 -124t154.5 -55q106 0 152 54t46 125z" />
    <glyph glyph-name="uni1FB9" unicode="&#x1fb9;" horiz-adv-x="2106" 
d="M531 0h-464l707 2048h558l706 -2048h-464l-513 1580h-16zM502 805h1096v-338h-1096v338zM1540 2560v-231h-974v231h974z" />
    <glyph glyph-name="uni1FBA" unicode="&#x1fba;" horiz-adv-x="2106" 
d="M531 0h-464l707 2048h558l706 -2048h-464l-513 1580h-16zM502 805h1096v-338h-1096v338zM589 1580h-128l-326 440v28h298l156 -430v-38z" />
    <glyph glyph-name="uni023A" unicode="&#x23a;" horiz-adv-x="2106" 
d="M1718 2308l-830 -2568h-262l831 2568h261zM531 0h-464l707 2048h558l706 -2048h-464l-513 1580h-16zM502 805h1096v-338h-1096v338z" />
    <glyph glyph-name="uni1FBB" unicode="&#x1fbb;" horiz-adv-x="2106" 
d="M531 0h-464l707 2048h558l706 -2048h-464l-513 1580h-16zM502 805h1096v-338h-1096v338zM189 1728v38l156 430h381v-28l-325 -440h-212z" />
    <glyph glyph-name="uni0410" unicode="&#x410;" horiz-adv-x="2106" 
d="M531 0h-464l707 2048h558l706 -2048h-464l-513 1580h-16zM502 805h1096v-338h-1096v338z" />
    <glyph glyph-name="uni04D0" unicode="&#x4d0;" horiz-adv-x="2106" 
d="M531 0h-464l707 2048h558l706 -2048h-464l-513 1580h-16zM502 805h1096v-338h-1096v338zM1251 2584h297q-1 -182 -134.5 -293t-360.5 -111q-228 0 -361 111t-133 293h295q-1 -69 44.5 -124t154.5 -55q106 0 152 54t46 125z" />
    <glyph glyph-name="uni04D2" unicode="&#x4d2;" horiz-adv-x="2106" 
d="M531 0h-464l707 2048h558l706 -2048h-464l-513 1580h-16zM502 805h1096v-338h-1096v338zM748 2258q-86 0 -148 60.5t-62 143.5q0 85 62 144t148 59q87 0 147.5 -59t60.5 -144q0 -83 -60.5 -143.5t-147.5 -60.5zM1360 2258q-86 0 -148 60.5t-62 143.5q0 85 62 144t148 59
q87 0 147.5 -59t60.5 -144q0 -83 -60.5 -143.5t-147.5 -60.5z" />
    <glyph glyph-name="uni1F88" unicode="&#x1f88;" horiz-adv-x="2106" 
d="M531 0h-464l707 2048h558l706 -2048h-464l-513 1580h-16zM502 805h1096v-338h-1096v338zM1190 -680q-108 0 -184.5 61t-76.5 197v290h254v-288q0 -42 16.5 -62t58.5 -20q21 0 36.5 2t26.5 2v-164q-27 -7 -58 -12.5t-73 -5.5zM552 2048v-131q0 -86 -30.5 -157t-83 -123.5
t-119.5 -84.5l-118 125q42 29 66 66t34 82.5t10 99.5v123h241z" />
    <glyph glyph-name="uni1F89" unicode="&#x1f89;" horiz-adv-x="2106" 
d="M531 0h-464l707 2048h558l706 -2048h-464l-513 1580h-16zM502 805h1096v-338h-1096v338zM1190 -680q-108 0 -184.5 61t-76.5 197v290h254v-288q0 -42 16.5 -62t58.5 -20q21 0 36.5 2t26.5 2v-164q-27 -7 -58 -12.5t-73 -5.5zM248 1917v131h244v-123q0 -48 9 -93.5
t32.5 -85t65.5 -69.5l-118 -125q-99 48 -165 142t-68 223z" />
    <glyph glyph-name="uni1F8A" unicode="&#x1f8a;" horiz-adv-x="2106" 
d="M531 0h-464l707 2048h558l706 -2048h-464l-513 1580h-16zM502 805h1096v-338h-1096v338zM1190 -680q-108 0 -184.5 61t-76.5 197v290h254v-288q0 -42 16.5 -62t58.5 -20q21 0 36.5 2t26.5 2v-164q-27 -7 -58 -12.5t-73 -5.5zM602 1604v-20h-133l-326 436v28h298zM79 2048
v-112q1 -80 -30 -151t-89.5 -130t-141.5 -103l-111 84q57 63 86 137t29 171v104h257z" />
    <glyph glyph-name="uni1F8B" unicode="&#x1f8b;" horiz-adv-x="2106" 
d="M531 0h-464l707 2048h558l706 -2048h-464l-513 1580h-16zM502 805h1096v-338h-1096v338zM1190 -680q-108 0 -184.5 61t-76.5 197v290h254v-288q0 -42 16.5 -62t58.5 -20q21 0 36.5 2t26.5 2v-164q-27 -7 -58 -12.5t-73 -5.5zM600 1614v-32h-133l-326 438v28h302z
M-215 1917v131h245v-123q0 -72 20.5 -137.5t89.5 -110.5l-118 -125q-104 48 -171 142t-66 223z" />
    <glyph glyph-name="uni1F8C" unicode="&#x1f8c;" horiz-adv-x="2106" 
d="M531 0h-464l707 2048h558l706 -2048h-464l-513 1580h-16zM502 805h1096v-338h-1096v338zM164 1582v32l160 434h298v-28l-326 -438h-132zM122 2048v-131q-1 -85 -31.5 -155.5t-84 -124t-122.5 -85.5l-117 125q66 45 87.5 110.5t21.5 137.5v123h246zM1190 -680
q-108 0 -184.5 61t-76.5 197v290h254v-288q0 -42 16.5 -62t58.5 -20q21 0 36.5 2t26.5 2v-164q-27 -7 -58 -12.5t-73 -5.5z" />
    <glyph glyph-name="uni1F8D" unicode="&#x1f8d;" horiz-adv-x="2106" 
d="M531 0h-464l707 2048h558l706 -2048h-464l-513 1580h-16zM502 805h1096v-338h-1096v338zM1190 -680q-108 0 -184.5 61t-76.5 197v290h254v-288q0 -42 16.5 -62t58.5 -20q21 0 36.5 2t26.5 2v-164q-27 -7 -58 -12.5t-73 -5.5zM155 1582v32l154 434h302v-28l-328 -438h-128
zM-274 1917v131h243v-123q1 -81 24 -143t83 -105l-117 -125q-96 46 -164.5 139t-68.5 226z" />
    <glyph glyph-name="uni1F8E" unicode="&#x1f8e;" horiz-adv-x="2106" 
d="M531 0h-464l707 2048h558l706 -2048h-464l-513 1580h-16zM502 805h1096v-338h-1096v338zM606 2389l173 -53q0 -99 -65 -173.5t-167 -74.5q-55 0 -97 14t-77.5 32.5t-72.5 32.5t-83 14q-42 0 -68 -35.5t-26 -84.5l-173 49q0 99 64.5 176t166.5 77q45 0 86 -13.5t81 -32
t80 -32.5t83 -14q40 0 67.5 34.5t27.5 83.5zM501 2018v-111q0 -103 -58.5 -181t-148.5 -118l-113 102q60 35 77.5 90.5t17.5 112.5v105h225zM1190 -680q-108 0 -184.5 61t-76.5 197v290h254v-288q0 -42 16.5 -62t58.5 -20q21 0 36.5 2t26.5 2v-164q-27 -7 -58 -12.5
t-73 -5.5z" />
    <glyph glyph-name="uni1F8F" unicode="&#x1f8f;" horiz-adv-x="2106" 
d="M531 0h-464l707 2048h558l706 -2048h-464l-513 1580h-16zM502 805h1096v-338h-1096v338zM1190 -680q-108 0 -184.5 61t-76.5 197v290h254v-288q0 -42 16.5 -62t58.5 -20q21 0 36.5 2t26.5 2v-164q-27 -7 -58 -12.5t-73 -5.5zM235 1907v111h225v-105q0 -57 17.5 -112.5
t77.5 -90.5l-117 -102q-82 38 -142.5 115t-60.5 184zM568 2389l173 -53q0 -99 -65 -173.5t-167 -74.5q-55 0 -97 14t-77.5 32.5t-72.5 32.5t-83 14q-42 0 -68 -35.5t-26 -84.5l-173 49q0 99 64.5 176t166.5 77q45 0 86 -13.5t81 -32t80 -32.5t83 -14q40 0 67.5 34.5
t27.5 83.5z" />
    <glyph glyph-name="uni1FBC" unicode="&#x1fbc;" horiz-adv-x="2106" 
d="M531 0h-464l707 2048h558l706 -2048h-464l-513 1580h-16zM502 805h1096v-338h-1096v338zM1190 -680q-108 0 -184.5 61t-76.5 197v290h254v-288q0 -42 16.5 -62t58.5 -20q21 0 36.5 2t26.5 2v-164q-27 -7 -58 -12.5t-73 -5.5z" />
    <glyph glyph-name="uni039B" unicode="&#x39b;" horiz-adv-x="2106" 
d="M531 0h-464l707 2048h558l706 -2048h-464l-513 1580h-16z" />
    <glyph glyph-name="uni00C6" unicode="&#xc6;" horiz-adv-x="2901" 
d="M67 0l877 2048h1790v-357h-947v-488h876v-357h-876v-489h951v-357h-1384v1622h-143l-668 -1622h-476zM537 467v338h1064v-338h-1064z" />
    <glyph glyph-name="uni01E2" unicode="&#x1e2;" horiz-adv-x="2901" 
d="M67 0l877 2048h1790v-357h-947v-488h876v-357h-876v-489h951v-357h-1384v1622h-143l-668 -1622h-476zM537 467v338h1064v-338h-1064zM2331 2560v-231h-974v231h974z" />
    <glyph glyph-name="uni01FC" unicode="&#x1fc;" horiz-adv-x="2901" 
d="M67 0l877 2048h1790v-357h-947v-488h876v-357h-876v-489h951v-357h-1384v1622h-143l-668 -1622h-476zM537 467v338h1064v-338h-1064zM1691 2246l212 455h394l-305 -455h-301z" />
    <glyph glyph-name="uni04D4" unicode="&#x4d4;" horiz-adv-x="2901" 
d="M67 0l877 2048h1790v-357h-947v-488h876v-357h-876v-489h951v-357h-1384v1622h-143l-668 -1622h-476zM537 467v338h1064v-338h-1064z" />
    <glyph glyph-name="uni0042" unicode="B" horiz-adv-x="1861" 
d="M178 0v2048h820q226 0 377 -67t227 -185.5t76 -272.5q0 -120 -48 -210.5t-131.5 -148t-190.5 -81.5v-20q117 -5 219.5 -66t166.5 -170.5t64 -260.5q0 -163 -80.5 -290.5t-237.5 -201.5t-387 -74h-875zM611 354h353q181 0 264 69.5t83 185.5q0 85 -41 150t-116.5 102
t-179.5 37h-363v-544zM611 1191h321q89 0 158.5 31.5t110 89.5t40.5 139q0 111 -78.5 179t-222.5 68h-329v-507z" />
    <glyph glyph-name="uni1E02" unicode="&#x1e02;" horiz-adv-x="1861" 
d="M178 0v2048h820q226 0 377 -67t227 -185.5t76 -272.5q0 -120 -48 -210.5t-131.5 -148t-190.5 -81.5v-20q117 -5 219.5 -66t166.5 -170.5t64 -260.5q0 -163 -80.5 -290.5t-237.5 -201.5t-387 -74h-875zM611 354h353q181 0 264 69.5t83 185.5q0 85 -41 150t-116.5 102
t-179.5 37h-363v-544zM611 1191h321q89 0 158.5 31.5t110 89.5t40.5 139q0 111 -78.5 179t-222.5 68h-329v-507zM901 2246q-95 0 -163 63.5t-68 152.5q0 88 68 151.5t162 63.5q96 0 163.5 -63.5t67.5 -151.5q0 -89 -67.5 -152.5t-162.5 -63.5z" />
    <glyph glyph-name="uni1E04" unicode="&#x1e04;" horiz-adv-x="1861" 
d="M178 0v2048h820q226 0 377 -67t227 -185.5t76 -272.5q0 -120 -48 -210.5t-131.5 -148t-190.5 -81.5v-20q117 -5 219.5 -66t166.5 -170.5t64 -260.5q0 -163 -80.5 -290.5t-237.5 -201.5t-387 -74h-875zM611 354h353q181 0 264 69.5t83 185.5q0 85 -41 150t-116.5 102
t-179.5 37h-363v-544zM611 1191h321q89 0 158.5 31.5t110 89.5t40.5 139q0 111 -78.5 179t-222.5 68h-329v-507zM903 -576q-95 0 -163 63.5t-68 152.5q0 88 68 151.5t162 63.5q96 0 163.5 -63.5t67.5 -151.5q0 -89 -67.5 -152.5t-162.5 -63.5z" />
    <glyph glyph-name="uni1E06" unicode="&#x1e06;" horiz-adv-x="1861" 
d="M178 0v2048h820q226 0 377 -67t227 -185.5t76 -272.5q0 -120 -48 -210.5t-131.5 -148t-190.5 -81.5v-20q117 -5 219.5 -66t166.5 -170.5t64 -260.5q0 -163 -80.5 -290.5t-237.5 -201.5t-387 -74h-875zM611 354h353q181 0 264 69.5t83 185.5q0 85 -41 150t-116.5 102
t-179.5 37h-363v-544zM611 1191h321q89 0 158.5 31.5t110 89.5t40.5 139q0 111 -78.5 179t-222.5 68h-329v-507zM1390 -256v-231h-974v231h974z" />
    <glyph glyph-name="uni0243" unicode="&#x243;" horiz-adv-x="2038" 
d="M356 0v2048h820q226 0 377 -67t227 -185.5t76 -272.5q0 -120 -48 -210.5t-131.5 -148t-190.5 -81.5v-20q117 -5 219.5 -66t166.5 -170.5t64 -260.5q0 -163 -80.5 -290.5t-237.5 -201.5t-387 -74h-875zM789 354h353q181 0 264 69.5t83 185.5q0 85 -41 150t-116.5 102
t-179.5 37h-363v-544zM789 1191h321q89 0 158.5 31.5t110 89.5t40.5 139q0 111 -78.5 179t-222.5 68h-329v-507zM61 501v251h998v-251h-998z" />
    <glyph glyph-name="uni0181" unicode="&#x181;" horiz-adv-x="2440" 
d="M984 1694h-297q-83 0 -127 -38.5t-59.5 -97t-14.5 -120.5v-119h-386v201q-1 161 70 279.5t202.5 183.5t313.5 65h298v-354zM758 0v2048h819q226 0 377 -67t227.5 -185.5t76.5 -272.5q0 -120 -48.5 -210.5t-132 -148t-190.5 -81.5v-20q117 -5 220 -66t167 -170.5
t64 -260.5q0 -163 -80.5 -290.5t-237.5 -201.5t-388 -74h-874zM1190 354h353q181 0 264 69.5t83 185.5q0 85 -41 150t-116.5 102t-179.5 37h-363v-544zM1190 1191h321q89 0 158.5 31.5t110 89.5t40.5 139q0 111 -78.5 179t-222.5 68h-329v-507z" />
    <glyph glyph-name="uni0412" unicode="&#x412;" horiz-adv-x="1861" 
d="M178 0v2048h820q226 0 377 -67t227 -185.5t76 -272.5q0 -120 -48 -210.5t-131.5 -148t-190.5 -81.5v-20q117 -5 219.5 -66t166.5 -170.5t64 -260.5q0 -163 -80.5 -290.5t-237.5 -201.5t-387 -74h-875zM611 354h353q181 0 264 69.5t83 185.5q0 85 -41 150t-116.5 102
t-179.5 37h-363v-544zM611 1191h321q89 0 158.5 31.5t110 89.5t40.5 139q0 111 -78.5 179t-222.5 68h-329v-507z" />
    <glyph glyph-name="uni0392" unicode="&#x392;" horiz-adv-x="1861" 
d="M178 0v2048h820q226 0 377 -67t227 -185.5t76 -272.5q0 -120 -48 -210.5t-131.5 -148t-190.5 -81.5v-20q117 -5 219.5 -66t166.5 -170.5t64 -260.5q0 -163 -80.5 -290.5t-237.5 -201.5t-387 -74h-875zM611 354h353q181 0 264 69.5t83 185.5q0 85 -41 150t-116.5 102
t-179.5 37h-363v-544zM611 1191h321q89 0 158.5 31.5t110 89.5t40.5 139q0 111 -78.5 179t-222.5 68h-329v-507z" />
    <glyph glyph-name="uni0043" unicode="C" horiz-adv-x="2118" 
d="M1985 1331h-438q-12 85 -49 151.5t-95 113.5t-133.5 72t-163.5 25q-159 0 -277 -78.5t-183 -228t-65 -362.5q0 -219 65.5 -368t183.5 -225t273 -76q87 0 161.5 23t132.5 67.5t96.5 108.5t53.5 146l438 -2q-17 -141 -84.5 -271.5t-181 -233t-270 -162t-353.5 -59.5
q-274 0 -489.5 124t-340 359t-124.5 569q0 335 126 570t342 358.5t486 123.5q178 0 330.5 -50t270.5 -145.5t192.5 -233.5t95.5 -316z" />
    <glyph glyph-name="uni0187" unicode="&#x187;" horiz-adv-x="2359" 
d="M1985 1331h-416v227q0 179 84.5 302t223.5 186.5t303 63.5q52 0 100.5 -1.5t102.5 -10.5v-344q-24 1 -60.5 3t-60.5 2q-64 0 -128 -23.5t-106.5 -79.5t-42.5 -153v-172zM1985 1331h-438q-12 85 -49 151.5t-95 113.5t-133.5 72t-163.5 25q-159 0 -277 -78.5t-183 -228
t-65 -362.5q0 -219 65.5 -368t183.5 -225t273 -76q87 0 161.5 23t132.5 67.5t96.5 108.5t53.5 146l438 -2q-17 -141 -84.5 -271.5t-181 -233t-270 -162t-353.5 -59.5q-274 0 -489.5 124t-340 359t-124.5 569q0 335 126 570t342 358.5t486 123.5q178 0 330.5 -50
t270.5 -145.5t192.5 -233.5t95.5 -316z" />
    <glyph glyph-name="uni00C7" unicode="&#xc7;" horiz-adv-x="2118" 
d="M1985 1331h-438q-12 85 -49 151.5t-95 113.5t-133.5 72t-163.5 25q-159 0 -277 -78.5t-183 -228t-65 -362.5q0 -219 65.5 -368t183.5 -225t273 -76q87 0 161.5 23t132.5 67.5t96.5 108.5t53.5 146l438 -2q-17 -141 -84.5 -271.5t-181 -233t-270 -162t-353.5 -59.5
q-274 0 -489.5 124t-340 359t-124.5 569q0 335 126 570t342 358.5t486 123.5q178 0 330.5 -50t270.5 -145.5t192.5 -233.5t95.5 -316zM989 6h196l-16 -87q103 -16 168.5 -77t66.5 -166q1 -149 -138 -237.5t-390 -88.5l-4 190q126 0 197.5 30.5t74.5 94.5q2 61 -47 93
t-153 45z" />
    <glyph glyph-name="uni0106" unicode="&#x106;" horiz-adv-x="2118" 
d="M1985 1331h-438q-12 85 -49 151.5t-95 113.5t-133.5 72t-163.5 25q-159 0 -277 -78.5t-183 -228t-65 -362.5q0 -219 65.5 -368t183.5 -225t273 -76q87 0 161.5 23t132.5 67.5t96.5 108.5t53.5 146l438 -2q-17 -141 -84.5 -271.5t-181 -233t-270 -162t-353.5 -59.5
q-274 0 -489.5 124t-340 359t-124.5 569q0 335 126 570t342 358.5t486 123.5q178 0 330.5 -50t270.5 -145.5t192.5 -233.5t95.5 -316zM943 2246l212 455h394l-305 -455h-301z" />
    <glyph glyph-name="uni0108" unicode="&#x108;" horiz-adv-x="2118" 
d="M1985 1331h-438q-12 85 -49 151.5t-95 113.5t-133.5 72t-163.5 25q-159 0 -277 -78.5t-183 -228t-65 -362.5q0 -219 65.5 -368t183.5 -225t273 -76q87 0 161.5 23t132.5 67.5t96.5 108.5t53.5 146l438 -2q-17 -141 -84.5 -271.5t-181 -233t-270 -162t-353.5 -59.5
q-274 0 -489.5 124t-340 359t-124.5 569q0 335 126 570t342 358.5t486 123.5q178 0 330.5 -50t270.5 -145.5t192.5 -233.5t95.5 -316zM895 2231h-363v13l405 440h317l406 -440v-13h-363l-201 244z" />
    <glyph glyph-name="uni010A" unicode="&#x10a;" horiz-adv-x="2118" 
d="M1985 1331h-438q-12 85 -49 151.5t-95 113.5t-133.5 72t-163.5 25q-159 0 -277 -78.5t-183 -228t-65 -362.5q0 -219 65.5 -368t183.5 -225t273 -76q87 0 161.5 23t132.5 67.5t96.5 108.5t53.5 146l438 -2q-17 -141 -84.5 -271.5t-181 -233t-270 -162t-353.5 -59.5
q-274 0 -489.5 124t-340 359t-124.5 569q0 335 126 570t342 358.5t486 123.5q178 0 330.5 -50t270.5 -145.5t192.5 -233.5t95.5 -316zM1097 2246q-95 0 -163 63.5t-68 152.5q0 88 68 151.5t162 63.5q96 0 163.5 -63.5t67.5 -151.5q0 -89 -67.5 -152.5t-162.5 -63.5z" />
    <glyph glyph-name="uni010C" unicode="&#x10c;" horiz-adv-x="2118" 
d="M1985 1331h-438q-12 85 -49 151.5t-95 113.5t-133.5 72t-163.5 25q-159 0 -277 -78.5t-183 -228t-65 -362.5q0 -219 65.5 -368t183.5 -225t273 -76q87 0 161.5 23t132.5 67.5t96.5 108.5t53.5 146l438 -2q-17 -141 -84.5 -271.5t-181 -233t-270 -162t-353.5 -59.5
q-274 0 -489.5 124t-340 359t-124.5 569q0 335 126 570t342 358.5t486 123.5q178 0 330.5 -50t270.5 -145.5t192.5 -233.5t95.5 -316zM895 2686l201 -244l201 244h363v-14l-406 -440h-317l-405 440v14h363z" />
    <glyph glyph-name="uni1E08" unicode="&#x1e08;" horiz-adv-x="2118" 
d="M1985 1331h-438q-12 85 -49 151.5t-95 113.5t-133.5 72t-163.5 25q-159 0 -277 -78.5t-183 -228t-65 -362.5q0 -219 65.5 -368t183.5 -225t273 -76q87 0 161.5 23t132.5 67.5t96.5 108.5t53.5 146l438 -2q-17 -141 -84.5 -271.5t-181 -233t-270 -162t-353.5 -59.5
q-274 0 -489.5 124t-340 359t-124.5 569q0 335 126 570t342 358.5t486 123.5q178 0 330.5 -50t270.5 -145.5t192.5 -233.5t95.5 -316zM989 6h196l-16 -87q103 -16 168.5 -77t66.5 -166q1 -149 -138 -237.5t-390 -88.5l-4 190q126 0 197.5 30.5t74.5 94.5q2 61 -47 93
t-153 45zM943 2246l212 455h394l-305 -455h-301z" />
    <glyph glyph-name="uni023B" unicode="&#x23b;" horiz-adv-x="2118" 
d="M519 -260l831 2568h261l-830 -2568h-262zM1985 1331h-438q-12 85 -49 151.5t-95 113.5t-133.5 72t-163.5 25q-159 0 -277 -78.5t-183 -228t-65 -362.5q0 -219 65.5 -368t183.5 -225t273 -76q87 0 161.5 23t132.5 67.5t96.5 108.5t53.5 146l438 -2q-17 -141 -84.5 -271.5
t-181 -233t-270 -162t-353.5 -59.5q-274 0 -489.5 124t-340 359t-124.5 569q0 335 126 570t342 358.5t486 123.5q178 0 330.5 -50t270.5 -145.5t192.5 -233.5t95.5 -316z" />
    <glyph glyph-name="uni0186" unicode="&#x186;" horiz-adv-x="2118" 
d="M133 1331q22 178 96 316t191.5 233.5t270.5 145.5t331 50q270 0 486 -123.5t342 -358.5t126 -570q0 -334 -124.5 -569t-340 -359t-489.5 -124q-197 0 -354 59.5t-270 162t-180 233t-85 271.5l437 2q16 -82 54.5 -146t96.5 -108.5t132.5 -67.5t160.5 -23q156 0 273.5 76
t183.5 225t66 368q0 213 -65 362.5t-183.5 228t-276.5 78.5q-89 0 -164.5 -25t-133 -72t-94.5 -113.5t-50 -151.5h-437z" />
    <glyph glyph-name="uni03F9" unicode="&#x3f9;" horiz-adv-x="2118" 
d="M1985 1331h-438q-12 85 -49 151.5t-95 113.5t-133.5 72t-163.5 25q-159 0 -277 -78.5t-183 -228t-65 -362.5q0 -219 65.5 -368t183.5 -225t273 -76q87 0 161.5 23t132.5 67.5t96.5 108.5t53.5 146l438 -2q-17 -141 -84.5 -271.5t-181 -233t-270 -162t-353.5 -59.5
q-274 0 -489.5 124t-340 359t-124.5 569q0 335 126 570t342 358.5t486 123.5q178 0 330.5 -50t270.5 -145.5t192.5 -233.5t95.5 -316z" />
    <glyph glyph-name="uni0044" unicode="D" horiz-adv-x="2048" 
d="M904 0h-726v2048h732q309 0 532 -122.5t343.5 -351.5t120.5 -548q0 -320 -120.5 -550t-345 -353t-536.5 -123zM611 371h275q192 0 323.5 68.5t198 213t66.5 373.5q0 227 -66.5 371t-197.5 212t-323 68h-276v-1306z" />
    <glyph glyph-name="uni018A" unicode="&#x18a;" horiz-adv-x="2636" 
d="M100 1319v201q-1 161 70 279.5t202.5 183.5t313.5 65h298v-371h-297q-83 0 -127 -34t-59.5 -88.5t-14.5 -116.5v-119h-386zM1492 0h-726v2048h732q309 0 532 -122.5t343.5 -351.5t120.5 -548q0 -320 -120.5 -550t-345 -353t-536.5 -123zM1199 371h275q192 0 323.5 68.5
t198 213t66.5 373.5q0 227 -66.5 371t-197.5 212t-323 68h-276v-1306z" />
    <glyph glyph-name="uni010E" unicode="&#x10e;" horiz-adv-x="2048" 
d="M904 0h-726v2048h732q309 0 532 -122.5t343.5 -351.5t120.5 -548q0 -320 -120.5 -550t-345 -353t-536.5 -123zM611 371h275q192 0 323.5 68.5t198 213t66.5 373.5q0 227 -66.5 371t-197.5 212t-323 68h-276v-1306zM628 2686l201 -244l201 244h363v-14l-406 -440h-317
l-405 440v14h363z" />
    <glyph glyph-name="uni1E0A" unicode="&#x1e0a;" horiz-adv-x="2048" 
d="M904 0h-726v2048h732q309 0 532 -122.5t343.5 -351.5t120.5 -548q0 -320 -120.5 -550t-345 -353t-536.5 -123zM611 371h275q192 0 323.5 68.5t198 213t66.5 373.5q0 227 -66.5 371t-197.5 212t-323 68h-276v-1306zM829 2246q-95 0 -163 63.5t-68 152.5q0 88 68 151.5
t162 63.5q96 0 163.5 -63.5t67.5 -151.5q0 -89 -67.5 -152.5t-162.5 -63.5z" />
    <glyph glyph-name="uni1E0C" unicode="&#x1e0c;" horiz-adv-x="2048" 
d="M904 0h-726v2048h732q309 0 532 -122.5t343.5 -351.5t120.5 -548q0 -320 -120.5 -550t-345 -353t-536.5 -123zM611 371h275q192 0 323.5 68.5t198 213t66.5 373.5q0 227 -66.5 371t-197.5 212t-323 68h-276v-1306zM900 -576q-95 0 -163 63.5t-68 152.5q0 88 68 151.5
t162 63.5q96 0 163.5 -63.5t67.5 -151.5q0 -89 -67.5 -152.5t-162.5 -63.5z" />
    <glyph glyph-name="uni1E0E" unicode="&#x1e0e;" horiz-adv-x="2048" 
d="M904 0h-726v2048h732q309 0 532 -122.5t343.5 -351.5t120.5 -548q0 -320 -120.5 -550t-345 -353t-536.5 -123zM611 371h275q192 0 323.5 68.5t198 213t66.5 373.5q0 227 -66.5 371t-197.5 212t-323 68h-276v-1306zM1386 -256v-231h-974v231h974z" />
    <glyph glyph-name="uni1E10" unicode="&#x1e10;" horiz-adv-x="2048" 
d="M904 0h-726v2048h732q309 0 532 -122.5t343.5 -351.5t120.5 -548q0 -320 -120.5 -550t-345 -353t-536.5 -123zM611 371h275q192 0 323.5 68.5t198 213t66.5 373.5q0 227 -66.5 371t-197.5 212t-323 68h-276v-1306zM581 -656l124 494h394l-219 -494h-299z" />
    <glyph glyph-name="uni1E12" unicode="&#x1e12;" horiz-adv-x="2048" 
d="M904 0h-726v2048h732q309 0 532 -122.5t343.5 -351.5t120.5 -548q0 -320 -120.5 -550t-345 -353t-536.5 -123zM611 371h275q192 0 323.5 68.5t198 213t66.5 373.5q0 227 -66.5 371t-197.5 212t-323 68h-276v-1306zM698 -583h-363v13l405 440h317l406 -440v-13h-363
l-201 244z" />
    <glyph glyph-name="uni0189" unicode="&#x189;" horiz-adv-x="2048" 
d="M904 0h-726v2048h732q309 0 532 -122.5t343.5 -351.5t120.5 -548q0 -320 -120.5 -550t-345 -353t-536.5 -123zM611 371h275q192 0 323.5 68.5t198 213t66.5 373.5q0 227 -66.5 371t-197.5 212t-323 68h-276v-1306zM-107 954v251h998v-251h-998z" />
    <glyph glyph-name="uni01F2" unicode="&#x1f2;" horiz-adv-x="3658" 
d="M904 0h-726v2048h732q309 0 532 -122.5t343.5 -351.5t120.5 -548q0 -320 -120.5 -550t-345 -353t-536.5 -123zM611 371h275q192 0 323.5 68.5t198 213t66.5 373.5q0 227 -66.5 371t-197.5 212t-323 68h-276v-1306zM2210 0v254l752 931v11h-726v340h1239v-277l-706 -908
v-11h732v-340h-1291z" />
    <glyph glyph-name="uni01C5" unicode="&#x1c5;" horiz-adv-x="3658" 
d="M904 0h-726v2048h732q309 0 532 -122.5t343.5 -351.5t120.5 -548q0 -320 -120.5 -550t-345 -353t-536.5 -123zM611 371h275q192 0 323.5 68.5t198 213t66.5 373.5q0 227 -66.5 371t-197.5 212t-323 68h-276v-1306zM2210 0v254l752 931v11h-726v340h1239v-277l-706 -908
v-11h732v-340h-1291zM2650 2174l201 -244l201 244h363v-14l-406 -440h-317l-405 440v14h363z" />
    <glyph glyph-name="uni0045" unicode="E" horiz-adv-x="1725" 
d="M178 0v2048h1380v-357h-947v-488h876v-357h-876v-489h951v-357h-1384z" />
    <glyph glyph-name="uni00C8" unicode="&#xc8;" horiz-adv-x="1725" 
d="M178 0v2048h1380v-357h-947v-488h876v-357h-876v-489h951v-357h-1384zM724 2246l-305 455h393l213 -455h-301z" />
    <glyph glyph-name="uni00C9" unicode="&#xc9;" horiz-adv-x="1725" 
d="M178 0v2048h1380v-357h-947v-488h876v-357h-876v-489h951v-357h-1384zM718 2246l212 455h394l-305 -455h-301z" />
    <glyph glyph-name="uni00CA" unicode="&#xca;" horiz-adv-x="1725" 
d="M178 0v2048h1380v-357h-947v-488h876v-357h-876v-489h951v-357h-1384zM670 2231h-363v13l405 440h317l406 -440v-13h-363l-201 244z" />
    <glyph glyph-name="uni00CB" unicode="&#xcb;" horiz-adv-x="1725" 
d="M178 0v2048h1380v-357h-947v-488h876v-357h-876v-489h951v-357h-1384zM566 2258q-86 0 -148 60.5t-62 143.5q0 85 62 144t148 59q87 0 147.5 -59t60.5 -144q0 -83 -60.5 -143.5t-147.5 -60.5zM1178 2258q-86 0 -148 60.5t-62 143.5q0 85 62 144t148 59q87 0 147.5 -59
t60.5 -144q0 -83 -60.5 -143.5t-147.5 -60.5z" />
    <glyph glyph-name="uni0112" unicode="&#x112;" horiz-adv-x="1725" 
d="M178 0v2048h1380v-357h-947v-488h876v-357h-876v-489h951v-357h-1384zM1358 2560v-231h-974v231h974z" />
    <glyph glyph-name="uni0114" unicode="&#x114;" horiz-adv-x="1725" 
d="M178 0v2048h1380v-357h-947v-488h876v-357h-876v-489h951v-357h-1384zM1069 2584h297q-1 -182 -134.5 -293t-360.5 -111q-228 0 -361 111t-133 293h295q-1 -69 44.5 -124t154.5 -55q106 0 152 54t46 125z" />
    <glyph glyph-name="uni0116" unicode="&#x116;" horiz-adv-x="1725" 
d="M178 0v2048h1380v-357h-947v-488h876v-357h-876v-489h951v-357h-1384zM872 2246q-95 0 -163 63.5t-68 152.5q0 88 68 151.5t162 63.5q96 0 163.5 -63.5t67.5 -151.5q0 -89 -67.5 -152.5t-162.5 -63.5z" />
    <glyph glyph-name="uni0118" unicode="&#x118;" horiz-adv-x="1725" 
d="M178 0v2048h1380v-357h-947v-488h876v-357h-876v-489h951v-357h-1384zM1368 -574q-133 0 -222.5 68.5t-112.5 195.5q-15 82 2.5 165t70 152t140.5 108l317 -115q-94 -44 -154 -95t-59 -123q-1 -48 24 -74t73 -26q33 0 59 8.5t46 15.5l44 -220q-37 -21 -94.5 -40.5
t-133.5 -19.5z" />
    <glyph glyph-name="uni011A" unicode="&#x11a;" horiz-adv-x="1725" 
d="M178 0v2048h1380v-357h-947v-488h876v-357h-876v-489h951v-357h-1384zM670 2686l201 -244l201 244h363v-14l-406 -440h-317l-405 440v14h363z" />
    <glyph glyph-name="uni0204" unicode="&#x204;" horiz-adv-x="1725" 
d="M178 0v2048h1380v-357h-947v-488h876v-357h-876v-489h951v-357h-1384zM705 2246l-350 186l-63 269l381 -186zM1194 2246l-310 186l3 269l328 -186z" />
    <glyph glyph-name="uni0206" unicode="&#x206;" horiz-adv-x="1725" 
d="M178 0v2048h1380v-357h-947v-488h876v-357h-876v-489h951v-357h-1384zM374 2295q-1 182 133 298.5t362 116.5t362 -116.5t134 -298.5h-297q0 70 -46 124t-153 54q-108 0 -153.5 -54.5t-44.5 -123.5h-297z" />
    <glyph glyph-name="uni0228" unicode="&#x228;" horiz-adv-x="1725" 
d="M178 0v2048h1380v-357h-947v-488h876v-357h-876v-489h951v-357h-1384zM768 8h196l-16 -87q103 -16 168.5 -77t66.5 -166q1 -149 -138 -237.5t-390 -88.5l-4 190q126 0 197.5 30.5t74.5 94.5q2 61 -47 93t-153 45z" />
    <glyph glyph-name="uni1E14" unicode="&#x1e14;" horiz-adv-x="1725" 
d="M178 0v2048h1380v-357h-947v-488h876v-357h-876v-489h951v-357h-1384zM729 2683l-343 353h385l279 -353h-321zM1358 2514v-232h-974v232h974z" />
    <glyph glyph-name="uni1E16" unicode="&#x1e16;" horiz-adv-x="1725" 
d="M178 0v2048h1380v-357h-947v-488h876v-357h-876v-489h951v-357h-1384zM693 2683l279 353h385l-344 -353h-320zM1358 2514v-232h-974v232h974z" />
    <glyph glyph-name="uni1E18" unicode="&#x1e18;" horiz-adv-x="1725" 
d="M178 0v2048h1380v-357h-947v-488h876v-357h-876v-489h951v-357h-1384zM662 -583h-363v13l405 440h317l406 -440v-13h-363l-201 244z" />
    <glyph glyph-name="uni1E1A" unicode="&#x1e1a;" horiz-adv-x="1725" 
d="M178 0v2048h1380v-357h-947v-488h876v-357h-876v-489h951v-357h-1384zM631 -549l-237 3q0 191 94.5 293t230.5 103q70 0 120.5 -22.5t91 -52.5t77.5 -52.5t80 -22.5q58 1 88.5 43.5t30.5 111.5l233 -7q-2 -189 -96 -291.5t-229 -103.5q-75 0 -125.5 22.5t-88.5 52
t-74 52.5t-81 23q-52 0 -83.5 -41t-31.5 -111z" />
    <glyph glyph-name="uni1E1C" unicode="&#x1e1c;" horiz-adv-x="1725" 
d="M178 0v2048h1380v-357h-947v-488h876v-357h-876v-489h951v-357h-1384zM768 8h196l-16 -87q103 -16 168.5 -77t66.5 -166q1 -149 -138 -237.5t-390 -88.5l-4 190q126 0 197.5 30.5t74.5 94.5q2 61 -47 93t-153 45zM1069 2584h297q-1 -182 -134.5 -293t-360.5 -111
q-228 0 -361 111t-133 293h295q-1 -69 44.5 -124t154.5 -55q106 0 152 54t46 125z" />
    <glyph glyph-name="uni1EB8" unicode="&#x1eb8;" horiz-adv-x="1725" 
d="M178 0v2048h1380v-357h-947v-488h876v-357h-876v-489h951v-357h-1384zM864 -576q-95 0 -163 63.5t-68 152.5q0 88 68 151.5t162 63.5q96 0 163.5 -63.5t67.5 -151.5q0 -89 -67.5 -152.5t-162.5 -63.5z" />
    <glyph glyph-name="uni1EBA" unicode="&#x1eba;" horiz-adv-x="1725" 
d="M178 0v2048h1380v-357h-947v-488h876v-357h-876v-489h951v-357h-1384zM1028 2268h-316l-22 180q106 5 151 28.5t44 62.5q1 54 -56.5 73t-143.5 19l11 193q267 0 406.5 -72t138.5 -200q1 -91 -65.5 -137.5t-147.5 -58.5v-88z" />
    <glyph glyph-name="uni1EBC" unicode="&#x1ebc;" horiz-adv-x="1725" 
d="M178 0v2048h1380v-357h-947v-488h876v-357h-876v-489h951v-357h-1384zM585 2237l-237 3q0 191 94.5 293t230.5 103q70 0 120.5 -22.5t91 -52.5t77.5 -52.5t80 -22.5q58 1 88.5 43.5t30.5 111.5l233 -7q-2 -189 -96 -291.5t-229 -103.5q-75 0 -125.5 22.5t-88.5 52
t-74 52.5t-81 23q-52 0 -83.5 -41t-31.5 -111z" />
    <glyph glyph-name="uni1EBE" unicode="&#x1ebe;" horiz-adv-x="1725" 
d="M178 0v2048h1380v-357h-947v-488h876v-357h-876v-489h951v-357h-1384zM351 2216l403 311h230l405 -311h-307l-211 168l-214 -168h-306zM1284 2392l234 375h330l-323 -375h-241z" />
    <glyph glyph-name="uni1EC0" unicode="&#x1ec0;" horiz-adv-x="1725" 
d="M178 0v2048h1380v-357h-947v-488h876v-357h-876v-489h951v-357h-1384zM984 2521l406 -311h-307l-212 168l-213 -168h-305l402 311h229zM222 2760l235 -374h-238l-324 374h327z" />
    <glyph glyph-name="uni1EC2" unicode="&#x1ec2;" horiz-adv-x="1725" 
d="M178 0v2048h1380v-357h-947v-488h876v-357h-876v-489h951v-357h-1384zM990 2516l394 -311h-293l-222 175l-225 -175h-293l394 311h245zM1475 2380h-221l-19 150q86 4 125 22t39 53q0 46 -49 62t-122 16l10 161q203 0 310 -59.5t107 -167.5q0 -75 -56.5 -114.5
t-123.5 -50.5v-72z" />
    <glyph glyph-name="uni1EC4" unicode="&#x1ec4;" horiz-adv-x="1725" 
d="M178 0v2048h1380v-357h-947v-488h876v-357h-876v-489h951v-357h-1384zM985 2508l403 -307h-294l-225 168l-220 -168h-298l406 307h228zM1089 2848l148 -51q-1 -81 -52.5 -148.5t-137.5 -67.5q-47 0 -86.5 13t-74 31t-68 31t-71.5 13q-34 0 -53.5 -28.5t-19.5 -66.5
l-144 40q0 78 50.5 145.5t137.5 67.5q39 0 76.5 -13t75.5 -29.5t75 -29.5t73 -13q31 0 50.5 34t20.5 72z" />
    <glyph glyph-name="uni1EC6" unicode="&#x1ec6;" horiz-adv-x="1725" 
d="M178 0v2048h1380v-357h-947v-488h876v-357h-876v-489h951v-357h-1384zM670 2231h-363v13l405 440h317l406 -440v-13h-363l-201 244zM864 -576q-95 0 -163 63.5t-68 152.5q0 88 68 151.5t162 63.5q96 0 163.5 -63.5t67.5 -151.5q0 -89 -67.5 -152.5t-162.5 -63.5z" />
    <glyph glyph-name="uni0246" unicode="&#x246;" horiz-adv-x="1725" 
d="M1412 2308l-740 -2568h-228l740 2568h228zM178 0v2048h1380v-357h-947v-488h876v-357h-876v-489h951v-357h-1384z" />
    <glyph glyph-name="uni018E" unicode="&#x18e;" horiz-adv-x="1726" 
d="M1510 2048v-2048h-1380v357h947v488h-876v357h876v489h-951v357h1384z" />
    <glyph glyph-name="uni0395" unicode="&#x395;" horiz-adv-x="1725" 
d="M178 0v2048h1380v-357h-947v-488h876v-357h-876v-489h951v-357h-1384z" />
    <glyph glyph-name="uni0388" unicode="&#x388;" horiz-adv-x="2210" 
d="M664 0v2048h1380v-357h-947v-488h876v-357h-876v-489h951v-357h-1384zM133 1720l107 475h381l-237 -475h-251z" />
    <glyph glyph-name="uni1F18" unicode="&#x1f18;" horiz-adv-x="2134" 
d="M587 0v2048h1380v-357h-947v-488h876v-357h-876v-489h951v-357h-1384zM429 2048v-131q0 -86 -30.5 -157t-83 -123.5t-119.5 -84.5l-118 125q42 29 66 66t34 82.5t10 99.5v123h241z" />
    <glyph glyph-name="uni1F19" unicode="&#x1f19;" horiz-adv-x="2138" 
d="M591 0v2048h1380v-357h-947v-488h876v-357h-876v-489h951v-357h-1384zM129 1917v131h244v-123q0 -48 9 -93.5t32.5 -85t65.5 -69.5l-118 -125q-99 48 -165 142t-68 223z" />
    <glyph glyph-name="uni1F1A" unicode="&#x1f1a;" horiz-adv-x="2676" 
d="M1129 0v2048h1380v-357h-947v-488h876v-357h-876v-489h951v-357h-1384zM1021 1604v-20h-133l-326 436v28h298zM498 2048v-112q1 -80 -30 -151t-89.5 -130t-141.5 -103l-111 84q57 63 86 137t29 171v104h257z" />
    <glyph glyph-name="uni1F1B" unicode="&#x1f1b;" horiz-adv-x="2594" 
d="M1047 0v2048h1380v-357h-947v-488h876v-357h-876v-489h951v-357h-1384zM937 1614v-32h-133l-326 438v28h302zM122 1917v131h245v-123q0 -72 20.5 -137.5t89.5 -110.5l-118 -125q-104 48 -171 142t-66 223z" />
    <glyph glyph-name="uni1F1C" unicode="&#x1f1c;" horiz-adv-x="2622" 
d="M1075 0v2048h1380v-357h-947v-488h876v-357h-876v-489h951v-357h-1384zM529 1582v32l160 434h298v-28l-326 -438h-132zM487 2048v-131q-1 -85 -31.5 -155.5t-84 -124t-122.5 -85.5l-117 125q66 45 87.5 110.5t21.5 137.5v123h246z" />
    <glyph glyph-name="uni1F1D" unicode="&#x1f1d;" horiz-adv-x="2660" 
d="M1113 0v2048h1380v-357h-947v-488h876v-357h-876v-489h951v-357h-1384zM558 1582v32l154 434h302v-28l-328 -438h-128zM129 1917v131h243v-123q1 -81 24 -143t83 -105l-117 -125q-96 46 -164.5 139t-68.5 226z" />
    <glyph glyph-name="uni1FC8" unicode="&#x1fc8;" horiz-adv-x="2248" 
d="M701 0v2048h1380v-357h-947v-488h876v-357h-876v-489h951v-357h-1384zM580 1580h-128l-326 440v28h298l156 -430v-38z" />
    <glyph glyph-name="uni1FC9" unicode="&#x1fc9;" horiz-adv-x="2216" 
d="M669 0v2048h1380v-357h-947v-488h876v-357h-876v-489h951v-357h-1384zM148 1728v38l156 430h381v-28l-325 -440h-212z" />
    <glyph glyph-name="uni0415" unicode="&#x415;" horiz-adv-x="1725" 
d="M178 0v2048h1380v-357h-947v-488h876v-357h-876v-489h951v-357h-1384z" />
    <glyph glyph-name="uni0400" unicode="&#x400;" horiz-adv-x="1725" 
d="M178 0v2048h1380v-357h-947v-488h876v-357h-876v-489h951v-357h-1384zM724 2246l-305 455h393l213 -455h-301z" />
    <glyph glyph-name="uni0401" unicode="&#x401;" horiz-adv-x="1725" 
d="M178 0v2048h1380v-357h-947v-488h876v-357h-876v-489h951v-357h-1384zM566 2258q-86 0 -148 60.5t-62 143.5q0 85 62 144t148 59q87 0 147.5 -59t60.5 -144q0 -83 -60.5 -143.5t-147.5 -60.5zM1178 2258q-86 0 -148 60.5t-62 143.5q0 85 62 144t148 59q87 0 147.5 -59
t60.5 -144q0 -83 -60.5 -143.5t-147.5 -60.5z" />
    <glyph glyph-name="uni04D6" unicode="&#x4d6;" horiz-adv-x="1725" 
d="M178 0v2048h1380v-357h-947v-488h876v-357h-876v-489h951v-357h-1384zM1069 2584h297q-1 -182 -134.5 -293t-360.5 -111q-228 0 -361 111t-133 293h295q-1 -69 44.5 -124t154.5 -55q106 0 152 54t46 125z" />
    <glyph glyph-name="uni0046" unicode="F" horiz-adv-x="1647" 
d="M178 0v2048h1356v-357h-923v-488h833v-357h-833v-846h-433z" />
    <glyph glyph-name="uni0191" unicode="&#x191;" horiz-adv-x="1710" 
d="M241 0h433v-94q0 -149 -45 -243.5t-122.5 -146.5t-177.5 -72t-212 -20q-29 0 -79.5 1t-95.5 9v326q20 -3 44 -3h42q85 0 149 30.5t64 119.5v93zM241 0v2048h1355v-357h-922v-488h832v-357h-832v-846h-433z" />
    <glyph glyph-name="uni1E1E" unicode="&#x1e1e;" horiz-adv-x="1647" 
d="M178 0v2048h1356v-357h-923v-488h833v-357h-833v-846h-433zM869 2246q-95 0 -163 63.5t-68 152.5q0 88 68 151.5t162 63.5q96 0 163.5 -63.5t67.5 -151.5q0 -89 -67.5 -152.5t-162.5 -63.5z" />
    <glyph glyph-name="uni2132" unicode="&#x2132;" horiz-adv-x="1647" 
d="M1469 2048v-2048h-1355v357h922v488h-833v357h833v846h433z" />
    <glyph glyph-name="uni0047" unicode="G" horiz-adv-x="2142" 
d="M1536 1386q-21 73 -59 129.5t-92.5 96t-124 60.5t-153.5 21q-157 0 -275.5 -78t-184.5 -226.5t-66 -362.5t65 -364t184 -228.5t281 -78.5q147 0 251.5 52.5t160 148.5t55.5 227l88 -13h-528v326h857v-258q0 -270 -114 -463.5t-314 -298t-458 -104.5q-288 0 -506 127.5
t-339.5 363t-121.5 559.5q0 249 72.5 444.5t203.5 331.5t305 207t377 71q174 0 324 -50.5t266.5 -142.5t190.5 -218.5t95 -278.5h-440z" />
    <glyph glyph-name="uni01E4" unicode="&#x1e4;" horiz-adv-x="2142" 
d="M2090 662v-154h-952v154h952zM1536 1386q-21 73 -59 129.5t-92.5 96t-124 60.5t-153.5 21q-157 0 -275.5 -78t-184.5 -226.5t-66 -362.5t65 -364t184 -228.5t281 -78.5q147 0 251.5 52.5t160 148.5t55.5 227l88 -13h-528v326h857v-258q0 -270 -114 -463.5t-314 -298
t-458 -104.5q-288 0 -506 127.5t-339.5 363t-121.5 559.5q0 249 72.5 444.5t203.5 331.5t305 207t377 71q174 0 324 -50.5t266.5 -142.5t190.5 -218.5t95 -278.5h-440z" />
    <glyph glyph-name="uni0193" unicode="&#x193;" horiz-adv-x="2349" 
d="M1974 1386h-441l2 312q2 135 51.5 238t135.5 173.5t198 106.5t238 36q50 0 99 -5.5t101 -18.5v-339q-29 3 -59 6.5t-60 3.5q-70 0 -130.5 -15t-97.5 -58.5t-37 -127.5v-312zM1536 1386q-21 73 -59 129.5t-92.5 96t-124 60.5t-153.5 21q-157 0 -275.5 -78t-184.5 -226.5
t-66 -362.5t65 -364t184 -228.5t281 -78.5q147 0 251.5 52.5t160 148.5t55.5 227l88 -13h-528v326h857v-258q0 -270 -114 -463.5t-314 -298t-458 -104.5q-288 0 -506 127.5t-339.5 363t-121.5 559.5q0 249 72.5 444.5t203.5 331.5t305 207t377 71q174 0 324 -50.5
t266.5 -142.5t190.5 -218.5t95 -278.5h-440z" />
    <glyph glyph-name="uni011C" unicode="&#x11c;" horiz-adv-x="2142" 
d="M1536 1386q-21 73 -59 129.5t-92.5 96t-124 60.5t-153.5 21q-157 0 -275.5 -78t-184.5 -226.5t-66 -362.5t65 -364t184 -228.5t281 -78.5q147 0 251.5 52.5t160 148.5t55.5 227l88 -13h-528v326h857v-258q0 -270 -114 -463.5t-314 -298t-458 -104.5q-288 0 -506 127.5
t-339.5 363t-121.5 559.5q0 249 72.5 444.5t203.5 331.5t305 207t377 71q174 0 324 -50.5t266.5 -142.5t190.5 -218.5t95 -278.5h-440zM890 2231h-363v13l405 440h317l406 -440v-13h-363l-201 244z" />
    <glyph glyph-name="uni011E" unicode="&#x11e;" horiz-adv-x="2142" 
d="M1536 1386q-21 73 -59 129.5t-92.5 96t-124 60.5t-153.5 21q-157 0 -275.5 -78t-184.5 -226.5t-66 -362.5t65 -364t184 -228.5t281 -78.5q147 0 251.5 52.5t160 148.5t55.5 227l88 -13h-528v326h857v-258q0 -270 -114 -463.5t-314 -298t-458 -104.5q-288 0 -506 127.5
t-339.5 363t-121.5 559.5q0 249 72.5 444.5t203.5 331.5t305 207t377 71q174 0 324 -50.5t266.5 -142.5t190.5 -218.5t95 -278.5h-440zM1289 2584h297q-1 -182 -134.5 -293t-360.5 -111q-228 0 -361 111t-133 293h295q-1 -69 44.5 -124t154.5 -55q106 0 152 54t46 125z" />
    <glyph glyph-name="uni0120" unicode="&#x120;" horiz-adv-x="2142" 
d="M1536 1386q-21 73 -59 129.5t-92.5 96t-124 60.5t-153.5 21q-157 0 -275.5 -78t-184.5 -226.5t-66 -362.5t65 -364t184 -228.5t281 -78.5q147 0 251.5 52.5t160 148.5t55.5 227l88 -13h-528v326h857v-258q0 -270 -114 -463.5t-314 -298t-458 -104.5q-288 0 -506 127.5
t-339.5 363t-121.5 559.5q0 249 72.5 444.5t203.5 331.5t305 207t377 71q174 0 324 -50.5t266.5 -142.5t190.5 -218.5t95 -278.5h-440zM1091 2246q-95 0 -163 63.5t-68 152.5q0 88 68 151.5t162 63.5q96 0 163.5 -63.5t67.5 -151.5q0 -89 -67.5 -152.5t-162.5 -63.5z" />
    <glyph glyph-name="uni0122" unicode="&#x122;" horiz-adv-x="2142" 
d="M1536 1386q-21 73 -59 129.5t-92.5 96t-124 60.5t-153.5 21q-157 0 -275.5 -78t-184.5 -226.5t-66 -362.5t65 -364t184 -228.5t281 -78.5q147 0 251.5 52.5t160 148.5t55.5 227l88 -13h-528v326h857v-258q0 -270 -114 -463.5t-314 -298t-458 -104.5q-288 0 -506 127.5
t-339.5 363t-121.5 559.5q0 249 72.5 444.5t203.5 331.5t305 207t377 71q174 0 324 -50.5t266.5 -142.5t190.5 -218.5t95 -278.5h-440zM768 -651l124 494h394l-219 -494h-299z" />
    <glyph glyph-name="uni01E6" unicode="&#x1e6;" horiz-adv-x="2142" 
d="M1536 1386q-21 73 -59 129.5t-92.5 96t-124 60.5t-153.5 21q-157 0 -275.5 -78t-184.5 -226.5t-66 -362.5t65 -364t184 -228.5t281 -78.5q147 0 251.5 52.5t160 148.5t55.5 227l88 -13h-528v326h857v-258q0 -270 -114 -463.5t-314 -298t-458 -104.5q-288 0 -506 127.5
t-339.5 363t-121.5 559.5q0 249 72.5 444.5t203.5 331.5t305 207t377 71q174 0 324 -50.5t266.5 -142.5t190.5 -218.5t95 -278.5h-440zM890 2686l201 -244l201 244h363v-14l-406 -440h-317l-405 440v14h363z" />
    <glyph glyph-name="uni01F4" unicode="&#x1f4;" horiz-adv-x="2142" 
d="M1536 1386q-21 73 -59 129.5t-92.5 96t-124 60.5t-153.5 21q-157 0 -275.5 -78t-184.5 -226.5t-66 -362.5t65 -364t184 -228.5t281 -78.5q147 0 251.5 52.5t160 148.5t55.5 227l88 -13h-528v326h857v-258q0 -270 -114 -463.5t-314 -298t-458 -104.5q-288 0 -506 127.5
t-339.5 363t-121.5 559.5q0 249 72.5 444.5t203.5 331.5t305 207t377 71q174 0 324 -50.5t266.5 -142.5t190.5 -218.5t95 -278.5h-440zM937 2246l212 455h394l-305 -455h-301z" />
    <glyph glyph-name="uni1E20" unicode="&#x1e20;" horiz-adv-x="2142" 
d="M1536 1386q-21 73 -59 129.5t-92.5 96t-124 60.5t-153.5 21q-157 0 -275.5 -78t-184.5 -226.5t-66 -362.5t65 -364t184 -228.5t281 -78.5q147 0 251.5 52.5t160 148.5t55.5 227l88 -13h-528v326h857v-258q0 -270 -114 -463.5t-314 -298t-458 -104.5q-288 0 -506 127.5
t-339.5 363t-121.5 559.5q0 249 72.5 444.5t203.5 331.5t305 207t377 71q174 0 324 -50.5t266.5 -142.5t190.5 -218.5t95 -278.5h-440zM1577 2560v-231h-974v231h974z" />
    <glyph glyph-name="uniE002" unicode="&#xe002;" horiz-adv-x="2160" 
d="M1109 -28q-287 0 -505 127.5t-340 363t-122 559.5q0 249 74 444.5t206.5 331.5t308.5 207t378 71q174 0 325.5 -50.5t270.5 -142t194.5 -218t96.5 -279.5h-438q-21 73 -60.5 129.5t-97 96t-129 60.5t-155.5 21q-156 0 -277 -78t-189.5 -226.5t-68.5 -362.5t65.5 -364
t184.5 -228.5t280 -78.5q150 0 256 54.5t162.5 152t56.5 225.5l82 -17h-530v326h875v-1096h-296l-25 234h-11q-103 -125 -243.5 -193.5t-328.5 -68.5z" />
    <glyph glyph-name="uniE003" unicode="&#xe003;" horiz-adv-x="2162" 
d="M2110 662v-154h-972v154h972zM1109 -28q-287 0 -505 127.5t-340 363t-122 559.5q0 249 74 444.5t206.5 331.5t308.5 207t378 71q174 0 325.5 -50.5t270.5 -142t194.5 -218t96.5 -279.5h-438q-21 73 -60.5 129.5t-97 96t-129 60.5t-155.5 21q-156 0 -277 -78
t-189.5 -226.5t-68.5 -362.5t65.5 -364t184.5 -228.5t280 -78.5q150 0 256 54.5t162.5 152t56.5 225.5l82 -17h-530v326h875v-1096h-296l-25 234h-11q-103 -125 -243.5 -193.5t-328.5 -68.5z" />
    <glyph glyph-name="uniE004" unicode="&#xe004;" horiz-adv-x="2349" 
d="M1996 1386h-442l3 312q2 135 51 238t135.5 173.5t198.5 106.5t237 36q51 0 100 -5.5t101 -18.5v-339q-29 3 -59 6.5t-60 3.5q-70 0 -130.5 -15t-97.5 -58.5t-37 -127.5v-312zM1109 -28q-287 0 -505 127.5t-340 363t-122 559.5q0 249 74 444.5t206.5 331.5t308.5 207
t378 71q174 0 325.5 -50.5t270.5 -142t194.5 -218t96.5 -279.5h-438q-21 73 -60.5 129.5t-97 96t-129 60.5t-155.5 21q-156 0 -277 -78t-189.5 -226.5t-68.5 -362.5t65.5 -364t184.5 -228.5t280 -78.5q150 0 256 54.5t162.5 152t56.5 225.5l82 -17h-530v326h875v-1096h-296
l-25 234h-11q-103 -125 -243.5 -193.5t-328.5 -68.5z" />
    <glyph glyph-name="uniE005" unicode="&#xe005;" horiz-adv-x="2160" 
d="M1109 -28q-287 0 -505 127.5t-340 363t-122 559.5q0 249 74 444.5t206.5 331.5t308.5 207t378 71q174 0 325.5 -50.5t270.5 -142t194.5 -218t96.5 -279.5h-438q-21 73 -60.5 129.5t-97 96t-129 60.5t-155.5 21q-156 0 -277 -78t-189.5 -226.5t-68.5 -362.5t65.5 -364
t184.5 -228.5t280 -78.5q150 0 256 54.5t162.5 152t56.5 225.5l82 -17h-530v326h875v-1096h-296l-25 234h-11q-103 -125 -243.5 -193.5t-328.5 -68.5zM890 2231h-363v13l405 440h317l406 -440v-13h-363l-201 244z" />
    <glyph glyph-name="uniE006" unicode="&#xe006;" horiz-adv-x="2160" 
d="M1109 -28q-287 0 -505 127.5t-340 363t-122 559.5q0 249 74 444.5t206.5 331.5t308.5 207t378 71q174 0 325.5 -50.5t270.5 -142t194.5 -218t96.5 -279.5h-438q-21 73 -60.5 129.5t-97 96t-129 60.5t-155.5 21q-156 0 -277 -78t-189.5 -226.5t-68.5 -362.5t65.5 -364
t184.5 -228.5t280 -78.5q150 0 256 54.5t162.5 152t56.5 225.5l82 -17h-530v326h875v-1096h-296l-25 234h-11q-103 -125 -243.5 -193.5t-328.5 -68.5zM1289 2584h297q-1 -182 -134.5 -293t-360.5 -111q-228 0 -361 111t-133 293h295q-1 -69 44.5 -124t154.5 -55
q106 0 152 54t46 125z" />
    <glyph glyph-name="uniE007" unicode="&#xe007;" horiz-adv-x="2160" 
d="M1109 -28q-287 0 -505 127.5t-340 363t-122 559.5q0 249 74 444.5t206.5 331.5t308.5 207t378 71q174 0 325.5 -50.5t270.5 -142t194.5 -218t96.5 -279.5h-438q-21 73 -60.5 129.5t-97 96t-129 60.5t-155.5 21q-156 0 -277 -78t-189.5 -226.5t-68.5 -362.5t65.5 -364
t184.5 -228.5t280 -78.5q150 0 256 54.5t162.5 152t56.5 225.5l82 -17h-530v326h875v-1096h-296l-25 234h-11q-103 -125 -243.5 -193.5t-328.5 -68.5zM1091 2246q-95 0 -163 63.5t-68 152.5q0 88 68 151.5t162 63.5q96 0 163.5 -63.5t67.5 -151.5q0 -89 -67.5 -152.5
t-162.5 -63.5z" />
    <glyph glyph-name="uniE008" unicode="&#xe008;" horiz-adv-x="2160" 
d="M1109 -28q-287 0 -505 127.5t-340 363t-122 559.5q0 249 74 444.5t206.5 331.5t308.5 207t378 71q174 0 325.5 -50.5t270.5 -142t194.5 -218t96.5 -279.5h-438q-21 73 -60.5 129.5t-97 96t-129 60.5t-155.5 21q-156 0 -277 -78t-189.5 -226.5t-68.5 -362.5t65.5 -364
t184.5 -228.5t280 -78.5q150 0 256 54.5t162.5 152t56.5 225.5l82 -17h-530v326h875v-1096h-296l-25 234h-11q-103 -125 -243.5 -193.5t-328.5 -68.5zM768 -651l124 494h394l-219 -494h-299z" />
    <glyph glyph-name="uniE009" unicode="&#xe009;" horiz-adv-x="2160" 
d="M1109 -28q-287 0 -505 127.5t-340 363t-122 559.5q0 249 74 444.5t206.5 331.5t308.5 207t378 71q174 0 325.5 -50.5t270.5 -142t194.5 -218t96.5 -279.5h-438q-21 73 -60.5 129.5t-97 96t-129 60.5t-155.5 21q-156 0 -277 -78t-189.5 -226.5t-68.5 -362.5t65.5 -364
t184.5 -228.5t280 -78.5q150 0 256 54.5t162.5 152t56.5 225.5l82 -17h-530v326h875v-1096h-296l-25 234h-11q-103 -125 -243.5 -193.5t-328.5 -68.5zM890 2686l201 -244l201 244h363v-14l-406 -440h-317l-405 440v14h363z" />
    <glyph glyph-name="uniE00A" unicode="&#xe00a;" horiz-adv-x="2160" 
d="M1109 -28q-287 0 -505 127.5t-340 363t-122 559.5q0 249 74 444.5t206.5 331.5t308.5 207t378 71q174 0 325.5 -50.5t270.5 -142t194.5 -218t96.5 -279.5h-438q-21 73 -60.5 129.5t-97 96t-129 60.5t-155.5 21q-156 0 -277 -78t-189.5 -226.5t-68.5 -362.5t65.5 -364
t184.5 -228.5t280 -78.5q150 0 256 54.5t162.5 152t56.5 225.5l82 -17h-530v326h875v-1096h-296l-25 234h-11q-103 -125 -243.5 -193.5t-328.5 -68.5zM937 2246l212 455h394l-305 -455h-301z" />
    <glyph glyph-name="uniE00B" unicode="&#xe00b;" horiz-adv-x="2160" 
d="M1109 -28q-287 0 -505 127.5t-340 363t-122 559.5q0 249 74 444.5t206.5 331.5t308.5 207t378 71q174 0 325.5 -50.5t270.5 -142t194.5 -218t96.5 -279.5h-438q-21 73 -60.5 129.5t-97 96t-129 60.5t-155.5 21q-156 0 -277 -78t-189.5 -226.5t-68.5 -362.5t65.5 -364
t184.5 -228.5t280 -78.5q150 0 256 54.5t162.5 152t56.5 225.5l82 -17h-530v326h875v-1096h-296l-25 234h-11q-103 -125 -243.5 -193.5t-328.5 -68.5zM1577 2560v-231h-974v231h974z" />
    <glyph glyph-name="uni0048" unicode="H" horiz-adv-x="2101" 
d="M178 0v2048h433v-845h879v845h432v-2048h-432v846h-879v-846h-433z" />
    <glyph glyph-name="uni1E28" unicode="&#x1e28;" horiz-adv-x="2101" 
d="M178 0v2048h433v-845h879v845h432v-2048h-432v846h-879v-846h-433zM300 6h196l-16 -87q103 -16 168.5 -77t66.5 -166q1 -149 -138 -237.5t-390 -88.5l-4 190q126 0 197.5 30.5t74.5 94.5q2 61 -47 93t-153 45z" />
    <glyph glyph-name="uni0124" unicode="&#x124;" horiz-adv-x="2101" 
d="M178 0v2048h433v-845h879v845h432v-2048h-432v846h-879v-846h-433zM854 2233h-363v13l405 440h317l406 -440v-13h-363l-201 244z" />
    <glyph glyph-name="uni021E" unicode="&#x21e;" horiz-adv-x="2101" 
d="M178 0v2048h433v-845h879v845h432v-2048h-432v846h-879v-846h-433zM854 2688l201 -244l201 244h363v-14l-406 -440h-317l-405 440v14h363z" />
    <glyph glyph-name="uni1E22" unicode="&#x1e22;" horiz-adv-x="2101" 
d="M178 0v2048h433v-845h879v845h432v-2048h-432v846h-879v-846h-433zM1055 2248q-95 0 -163 63.5t-68 152.5q0 88 68 151.5t162 63.5q96 0 163.5 -63.5t67.5 -151.5q0 -89 -67.5 -152.5t-162.5 -63.5z" />
    <glyph glyph-name="uni1E24" unicode="&#x1e24;" horiz-adv-x="2101" 
d="M178 0v2048h433v-845h879v845h432v-2048h-432v846h-879v-846h-433zM1050 -576q-95 0 -163 63.5t-68 152.5q0 88 68 151.5t162 63.5q96 0 163.5 -63.5t67.5 -151.5q0 -89 -67.5 -152.5t-162.5 -63.5z" />
    <glyph glyph-name="uni1E26" unicode="&#x1e26;" horiz-adv-x="2101" 
d="M178 0v2048h433v-845h879v845h432v-2048h-432v846h-879v-846h-433zM750 2260q-86 0 -148 60.5t-62 143.5q0 85 62 144t148 59q87 0 147.5 -59t60.5 -144q0 -83 -60.5 -143.5t-147.5 -60.5zM1362 2260q-86 0 -148 60.5t-62 143.5q0 85 62 144t148 59q87 0 147.5 -59
t60.5 -144q0 -83 -60.5 -143.5t-147.5 -60.5z" />
    <glyph glyph-name="uni1E2A" unicode="&#x1e2a;" horiz-adv-x="2101" 
d="M178 0v2048h433v-845h879v845h432v-2048h-432v846h-879v-846h-433zM1252 -113h294q-1 -120 -61 -214t-171 -147.5t-264 -53.5q-223 0 -358 115.5t-135 299.5h295q-1 -70 45 -125.5t154 -55.5q106 0 153 57t48 124z" />
    <glyph glyph-name="uni0126" unicode="&#x126;" horiz-adv-x="2282" 
d="M2182 1693v-242h-2082v242h2082zM269 0v2048h433v-845h878v845h433v-2048h-433v846h-878v-846h-433z" />
    <glyph glyph-name="uni04C7" unicode="&#x4c7;" horiz-adv-x="2101" 
d="M1490 0h432v-99q0 -58 -12.5 -126t-49.5 -135.5t-109 -123.5t-188 -89.5t-289 -33.5q-48 0 -95 4t-62 8v345q23 -1 59.5 -4.5t61.5 -3.5q63 0 120.5 15t94.5 54.5t37 114.5v74zM178 0v2048h433v-845h879v845h432v-2048h-432v846h-879v-846h-433z" />
    <glyph glyph-name="uni04A2" unicode="&#x4a2;" horiz-adv-x="2405" 
d="M178 0v2048h433v-845h879v845h432v-2048h-432v846h-879v-846h-433zM2327 294v-788h-414v788h414z" />
    <glyph glyph-name="uni04C9" unicode="&#x4c9;" horiz-adv-x="2340" 
d="M178 0v2048h433v-845h879v845h432v-2048h-432v846h-879v-846h-433zM2262 233v-239q1 -109 -32 -216t-91 -200.5t-134 -163.5l-227 100q33 65 66 130.5t56 143.5t22 181v264h340z" />
    <glyph glyph-name="uni04A4" unicode="&#x4a4;" horiz-adv-x="2834" 
d="M2734 2048v-357h-812v-1691h-432v846h-879v-846h-433v2048h433v-845h879v845h1244z" />
    <glyph glyph-name="uni01F6" unicode="&#x1f6;" horiz-adv-x="3162" 
d="M2243 -28q-230 0 -399 84.5t-261.5 245t-92.5 387.5v157h-879v-846h-433v2048h433v-845h879v845h432v-1359q0 -174 85.5 -263t235.5 -89q151 0 233.5 89t82.5 263v806h433v-806q0 -229 -92 -389t-260 -244t-397 -84z" />
    <glyph glyph-name="uni0397" unicode="&#x397;" horiz-adv-x="2101" 
d="M178 0v2048h433v-845h879v845h432v-2048h-432v846h-879v-846h-433z" />
    <glyph glyph-name="uni0389" unicode="&#x389;" horiz-adv-x="2615" 
d="M692 0v2048h433v-845h879v845h432v-2048h-432v846h-879v-846h-433zM173 1720l107 475h381l-237 -475h-251z" />
    <glyph glyph-name="uni1F28" unicode="&#x1f28;" horiz-adv-x="2579" 
d="M656 0v2048h433v-845h879v845h432v-2048h-432v846h-879v-846h-433zM510 2048v-131q0 -86 -30.5 -157t-83 -123.5t-119.5 -84.5l-118 125q42 29 66 66t34 82.5t10 99.5v123h241z" />
    <glyph glyph-name="uni1F29" unicode="&#x1f29;" horiz-adv-x="2542" 
d="M620 0v2048h433v-845h879v845h432v-2048h-432v846h-879v-846h-433zM169 1917v131h244v-123q0 -48 9 -93.5t32.5 -85t65.5 -69.5l-118 -125q-99 48 -165 142t-68 223z" />
    <glyph glyph-name="uni1F2A" unicode="&#x1f2a;" horiz-adv-x="3081" 
d="M1158 0v2048h433v-845h879v845h432v-2048h-432v846h-879v-846h-433zM1061 1604v-20h-133l-326 436v28h298zM538 2048v-112q1 -80 -30 -151t-89.5 -130t-141.5 -103l-111 84q57 63 86 137t29 171v104h257z" />
    <glyph glyph-name="uni1F2B" unicode="&#x1f2b;" horiz-adv-x="2998" 
d="M1076 0v2048h433v-845h879v845h432v-2048h-432v846h-879v-846h-433zM977 1614v-32h-133l-326 438v28h302zM162 1917v131h245v-123q0 -72 20.5 -137.5t89.5 -110.5l-118 -125q-104 48 -171 142t-66 223z" />
    <glyph glyph-name="uni1F2C" unicode="&#x1f2c;" horiz-adv-x="3026" 
d="M1104 0v2048h433v-845h879v845h432v-2048h-432v846h-879v-846h-433zM569 1582v32l160 434h298v-28l-326 -438h-132zM527 2048v-131q-1 -85 -31.5 -155.5t-84 -124t-122.5 -85.5l-117 125q66 45 87.5 110.5t21.5 137.5v123h246z" />
    <glyph glyph-name="uni1F2D" unicode="&#x1f2d;" horiz-adv-x="3065" 
d="M1142 0v2048h433v-845h879v845h432v-2048h-432v846h-879v-846h-433zM598 1582v32l154 434h302v-28l-328 -438h-128zM169 1917v131h243v-123q1 -81 24 -143t83 -105l-117 -125q-96 46 -164.5 139t-68.5 226z" />
    <glyph glyph-name="uni1F2E" unicode="&#x1f2e;" horiz-adv-x="2833" 
d="M910 0v2048h433v-845h879v845h432v-2048h-432v846h-879v-846h-433zM817 2389l173 -53q0 -99 -65 -173.5t-167 -74.5q-55 0 -97 14t-77.5 32.5t-72.5 32.5t-83 14q-42 0 -68 -35.5t-26 -84.5l-173 49q0 99 64.5 176t166.5 77q45 0 86 -13.5t81 -32t80 -32.5t83 -14
q40 0 67.5 34.5t27.5 83.5zM712 2018v-111q0 -103 -58.5 -181t-148.5 -118l-113 102q60 35 77.5 90.5t17.5 112.5v105h225z" />
    <glyph glyph-name="uni1F2F" unicode="&#x1f2f;" horiz-adv-x="2871" 
d="M948 0v2048h433v-845h879v845h432v-2048h-432v846h-879v-846h-433zM484 1907v111h225v-105q0 -57 17.5 -112.5t77.5 -90.5l-117 -102q-82 38 -142.5 115t-60.5 184zM817 2389l173 -53q0 -99 -65 -173.5t-167 -74.5q-55 0 -97 14t-77.5 32.5t-72.5 32.5t-83 14
q-42 0 -68 -35.5t-26 -84.5l-173 49q0 99 64.5 176t166.5 77q45 0 86 -13.5t81 -32t80 -32.5t83 -14q40 0 67.5 34.5t27.5 83.5z" />
    <glyph glyph-name="uni1FCA" unicode="&#x1fca;" horiz-adv-x="2653" 
d="M730 0v2048h433v-845h879v845h432v-2048h-432v846h-879v-846h-433zM620 1580h-128l-326 440v28h298l156 -430v-38z" />
    <glyph glyph-name="uni1FCB" unicode="&#x1fcb;" horiz-adv-x="2621" 
d="M698 0v2048h433v-845h879v845h432v-2048h-432v846h-879v-846h-433zM188 1728v38l156 430h381v-28l-325 -440h-212z" />
    <glyph glyph-name="uni041D" unicode="&#x41d;" horiz-adv-x="2101" 
d="M178 0v2048h433v-845h879v845h432v-2048h-432v846h-879v-846h-433z" />
    <glyph glyph-name="uni1F98" unicode="&#x1f98;" horiz-adv-x="2515" 
d="M592 0v2048h433v-845h879v845h432v-2048h-432v846h-879v-846h-433zM1601 -680q-108 0 -184.5 61t-76.5 197v290h254v-288q0 -42 16.5 -62t58.5 -20q21 0 36.5 2t26.5 2v-164q-27 -7 -58 -12.5t-73 -5.5zM446 2048v-131q0 -86 -30.5 -157t-83 -123.5t-119.5 -84.5
l-118 125q42 29 66 66t34 82.5t10 99.5v123h241z" />
    <glyph glyph-name="uni1F99" unicode="&#x1f99;" horiz-adv-x="2542" 
d="M620 0v2048h433v-845h879v845h432v-2048h-432v846h-879v-846h-433zM1629 -680q-108 0 -184.5 61t-76.5 197v290h254v-288q0 -42 16.5 -62t58.5 -20q21 0 36.5 2t26.5 2v-164q-27 -7 -58 -12.5t-73 -5.5zM169 1917v131h244v-123q0 -48 9 -93.5t32.5 -85t65.5 -69.5
l-118 -125q-99 48 -165 142t-68 223z" />
    <glyph glyph-name="uni1F9A" unicode="&#x1f9a;" horiz-adv-x="3081" 
d="M1158 0v2048h433v-845h879v845h432v-2048h-432v846h-879v-846h-433zM2167 -680q-108 0 -184.5 61t-76.5 197v290h254v-288q0 -42 16.5 -62t58.5 -20q21 0 36.5 2t26.5 2v-164q-27 -7 -58 -12.5t-73 -5.5zM1061 1604v-20h-133l-326 436v28h298zM538 2048v-112
q1 -80 -30 -151t-89.5 -130t-141.5 -103l-111 84q57 63 86 137t29 171v104h257z" />
    <glyph glyph-name="uni1F9B" unicode="&#x1f9b;" horiz-adv-x="2998" 
d="M1076 0v2048h433v-845h879v845h432v-2048h-432v846h-879v-846h-433zM2085 -680q-108 0 -184.5 61t-76.5 197v290h254v-288q0 -42 16.5 -62t58.5 -20q21 0 36.5 2t26.5 2v-164q-27 -7 -58 -12.5t-73 -5.5zM977 1614v-32h-133l-326 438v28h302zM162 1917v131h245v-123
q0 -72 20.5 -137.5t89.5 -110.5l-118 -125q-104 48 -171 142t-66 223z" />
    <glyph glyph-name="uni1F9C" unicode="&#x1f9c;" horiz-adv-x="3026" 
d="M1104 0v2048h433v-845h879v845h432v-2048h-432v846h-879v-846h-433zM2113 -680q-108 0 -184.5 61t-76.5 197v290h254v-288q0 -42 16.5 -62t58.5 -20q21 0 36.5 2t26.5 2v-164q-27 -7 -58 -12.5t-73 -5.5zM569 1582v32l160 434h298v-28l-326 -438h-132zM527 2048v-131
q-1 -85 -31.5 -155.5t-84 -124t-122.5 -85.5l-117 125q66 45 87.5 110.5t21.5 137.5v123h246z" />
    <glyph glyph-name="uni1F9D" unicode="&#x1f9d;" horiz-adv-x="3065" 
d="M1142 0v2048h433v-845h879v845h432v-2048h-432v846h-879v-846h-433zM2151 -680q-108 0 -184.5 61t-76.5 197v290h254v-288q0 -42 16.5 -62t58.5 -20q21 0 36.5 2t26.5 2v-164q-27 -7 -58 -12.5t-73 -5.5zM598 1582v32l154 434h302v-28l-328 -438h-128zM169 1917v131h243
v-123q1 -81 24 -143t83 -105l-117 -125q-96 46 -164.5 139t-68.5 226z" />
    <glyph glyph-name="uni1F9E" unicode="&#x1f9e;" horiz-adv-x="2833" 
d="M910 0v2048h433v-845h879v845h432v-2048h-432v846h-879v-846h-433zM1919 -680q-108 0 -184.5 61t-76.5 197v290h254v-288q0 -42 16.5 -62t58.5 -20q21 0 36.5 2t26.5 2v-164q-27 -7 -58 -12.5t-73 -5.5zM817 2389l173 -53q0 -99 -65 -173.5t-167 -74.5q-55 0 -97 14
t-77.5 32.5t-72.5 32.5t-83 14q-42 0 -68 -35.5t-26 -84.5l-173 49q0 99 64.5 176t166.5 77q45 0 86 -13.5t81 -32t80 -32.5t83 -14q40 0 67.5 34.5t27.5 83.5zM712 2018v-111q0 -103 -58.5 -181t-148.5 -118l-113 102q60 35 77.5 90.5t17.5 112.5v105h225z" />
    <glyph glyph-name="uni1F9F" unicode="&#x1f9f;" horiz-adv-x="2871" 
d="M948 0v2048h433v-845h879v845h432v-2048h-432v846h-879v-846h-433zM1957 -680q-108 0 -184.5 61t-76.5 197v290h254v-288q0 -42 16.5 -62t58.5 -20q21 0 36.5 2t26.5 2v-164q-27 -7 -58 -12.5t-73 -5.5zM484 1907v111h225v-105q0 -57 17.5 -112.5t77.5 -90.5l-117 -102
q-82 38 -142.5 115t-60.5 184zM817 2389l173 -53q0 -99 -65 -173.5t-167 -74.5q-55 0 -97 14t-77.5 32.5t-72.5 32.5t-83 14q-42 0 -68 -35.5t-26 -84.5l-173 49q0 99 64.5 176t166.5 77q45 0 86 -13.5t81 -32t80 -32.5t83 -14q40 0 67.5 34.5t27.5 83.5z" />
    <glyph glyph-name="uni1FCC" unicode="&#x1fcc;" horiz-adv-x="2101" 
d="M178 0v2048h433v-845h879v845h432v-2048h-432v846h-879v-846h-433zM1187 -680q-108 0 -184.5 61t-76.5 197v290h254v-288q0 -42 16.5 -62t58.5 -20q21 0 36.5 2t26.5 2v-164q-27 -7 -58 -12.5t-73 -5.5z" />
    <glyph glyph-name="uni0049" unicode="I" horiz-adv-x="790" 
d="M611 2048v-2048h-433v2048h433z" />
    <glyph glyph-name="uni00CF" unicode="&#xcf;" horiz-adv-x="790" 
d="M611 2048v-2048h-433v2048h433zM91 2258q-86 0 -148 60.5t-62 143.5q0 85 62 144t148 59q87 0 147.5 -59t60.5 -144q0 -83 -60.5 -143.5t-147.5 -60.5zM703 2258q-86 0 -148 60.5t-62 143.5q0 85 62 144t148 59q87 0 147.5 -59t60.5 -144q0 -83 -60.5 -143.5
t-147.5 -60.5z" />
    <glyph glyph-name="uni1E2E" unicode="&#x1e2e;" horiz-adv-x="790" 
d="M611 2048v-2048h-433v2048h433zM232 2696l276 353h382l-352 -353h-306zM104 2189q-82 0 -141.5 56t-59.5 133q0 80 59.5 135t141.5 55q83 0 140.5 -55t57.5 -135q0 -77 -57.5 -133t-140.5 -56zM691 2189q-83 0 -142 56t-59 133q0 80 59 135t142 55t141 -55t58 -135
q0 -77 -58 -133t-141 -56z" />
    <glyph glyph-name="uni0197" unicode="&#x197;" horiz-adv-x="790" 
d="M611 2048v-2048h-433v2048h433zM-107 954v251h998v-251h-998z" />
    <glyph glyph-name="uni1E2C" unicode="&#x1e2c;" horiz-adv-x="790" 
d="M611 2048v-2048h-433v2048h433zM161 -549l-237 3q0 191 94.5 293t230.5 103q70 0 120.5 -22.5t91 -52.5t77.5 -52.5t80 -22.5q58 1 88.5 43.5t30.5 111.5l233 -7q-2 -189 -96 -291.5t-229 -103.5q-75 0 -125.5 22.5t-88.5 52t-74 52.5t-81 23q-52 0 -83.5 -41t-31.5 -111
z" />
    <glyph glyph-name="uni00CC" unicode="&#xcc;" horiz-adv-x="790" 
d="M611 2048v-2048h-433v2048h433zM248 2246l-305 455h393l213 -455h-301z" />
    <glyph glyph-name="uni00CD" unicode="&#xcd;" horiz-adv-x="790" 
d="M611 2048v-2048h-433v2048h433zM243 2246l212 455h394l-305 -455h-301z" />
    <glyph glyph-name="uni00CE" unicode="&#xce;" horiz-adv-x="790" 
d="M611 2048v-2048h-433v2048h433zM195 2231h-363v13l405 440h317l406 -440v-13h-363l-201 244z" />
    <glyph glyph-name="uni0128" unicode="&#x128;" horiz-adv-x="1270" 
d="M849 2048v-2048h-433v2048h433zM348 2237l-237 3q0 191 94.5 293t230.5 103q70 0 120.5 -22.5t91 -52.5t77.5 -52.5t80 -22.5q58 1 88.5 43.5t30.5 111.5l233 -7q-2 -189 -96 -291.5t-229 -103.5q-75 0 -125.5 22.5t-88.5 52t-74 52.5t-81 23q-52 0 -83.5 -41t-31.5 -111
z" />
    <glyph glyph-name="uni012A" unicode="&#x12a;" horiz-adv-x="790" 
d="M611 2048v-2048h-433v2048h433zM883 2560v-231h-974v231h974z" />
    <glyph glyph-name="uni012C" unicode="&#x12c;" horiz-adv-x="790" 
d="M611 2048v-2048h-433v2048h433zM594 2584h297q-1 -182 -134.5 -293t-360.5 -111q-228 0 -361 111t-133 293h295q-1 -69 44.5 -124t154.5 -55q106 0 152 54t46 125z" />
    <glyph glyph-name="uni012E" unicode="&#x12e;" horiz-adv-x="790" 
d="M611 2048v-2048h-433v2048h433zM416 -574q-133 0 -222.5 68.5t-112.5 195.5q-15 82 2.5 165t70 152t140.5 108l317 -115q-94 -44 -154 -95t-59 -123q-1 -48 24 -74t73 -26q33 0 59 8.5t46 15.5l44 -220q-37 -21 -94.5 -40.5t-133.5 -19.5z" />
    <glyph glyph-name="uni0130" unicode="&#x130;" horiz-adv-x="790" 
d="M611 2048v-2048h-433v2048h433zM397 2246q-95 0 -163 63.5t-68 152.5q0 88 68 151.5t162 63.5q96 0 163.5 -63.5t67.5 -151.5q0 -89 -67.5 -152.5t-162.5 -63.5z" />
    <glyph glyph-name="uni01CF" unicode="&#x1cf;" horiz-adv-x="790" 
d="M611 2048v-2048h-433v2048h433zM195 2686l201 -244l201 244h363v-14l-406 -440h-317l-405 440v14h363z" />
    <glyph glyph-name="uni0208" unicode="&#x208;" horiz-adv-x="790" 
d="M611 2048v-2048h-433v2048h433zM230 2246l-350 186l-63 269l381 -186zM719 2246l-310 186l3 269l328 -186z" />
    <glyph glyph-name="uni020A" unicode="&#x20a;" horiz-adv-x="790" 
d="M611 2048v-2048h-433v2048h433zM-102 2295q-1 182 133 298.5t362 116.5t362 -116.5t134 -298.5h-297q0 70 -46 124t-153 54q-108 0 -153.5 -54.5t-44.5 -123.5h-297z" />
    <glyph glyph-name="uni1EC8" unicode="&#x1ec8;" horiz-adv-x="790" 
d="M611 2048v-2048h-433v2048h433zM553 2268h-316l-22 180q106 5 151 28.5t44 62.5q1 54 -56.5 73t-143.5 19l11 193q267 0 406.5 -72t138.5 -200q1 -91 -65.5 -137.5t-147.5 -58.5v-88z" />
    <glyph glyph-name="uni1ECA" unicode="&#x1eca;" horiz-adv-x="790" 
d="M611 2048v-2048h-433v2048h433zM394 -576q-95 0 -163 63.5t-68 152.5q0 88 68 151.5t162 63.5q96 0 163.5 -63.5t67.5 -151.5q0 -89 -67.5 -152.5t-162.5 -63.5z" />
    <glyph glyph-name="uni0399" unicode="&#x399;" horiz-adv-x="790" 
d="M611 2048v-2048h-433v2048h433z" />
    <glyph glyph-name="uni038A" unicode="&#x38a;" horiz-adv-x="1089" 
d="M910 2048v-2048h-433v2048h433zM6 1720l107 475h381l-237 -475h-251z" />
    <glyph glyph-name="uni03AA" unicode="&#x3aa;" horiz-adv-x="790" 
d="M611 2048v-2048h-433v2048h433zM91 2258q-86 0 -148 60.5t-62 143.5q0 85 62 144t148 59q87 0 147.5 -59t60.5 -144q0 -83 -60.5 -143.5t-147.5 -60.5zM703 2258q-86 0 -148 60.5t-62 143.5q0 85 62 144t148 59q87 0 147.5 -59t60.5 -144q0 -83 -60.5 -143.5
t-147.5 -60.5z" />
    <glyph glyph-name="uni1F38" unicode="&#x1f38;" horiz-adv-x="1213" 
d="M1041 2048v-2048h-433v2048h433zM510 2048v-131q0 -86 -30.5 -157t-83 -123.5t-119.5 -84.5l-118 125q42 29 66 66t34 82.5t10 99.5v123h241z" />
    <glyph glyph-name="uni1F39" unicode="&#x1f39;" horiz-adv-x="1176" 
d="M1005 2048v-2048h-433v2048h433zM169 1917v131h244v-123q0 -48 9 -93.5t32.5 -85t65.5 -69.5l-118 -125q-99 48 -165 142t-68 223z" />
    <glyph glyph-name="uni1F3A" unicode="&#x1f3a;" horiz-adv-x="1714" 
d="M1543 2048v-2048h-433v2048h433zM1061 1604v-20h-133l-326 436v28h298zM538 2048v-112q1 -80 -30 -151t-89.5 -130t-141.5 -103l-111 84q57 63 86 137t29 171v104h257z" />
    <glyph glyph-name="uni1F3B" unicode="&#x1f3b;" horiz-adv-x="1632" 
d="M1461 2048v-2048h-433v2048h433zM977 1614v-32h-133l-326 438v28h302zM162 1917v131h245v-123q0 -72 20.5 -137.5t89.5 -110.5l-118 -125q-104 48 -171 142t-66 223z" />
    <glyph glyph-name="uni1F3C" unicode="&#x1f3c;" horiz-adv-x="1660" 
d="M1489 2048v-2048h-433v2048h433zM569 1582v32l160 434h298v-28l-326 -438h-132zM527 2048v-131q-1 -85 -31.5 -155.5t-84 -124t-122.5 -85.5l-117 125q66 45 87.5 110.5t21.5 137.5v123h246z" />
    <glyph glyph-name="uni1F3D" unicode="&#x1f3d;" horiz-adv-x="1698" 
d="M1527 2048v-2048h-433v2048h433zM598 1582v32l154 434h302v-28l-328 -438h-128zM169 1917v131h243v-123q1 -81 24 -143t83 -105l-117 -125q-96 46 -164.5 139t-68.5 226z" />
    <glyph glyph-name="uni1F3E" unicode="&#x1f3e;" horiz-adv-x="1466" 
d="M1295 2048v-2048h-433v2048h433zM817 2389l173 -53q0 -99 -65 -173.5t-167 -74.5q-55 0 -97 14t-77.5 32.5t-72.5 32.5t-83 14q-42 0 -68 -35.5t-26 -84.5l-173 49q0 99 64.5 176t166.5 77q45 0 86 -13.5t81 -32t80 -32.5t83 -14q40 0 67.5 34.5t27.5 83.5zM712 2018
v-111q0 -103 -58.5 -181t-148.5 -118l-113 102q60 35 77.5 90.5t17.5 112.5v105h225z" />
    <glyph glyph-name="uni1F3F" unicode="&#x1f3f;" horiz-adv-x="1505" 
d="M1333 2048v-2048h-433v2048h433zM484 1907v111h225v-105q0 -57 17.5 -112.5t77.5 -90.5l-117 -102q-82 38 -142.5 115t-60.5 184zM817 2389l173 -53q0 -99 -65 -173.5t-167 -74.5q-55 0 -97 14t-77.5 32.5t-72.5 32.5t-83 14q-42 0 -68 -35.5t-26 -84.5l-173 49
q0 99 64.5 176t166.5 77q45 0 86 -13.5t81 -32t80 -32.5t83 -14q40 0 67.5 34.5t27.5 83.5z" />
    <glyph glyph-name="uni1FD8" unicode="&#x1fd8;" horiz-adv-x="790" 
d="M611 2048v-2048h-433v2048h433zM594 2584h297q-1 -182 -134.5 -293t-360.5 -111q-228 0 -361 111t-133 293h295q-1 -69 44.5 -124t154.5 -55q106 0 152 54t46 125z" />
    <glyph glyph-name="uni1FD9" unicode="&#x1fd9;" horiz-adv-x="790" 
d="M611 2048v-2048h-433v2048h433zM883 2560v-231h-974v231h974z" />
    <glyph glyph-name="uni1FDA" unicode="&#x1fda;" horiz-adv-x="1286" 
d="M1115 2048v-2048h-433v2048h433zM620 1580h-128l-326 440v28h298l156 -430v-38z" />
    <glyph glyph-name="uni1FDB" unicode="&#x1fdb;" horiz-adv-x="1254" 
d="M1083 2048v-2048h-433v2048h433zM188 1728v38l156 430h381v-28l-325 -440h-212z" />
    <glyph glyph-name="uni0406" unicode="&#x406;" horiz-adv-x="790" 
d="M611 2048v-2048h-433v2048h433z" />
    <glyph glyph-name="uni0407" unicode="&#x407;" horiz-adv-x="790" 
d="M611 2048v-2048h-433v2048h433zM91 2258q-86 0 -148 60.5t-62 143.5q0 85 62 144t148 59q87 0 147.5 -59t60.5 -144q0 -83 -60.5 -143.5t-147.5 -60.5zM703 2258q-86 0 -148 60.5t-62 143.5q0 85 62 144t148 59q87 0 147.5 -59t60.5 -144q0 -83 -60.5 -143.5
t-147.5 -60.5z" />
    <glyph glyph-name="uniE00C" unicode="&#xe00c;" horiz-adv-x="1351" 
d="M100 1691v357h1151v-357h-1151zM100 0v357h1151v-357h-1151zM892 2048v-2048h-433v2048h433z" />
    <glyph glyph-name="uniE00D" unicode="&#xe00d;" horiz-adv-x="1351" 
d="M100 1691v357h1151v-357h-1151zM100 0v357h1151v-357h-1151zM892 2048v-2048h-433v2048h433zM372 2258q-86 0 -148 60.5t-62 143.5q0 85 62 144t148 59q87 0 147.5 -59t60.5 -144q0 -83 -60.5 -143.5t-147.5 -60.5zM984 2258q-86 0 -148 60.5t-62 143.5q0 85 62 144
t148 59q87 0 147.5 -59t60.5 -144q0 -83 -60.5 -143.5t-147.5 -60.5z" />
    <glyph glyph-name="uniE00E" unicode="&#xe00e;" horiz-adv-x="1351" 
d="M100 1691v357h1151v-357h-1151zM100 0v357h1151v-357h-1151zM892 2048v-2048h-433v2048h433zM513 2696l276 353h382l-352 -353h-306zM385 2189q-82 0 -141.5 56t-59.5 133q0 80 59.5 135t141.5 55q83 0 140.5 -55t57.5 -135q0 -77 -57.5 -133t-140.5 -56zM972 2189
q-83 0 -142 56t-59 133q0 80 59 135t142 55t141 -55t58 -135q0 -77 -58 -133t-141 -56z" />
    <glyph glyph-name="uniE00F" unicode="&#xe00f;" horiz-adv-x="1351" 
d="M100 1691v357h1151v-357h-1151zM100 0v357h1151v-357h-1151zM892 2048v-2048h-433v2048h433zM174 954v251h998v-251h-998z" />
    <glyph glyph-name="uniE010" unicode="&#xe010;" horiz-adv-x="1351" 
d="M100 1691v357h1151v-357h-1151zM100 0v357h1151v-357h-1151zM892 2048v-2048h-433v2048h433zM442 -549l-237 3q0 191 94.5 293t230.5 103q70 0 120.5 -22.5t91 -52.5t77.5 -52.5t80 -22.5q58 1 88.5 43.5t30.5 111.5l233 -7q-2 -189 -96 -291.5t-229 -103.5
q-75 0 -125.5 22.5t-88.5 52t-74 52.5t-81 23q-52 0 -83.5 -41t-31.5 -111z" />
    <glyph glyph-name="uniE011" unicode="&#xe011;" horiz-adv-x="1351" 
d="M100 1691v357h1151v-357h-1151zM100 0v357h1151v-357h-1151zM892 2048v-2048h-433v2048h433zM529 2246l-305 455h393l213 -455h-301z" />
    <glyph glyph-name="uniE012" unicode="&#xe012;" horiz-adv-x="1351" 
d="M100 1691v357h1151v-357h-1151zM100 0v357h1151v-357h-1151zM892 2048v-2048h-433v2048h433zM524 2246l212 455h394l-305 -455h-301z" />
    <glyph glyph-name="uniE013" unicode="&#xe013;" horiz-adv-x="1351" 
d="M100 1691v357h1151v-357h-1151zM100 0v357h1151v-357h-1151zM892 2048v-2048h-433v2048h433zM476 2231h-363v13l405 440h317l406 -440v-13h-363l-201 244z" />
    <glyph glyph-name="uniE014" unicode="&#xe014;" horiz-adv-x="1351" 
d="M100 1691v357h1151v-357h-1151zM100 0v357h1151v-357h-1151zM892 2048v-2048h-433v2048h433zM391 2237l-237 3q0 191 94.5 293t230.5 103q70 0 120.5 -22.5t91 -52.5t77.5 -52.5t80 -22.5q58 1 88.5 43.5t30.5 111.5l233 -7q-2 -189 -96 -291.5t-229 -103.5
q-75 0 -125.5 22.5t-88.5 52t-74 52.5t-81 23q-52 0 -83.5 -41t-31.5 -111z" />
    <glyph glyph-name="uniE015" unicode="&#xe015;" horiz-adv-x="1351" 
d="M100 1691v357h1151v-357h-1151zM100 0v357h1151v-357h-1151zM892 2048v-2048h-433v2048h433zM1164 2560v-231h-974v231h974z" />
    <glyph glyph-name="uniE016" unicode="&#xe016;" horiz-adv-x="1351" 
d="M100 1691v357h1151v-357h-1151zM100 0v357h1151v-357h-1151zM892 2048v-2048h-433v2048h433zM875 2584h297q-1 -182 -134.5 -293t-360.5 -111q-228 0 -361 111t-133 293h295q-1 -69 44.5 -124t154.5 -55q106 0 152 54t46 125z" />
    <glyph glyph-name="uniE017" unicode="&#xe017;" horiz-adv-x="1351" 
d="M100 1691v357h1151v-357h-1151zM100 0v357h1151v-357h-1151zM892 2048v-2048h-433v2048h433zM1056 -574q-133 0 -222.5 68.5t-112.5 195.5q-15 82 2.5 165t70 152t140.5 108l317 -115q-94 -44 -154 -95t-59 -123q-1 -48 24 -74t73 -26q33 0 59 8.5t46 15.5l44 -220
q-37 -21 -94.5 -40.5t-133.5 -19.5z" />
    <glyph glyph-name="uniE018" unicode="&#xe018;" horiz-adv-x="1351" 
d="M100 1691v357h1151v-357h-1151zM100 0v357h1151v-357h-1151zM892 2048v-2048h-433v2048h433zM677 2246q-95 0 -163 63.5t-68 152.5q0 88 68 151.5t162 63.5q96 0 163.5 -63.5t67.5 -151.5q0 -89 -67.5 -152.5t-162.5 -63.5z" />
    <glyph glyph-name="uniE019" unicode="&#xe019;" horiz-adv-x="1351" 
d="M100 1691v357h1151v-357h-1151zM100 0v357h1151v-357h-1151zM892 2048v-2048h-433v2048h433zM476 2686l201 -244l201 244h363v-14l-406 -440h-317l-405 440v14h363z" />
    <glyph glyph-name="uniE01A" unicode="&#xe01a;" horiz-adv-x="1351" 
d="M100 1691v357h1151v-357h-1151zM100 0v357h1151v-357h-1151zM892 2048v-2048h-433v2048h433zM511 2246l-350 186l-63 269l381 -186zM1000 2246l-310 186l3 269l328 -186z" />
    <glyph glyph-name="uniE01B" unicode="&#xe01b;" horiz-adv-x="1351" 
d="M100 1691v357h1151v-357h-1151zM100 0v357h1151v-357h-1151zM892 2048v-2048h-433v2048h433zM179 2295q-1 182 133 298.5t362 116.5t362 -116.5t134 -298.5h-297q0 70 -46 124t-153 54q-108 0 -153.5 -54.5t-44.5 -123.5h-297z" />
    <glyph glyph-name="uniE01C" unicode="&#xe01c;" horiz-adv-x="1351" 
d="M100 1691v357h1151v-357h-1151zM100 0v357h1151v-357h-1151zM892 2048v-2048h-433v2048h433zM834 2268h-316l-22 180q106 5 151 28.5t44 62.5q1 54 -56.5 73t-143.5 19l11 193q267 0 406.5 -72t138.5 -200q1 -91 -65.5 -137.5t-147.5 -58.5v-88z" />
    <glyph glyph-name="uniE01D" unicode="&#xe01d;" horiz-adv-x="1351" 
d="M100 1691v357h1151v-357h-1151zM100 0v357h1151v-357h-1151zM892 2048v-2048h-433v2048h433zM675 -576q-95 0 -163 63.5t-68 152.5q0 88 68 151.5t162 63.5q96 0 163.5 -63.5t67.5 -151.5q0 -89 -67.5 -152.5t-162.5 -63.5z" />
    <glyph glyph-name="uniE01E" unicode="&#xe01e;" horiz-adv-x="1801" 
d="M550 1691v357h1151v-357h-1151zM550 0v357h1151v-357h-1151zM1342 2048v-2048h-433v2048h433zM451 2048v-131q0 -86 -30.5 -157t-83 -123.5t-119.5 -84.5l-118 125q42 29 66 66t34 82.5t10 99.5v123h241z" />
    <glyph glyph-name="uniE01F" unicode="&#xe01f;" horiz-adv-x="1754" 
d="M503 1691v357h1151v-357h-1151zM503 0v357h1151v-357h-1151zM1295 2048v-2048h-433v2048h433zM100 1917v131h244v-123q0 -48 9 -93.5t32.5 -85t65.5 -69.5l-118 -125q-99 48 -165 142t-68 223z" />
    <glyph glyph-name="uniE020" unicode="&#xe020;" horiz-adv-x="2295" 
d="M1044 1691v357h1151v-357h-1151zM1044 0v357h1151v-357h-1151zM1836 2048v-2048h-433v2048h433zM994 1604v-20h-133l-326 436v28h298zM471 2048v-112q1 -80 -30 -151t-89.5 -130t-141.5 -103l-111 84q57 63 86 137t29 171v104h257z" />
    <glyph glyph-name="uniE021" unicode="&#xe021;" horiz-adv-x="2218" 
d="M966 1691v357h1151v-357h-1151zM966 0v357h1151v-357h-1151zM1758 2048v-2048h-433v2048h433zM915 1614v-32h-133l-326 438v28h302zM100 1917v131h245v-123q0 -72 20.5 -137.5t89.5 -110.5l-118 -125q-104 48 -171 142t-66 223z" />
    <glyph glyph-name="uniE022" unicode="&#xe022;" horiz-adv-x="2236" 
d="M985 1691v357h1151v-357h-1151zM985 0v357h1151v-357h-1151zM1777 2048v-2048h-433v2048h433zM497 1582v32l160 434h298v-28l-326 -438h-132zM455 2048v-131q-1 -85 -31.5 -155.5t-84 -124t-122.5 -85.5l-117 125q66 45 87.5 110.5t21.5 137.5v123h246z" />
    <glyph glyph-name="uniE023" unicode="&#xe023;" horiz-adv-x="2277" 
d="M1026 1691v357h1151v-357h-1151zM1026 0v357h1151v-357h-1151zM1818 2048v-2048h-433v2048h433zM529 1582v32l154 434h302v-28l-328 -438h-128zM100 1917v131h243v-123q1 -81 24 -143t83 -105l-117 -125q-96 46 -164.5 139t-68.5 226z" />
    <glyph glyph-name="uniE024" unicode="&#xe024;" horiz-adv-x="2052" 
d="M801 1691v357h1151v-357h-1151zM801 0v357h1151v-357h-1151zM1593 2048v-2048h-433v2048h433zM756 2389l173 -53q0 -99 -65 -173.5t-167 -74.5q-55 0 -97 14t-77.5 32.5t-72.5 32.5t-83 14q-42 0 -68 -35.5t-26 -84.5l-173 49q0 99 64.5 176t166.5 77q45 0 86 -13.5
t81 -32t80 -32.5t83 -14q40 0 67.5 34.5t27.5 83.5zM651 2018v-111q0 -103 -58.5 -181t-148.5 -118l-113 102q60 35 77.5 90.5t17.5 112.5v105h225z" />
    <glyph glyph-name="uniE025" unicode="&#xe025;" horiz-adv-x="2090" 
d="M839 1691v357h1151v-357h-1151zM839 0v357h1151v-357h-1151zM1631 2048v-2048h-433v2048h433zM423 1907v111h225v-105q0 -57 17.5 -112.5t77.5 -90.5l-117 -102q-82 38 -142.5 115t-60.5 184zM756 2389l173 -53q0 -99 -65 -173.5t-167 -74.5q-55 0 -97 14t-77.5 32.5
t-72.5 32.5t-83 14q-42 0 -68 -35.5t-26 -84.5l-173 49q0 99 64.5 176t166.5 77q45 0 86 -13.5t81 -32t80 -32.5t83 -14q40 0 67.5 34.5t27.5 83.5z" />
    <glyph glyph-name="uniE026" unicode="&#xe026;" horiz-adv-x="1351" 
d="M100 1691v357h1151v-357h-1151zM100 0v357h1151v-357h-1151zM892 2048v-2048h-433v2048h433zM875 2584h297q-1 -182 -134.5 -293t-360.5 -111q-228 0 -361 111t-133 293h295q-1 -69 44.5 -124t154.5 -55q106 0 152 54t46 125z" />
    <glyph glyph-name="uniE027" unicode="&#xe027;" horiz-adv-x="1351" 
d="M100 1691v357h1151v-357h-1151zM100 0v357h1151v-357h-1151zM892 2048v-2048h-433v2048h433zM1164 2560v-231h-974v231h974z" />
    <glyph glyph-name="uniE028" unicode="&#xe028;" horiz-adv-x="1867" 
d="M616 1691v357h1151v-357h-1151zM616 0v357h1151v-357h-1151zM1408 2048v-2048h-433v2048h433zM554 1580h-128l-326 440v28h298l156 -430v-38z" />
    <glyph glyph-name="uniE029" unicode="&#xe029;" horiz-adv-x="1835" 
d="M584 1691v357h1151v-357h-1151zM584 0v357h1151v-357h-1151zM1376 2048v-2048h-433v2048h433zM122 1728v38l156 430h381v-28l-325 -440h-212z" />
    <glyph glyph-name="uniE02A" unicode="&#xe02a;" horiz-adv-x="1351" 
d="M100 1691v357h1151v-357h-1151zM100 0v357h1151v-357h-1151zM892 2048v-2048h-433v2048h433z" />
    <glyph glyph-name="uniE02B" unicode="&#xe02b;" horiz-adv-x="1351" 
d="M100 1691v357h1151v-357h-1151zM100 0v357h1151v-357h-1151zM892 2048v-2048h-433v2048h433zM372 2258q-86 0 -148 60.5t-62 143.5q0 85 62 144t148 59q87 0 147.5 -59t60.5 -144q0 -83 -60.5 -143.5t-147.5 -60.5zM984 2258q-86 0 -148 60.5t-62 143.5q0 85 62 144
t148 59q87 0 147.5 -59t60.5 -144q0 -83 -60.5 -143.5t-147.5 -60.5z" />
    <glyph glyph-name="uni004A" unicode="J" horiz-adv-x="1605" 
d="M998 2048h428v-1428q0 -198 -88.5 -344t-245.5 -225t-365 -79q-185 0 -335.5 65.5t-238.5 200t-87 338.5h431q2 -81 33.5 -138.5t87 -88t131.5 -30.5q80 0 135.5 34.5t84.5 101.5t29 165v1428z" />
    <glyph glyph-name="uni0134" unicode="&#x134;" horiz-adv-x="1605" 
d="M998 2048h428v-1428q0 -198 -88.5 -344t-245.5 -225t-365 -79q-185 0 -335.5 65.5t-238.5 200t-87 338.5h431q2 -81 33.5 -138.5t87 -88t131.5 -30.5q80 0 135.5 34.5t84.5 101.5t29 165v1428zM1010 2231h-363v13l405 440h317l406 -440v-13h-363l-201 244z" />
    <glyph glyph-name="uni0248" unicode="&#x248;" horiz-adv-x="1605" 
d="M998 2048h428v-1428q0 -198 -88.5 -344t-245.5 -225t-365 -79q-185 0 -335.5 65.5t-238.5 200t-87 338.5h431q2 -81 33.5 -138.5t87 -88t131.5 -30.5q80 0 135.5 34.5t84.5 101.5t29 165v1428zM708 1097v251h998v-251h-998z" />
    <glyph glyph-name="uni037F" unicode="&#x37f;" horiz-adv-x="1605" 
d="M998 2048h428v-1428q0 -198 -88.5 -344t-245.5 -225t-365 -79q-185 0 -335.5 65.5t-238.5 200t-87 338.5h431q2 -81 33.5 -138.5t87 -88t131.5 -30.5q80 0 135.5 34.5t84.5 101.5t29 165v1428z" />
    <glyph glyph-name="uni0408" unicode="&#x408;" horiz-adv-x="1605" 
d="M998 2048h428v-1428q0 -198 -88.5 -344t-245.5 -225t-365 -79q-185 0 -335.5 65.5t-238.5 200t-87 338.5h431q2 -81 33.5 -138.5t87 -88t131.5 -30.5q80 0 135.5 34.5t84.5 101.5t29 165v1428z" />
    <glyph glyph-name="uni004B" unicode="K" horiz-adv-x="1942" 
d="M178 0v2048h433v-903h27l737 903h519l-760 -917l769 -1131h-518l-561 842l-213 -260v-582h-433z" />
    <glyph glyph-name="uni0136" unicode="&#x136;" horiz-adv-x="1942" 
d="M178 0v2048h433v-903h27l737 903h519l-760 -917l769 -1131h-518l-561 842l-213 -260v-582h-433zM645 -654l124 494h394l-219 -494h-299z" />
    <glyph glyph-name="uni01E8" unicode="&#x1e8;" horiz-adv-x="1942" 
d="M178 0v2048h433v-903h27l737 903h519l-760 -917l769 -1131h-518l-561 842l-213 -260v-582h-433zM768 2686l201 -244l201 244h363v-14l-406 -440h-317l-405 440v14h363z" />
    <glyph glyph-name="uni1E30" unicode="&#x1e30;" horiz-adv-x="1942" 
d="M178 0v2048h433v-903h27l737 903h519l-760 -917l769 -1131h-518l-561 842l-213 -260v-582h-433zM816 2246l212 455h394l-305 -455h-301z" />
    <glyph glyph-name="uni1E32" unicode="&#x1e32;" horiz-adv-x="1942" 
d="M178 0v2048h433v-903h27l737 903h519l-760 -917l769 -1131h-518l-561 842l-213 -260v-582h-433zM964 -574q-95 0 -163 63.5t-68 152.5q0 88 68 151.5t162 63.5q96 0 163.5 -63.5t67.5 -151.5q0 -89 -67.5 -152.5t-162.5 -63.5z" />
    <glyph glyph-name="uni1E34" unicode="&#x1e34;" horiz-adv-x="1942" 
d="M178 0v2048h433v-903h27l737 903h519l-760 -917l769 -1131h-518l-561 842l-213 -260v-582h-433zM1450 -254v-231h-974v231h974z" />
    <glyph glyph-name="uni04A0" unicode="&#x4a0;" horiz-adv-x="2390" 
d="M1739 0l-665 873h-132v-873h-433v1710h-463v338h896v-818h100l751 818h557l-895 -977l825 -1071h-541z" />
    <glyph glyph-name="uni049A" unicode="&#x49a;" horiz-adv-x="2238" 
d="M1416 0l-666 873h-132v-873h-433v2048h433v-818h101l750 818h558l-895 -977l825 -1071h-541zM2099 212v-788h-414v788h414z" />
    <glyph glyph-name="uni0198" unicode="&#x198;" horiz-adv-x="2053" 
d="M178 0v2048h433v-882h27l672 712q106 109 224 158t244.5 35.5t255.5 -89.5l-139 -307q-84 44 -144.5 23.5t-130.5 -92.5l-483 -504l845 -1102h-518l-602 796l-251 -269v-527h-433z" />
    <glyph glyph-name="uni039A" unicode="&#x39a;" horiz-adv-x="1942" 
d="M178 0v2048h433v-903h27l737 903h519l-760 -917l769 -1131h-518l-561 842l-213 -260v-582h-433z" />
    <glyph glyph-name="uni004C" unicode="L" horiz-adv-x="1598" 
d="M178 0v2048h433v-1691h878v-357h-1311z" />
    <glyph glyph-name="uni0139" unicode="&#x139;" horiz-adv-x="1598" 
d="M178 0v2048h433v-1691h878v-357h-1311zM238 2246l212 455h394l-305 -455h-301z" />
    <glyph glyph-name="uni013B" unicode="&#x13b;" horiz-adv-x="1598" 
d="M178 0v2048h433v-1691h878v-357h-1311zM516 -656l124 494h394l-219 -494h-299z" />
    <glyph glyph-name="uni013D" unicode="&#x13d;" horiz-adv-x="1598" 
d="M178 0v2048h433v-1691h878v-357h-1311zM918 1626v528h320l-72 -528h-248z" />
    <glyph glyph-name="uni1E36" unicode="&#x1e36;" horiz-adv-x="1598" 
d="M178 0v2048h433v-1691h878v-357h-1311zM834 -576q-95 0 -163 63.5t-68 152.5q0 88 68 151.5t162 63.5q96 0 163.5 -63.5t67.5 -151.5q0 -89 -67.5 -152.5t-162.5 -63.5z" />
    <glyph glyph-name="uni1E38" unicode="&#x1e38;" horiz-adv-x="1598" 
d="M178 0v2048h433v-1691h878v-357h-1311zM834 -576q-95 0 -163 63.5t-68 152.5q0 88 68 151.5t162 63.5q96 0 163.5 -63.5t67.5 -151.5q0 -89 -67.5 -152.5t-162.5 -63.5zM878 2560v-231h-974v231h974z" />
    <glyph glyph-name="uni1E3A" unicode="&#x1e3a;" horiz-adv-x="1598" 
d="M178 0v2048h433v-1691h878v-357h-1311zM1321 -256v-231h-974v231h974z" />
    <glyph glyph-name="uni1E3C" unicode="&#x1e3c;" horiz-adv-x="1598" 
d="M178 0v2048h433v-1691h878v-357h-1311zM632 -583h-363v13l405 440h317l406 -440v-13h-363l-201 244z" />
    <glyph glyph-name="uni0141" unicode="&#x141;" horiz-adv-x="1649" 
d="M968 1323v-237l-927 -256v235zM265 0v2048h433v-1691h877v-357h-1310z" />
    <glyph glyph-name="uni023D" unicode="&#x23d;" horiz-adv-x="1598" 
d="M178 0v2048h433v-1691h878v-357h-1311zM-107 954v251h998v-251h-998z" />
    <glyph glyph-name="uni01C8" unicode="&#x1c8;" horiz-adv-x="2365" 
d="M178 0v2048h433v-1691h878v-357h-1311zM1768 1536h426v-1607q0 -178 -70.5 -290t-202 -163.5t-316.5 -46.5h-35.5t-43.5 2v333q17 -1 29.5 -1.5t26.5 -0.5q103 0 144.5 43.5t41.5 130.5v1600zM1981 1734q-95 0 -163 63.5t-68 152.5q0 88 68 151.5t162 63.5
q96 0 163.5 -63.5t67.5 -151.5q0 -89 -67.5 -152.5t-162.5 -63.5z" />
    <glyph glyph-name="uni004D" unicode="M" horiz-adv-x="2576" 
d="M178 2048h534l564 -1376h24l564 1376h534v-2048h-420v1333h-17l-530 -1323h-286l-530 1328h-17v-1338h-420v2048z" />
    <glyph glyph-name="uni1E3E" unicode="&#x1e3e;" horiz-adv-x="2576" 
d="M178 2048h534l564 -1376h24l564 1376h534v-2048h-420v1333h-17l-530 -1323h-286l-530 1328h-17v-1338h-420v2048zM1135 2246l212 455h394l-305 -455h-301z" />
    <glyph glyph-name="uni1E40" unicode="&#x1e40;" horiz-adv-x="2576" 
d="M178 2048h534l564 -1376h24l564 1376h534v-2048h-420v1333h-17l-530 -1323h-286l-530 1328h-17v-1338h-420v2048zM1289 2246q-95 0 -163 63.5t-68 152.5q0 88 68 151.5t162 63.5q96 0 163.5 -63.5t67.5 -151.5q0 -89 -67.5 -152.5t-162.5 -63.5z" />
    <glyph glyph-name="uni1E42" unicode="&#x1e42;" horiz-adv-x="2576" 
d="M178 2048h534l564 -1376h24l564 1376h534v-2048h-420v1333h-17l-530 -1323h-286l-530 1328h-17v-1338h-420v2048zM1288 -576q-95 0 -163 63.5t-68 152.5q0 88 68 151.5t162 63.5q96 0 163.5 -63.5t67.5 -151.5q0 -89 -67.5 -152.5t-162.5 -63.5z" />
    <glyph glyph-name="uni04CD" unicode="&#x4cd;" horiz-adv-x="2761" 
d="M178 2048h534l564 -1376h24l564 1376h534v-2048h-420v1333h-17l-530 -1323h-286l-530 1328h-17v-1338h-420v2048zM2737 233v-239q1 -109 -32 -216t-91 -200.5t-134 -163.5l-227 100q33 65 66 130.5t56 143.5t22 181v264h340z" />
    <glyph glyph-name="uni039C" unicode="&#x39c;" horiz-adv-x="2576" 
d="M178 2048h534l564 -1376h24l564 1376h534v-2048h-420v1333h-17l-530 -1323h-286l-530 1328h-17v-1338h-420v2048z" />
    <glyph glyph-name="uni03FA" unicode="&#x3fa;" horiz-adv-x="2576" 
d="M178 2048h534l564 -1376h24l564 1376h534v-2048h-420v1333h-17l-530 -1323h-286l-530 1328h-17v-1338h-420v2048z" />
    <glyph glyph-name="uni041C" unicode="&#x41c;" horiz-adv-x="2576" 
d="M178 2048h534l564 -1376h24l564 1376h534v-2048h-420v1333h-17l-530 -1323h-286l-530 1328h-17v-1338h-420v2048z" />
    <glyph glyph-name="uni004E" unicode="N" horiz-adv-x="2070" 
d="M1891 2048v-2048h-374l-891 1289h-15v-1289h-433v2048h380l884 -1288h18v1288h431z" />
    <glyph glyph-name="uni00D1" unicode="&#xd1;" horiz-adv-x="2070" 
d="M1891 2048v-2048h-374l-891 1289h-15v-1289h-433v2048h380l884 -1288h18v1288h431zM750 2237l-237 3q0 191 94.5 293t230.5 103q70 0 120.5 -22.5t91 -52.5t77.5 -52.5t80 -22.5q58 1 88.5 43.5t30.5 111.5l233 -7q-2 -189 -96 -291.5t-229 -103.5q-75 0 -125.5 22.5
t-88.5 52t-74 52.5t-81 23q-52 0 -83.5 -41t-31.5 -111z" />
    <glyph glyph-name="uni0143" unicode="&#x143;" horiz-adv-x="2070" 
d="M1891 2048v-2048h-374l-891 1289h-15v-1289h-433v2048h380l884 -1288h18v1288h431zM883 2246l212 455h394l-305 -455h-301z" />
    <glyph glyph-name="uni0145" unicode="&#x145;" horiz-adv-x="2070" 
d="M1891 2048v-2048h-374l-891 1289h-15v-1289h-433v2048h380l884 -1288h18v1288h431zM718 -656l124 494h394l-219 -494h-299z" />
    <glyph glyph-name="uni0147" unicode="&#x147;" horiz-adv-x="2070" 
d="M1891 2048v-2048h-374l-891 1289h-15v-1289h-433v2048h380l884 -1288h18v1288h431zM835 2686l201 -244l201 244h363v-14l-406 -440h-317l-405 440v14h363z" />
    <glyph glyph-name="uni01F8" unicode="&#x1f8;" horiz-adv-x="2070" 
d="M1891 2048v-2048h-374l-891 1289h-15v-1289h-433v2048h380l884 -1288h18v1288h431zM888 2246l-305 455h393l213 -455h-301z" />
    <glyph glyph-name="uni1E44" unicode="&#x1e44;" horiz-adv-x="2070" 
d="M1891 2048v-2048h-374l-891 1289h-15v-1289h-433v2048h380l884 -1288h18v1288h431zM1037 2246q-95 0 -163 63.5t-68 152.5q0 88 68 151.5t162 63.5q96 0 163.5 -63.5t67.5 -151.5q0 -89 -67.5 -152.5t-162.5 -63.5z" />
    <glyph glyph-name="uni1E46" unicode="&#x1e46;" horiz-adv-x="2070" 
d="M1891 2048v-2048h-374l-891 1289h-15v-1289h-433v2048h380l884 -1288h18v1288h431zM1036 -576q-95 0 -163 63.5t-68 152.5q0 88 68 151.5t162 63.5q96 0 163.5 -63.5t67.5 -151.5q0 -89 -67.5 -152.5t-162.5 -63.5z" />
    <glyph glyph-name="uni1E48" unicode="&#x1e48;" horiz-adv-x="2070" 
d="M1891 2048v-2048h-374l-891 1289h-15v-1289h-433v2048h380l884 -1288h18v1288h431zM1523 -256v-231h-974v231h974z" />
    <glyph glyph-name="uni1E4A" unicode="&#x1e4a;" horiz-adv-x="2070" 
d="M1891 2048v-2048h-374l-891 1289h-15v-1289h-433v2048h380l884 -1288h18v1288h431zM835 -583h-363v13l405 440h317l406 -440v-13h-363l-201 244z" />
    <glyph glyph-name="uni019D" unicode="&#x19d;" horiz-adv-x="2118" 
d="M226 0h433v-94q0 -149 -45.5 -243.5t-122 -146.5t-171.5 -72t-194 -20q-38 0 -99.5 1t-98.5 9v326q20 -3 44 -3h42q84 0 148 30.5t64 119.5v93zM1939 2048v-2048h-374l-891 1289h-15v-1289h-433v2048h380l884 -1288h18v1288h431z" />
    <glyph glyph-name="uni014A" unicode="&#x14a;" horiz-adv-x="2070" 
d="M1517 0h374v-82q0 -195 -75 -310t-210.5 -165t-316.5 -50q-37 0 -78.5 5t-76.5 16v322q30 -7 69 -11t79 -4q105 0 170 46.5t65 144.5v88zM1891 2048v-2048h-374l-891 1289h-15v-1289h-433v2048h380l884 -1288h18v1288h431z" />
    <glyph glyph-name="uni0418" unicode="&#x418;" horiz-adv-x="2070" 
d="M178 2048h432v-1288h17l885 1288h379v-2048h-433v1289h-15l-890 -1289h-375v2048z" />
    <glyph glyph-name="uni040D" unicode="&#x40d;" horiz-adv-x="2070" 
d="M178 2048h432v-1288h17l885 1288h379v-2048h-433v1289h-15l-890 -1289h-375v2048zM886 2246l-305 455h393l213 -455h-301z" />
    <glyph glyph-name="uni0419" unicode="&#x419;" horiz-adv-x="2070" 
d="M178 2048h432v-1288h17l885 1288h379v-2048h-433v1289h-15l-890 -1289h-375v2048zM1232 2584h297q-1 -182 -134.5 -293t-360.5 -111q-228 0 -361 111t-133 293h295q-1 -69 44.5 -124t154.5 -55q106 0 152 54t46 125z" />
    <glyph glyph-name="uni04E2" unicode="&#x4e2;" horiz-adv-x="2070" 
d="M178 2048h432v-1288h17l885 1288h379v-2048h-433v1289h-15l-890 -1289h-375v2048zM1520 2560v-231h-974v231h974z" />
    <glyph glyph-name="uni04E4" unicode="&#x4e4;" horiz-adv-x="2070" 
d="M178 2048h432v-1288h17l885 1288h379v-2048h-433v1289h-15l-890 -1289h-375v2048zM729 2258q-86 0 -148 60.5t-62 143.5q0 85 62 144t148 59q87 0 147.5 -59t60.5 -144q0 -83 -60.5 -143.5t-147.5 -60.5zM1341 2258q-86 0 -148 60.5t-62 143.5q0 85 62 144t148 59
q87 0 147.5 -59t60.5 -144q0 -83 -60.5 -143.5t-147.5 -60.5z" />
    <glyph glyph-name="uni048A" unicode="&#x48a;" horiz-adv-x="2070" 
d="M178 2048h432v-1288h17l885 1288h379v-2048h-433v1289h-15l-890 -1289h-375v2048zM1232 2584h297q-1 -182 -134.5 -293t-360.5 -111q-228 0 -361 111t-133 293h295q-1 -69 44.5 -124t154.5 -55q106 0 152 54t46 125zM2224 233v-239q1 -109 -32 -216t-91 -200.5
t-134 -163.5l-227 100q33 65 66 130.5t56 143.5t22 181v264h340z" />
    <glyph glyph-name="uni0376" unicode="&#x376;" horiz-adv-x="2182" 
d="M233 2048h432v-1288h17l885 1288h379v-2048h-433v1289h-15l-890 -1289h-375v2048z" />
    <glyph glyph-name="uni039D" unicode="&#x39d;" horiz-adv-x="2070" 
d="M1891 2048v-2048h-374l-891 1289h-15v-1289h-433v2048h380l884 -1288h18v1288h431z" />
    <glyph glyph-name="uni01CB" unicode="&#x1cb;" horiz-adv-x="2762" 
d="M1891 2048v-2048h-374l-891 1289h-15v-1289h-433v2048h380l884 -1288h18v1288h431zM2166 1536h426v-1607q0 -178 -70.5 -290t-202 -163.5t-316.5 -46.5h-35.5t-43.5 2v333q17 -1 29.5 -1.5t26.5 -0.5q103 0 144.5 43.5t41.5 130.5v1600zM2379 1734q-95 0 -163 63.5
t-68 152.5q0 88 68 151.5t162 63.5q96 0 163.5 -63.5t67.5 -151.5q0 -89 -67.5 -152.5t-162.5 -63.5z" />
    <glyph glyph-name="uni004F" unicode="O" horiz-adv-x="2202" 
d="M2060 1024q0 -335 -126.5 -570t-344 -358.5t-488.5 -123.5q-273 0 -490 124t-343 359t-126 569q0 335 126 570t343 358.5t490 123.5q271 0 488.5 -123.5t344 -358.5t126.5 -570zM1621 1024q0 217 -64.5 366t-181.5 226t-274 77t-274 -77t-181.5 -226t-64.5 -366
t64.5 -366t181.5 -226t274 -77t274 77t181.5 226t64.5 366z" />
    <glyph glyph-name="uni00D6" unicode="&#xd6;" horiz-adv-x="2202" 
d="M2060 1024q0 -335 -126.5 -570t-344 -358.5t-488.5 -123.5q-273 0 -490 124t-343 359t-126 569q0 335 126 570t343 358.5t490 123.5q271 0 488.5 -123.5t344 -358.5t126.5 -570zM1621 1024q0 217 -64.5 366t-181.5 226t-274 77t-274 -77t-181.5 -226t-64.5 -366
t64.5 -366t181.5 -226t274 -77t274 77t181.5 226t64.5 366zM796 2258q-86 0 -148 60.5t-62 143.5q0 85 62 144t148 59q87 0 147.5 -59t60.5 -144q0 -83 -60.5 -143.5t-147.5 -60.5zM1408 2258q-86 0 -148 60.5t-62 143.5q0 85 62 144t148 59q87 0 147.5 -59t60.5 -144
q0 -83 -60.5 -143.5t-147.5 -60.5z" />
    <glyph glyph-name="uni00D5" unicode="&#xd5;" horiz-adv-x="2202" 
d="M2060 1024q0 -335 -126.5 -570t-344 -358.5t-488.5 -123.5q-273 0 -490 124t-343 359t-126 569q0 335 126 570t343 358.5t490 123.5q271 0 488.5 -123.5t344 -358.5t126.5 -570zM1621 1024q0 217 -64.5 366t-181.5 226t-274 77t-274 -77t-181.5 -226t-64.5 -366
t64.5 -366t181.5 -226t274 -77t274 77t181.5 226t64.5 366zM815 2250l-237 3q0 191 94.5 293t230.5 103q70 0 120.5 -22.5t91 -52.5t77.5 -52.5t80 -22.5q58 1 88.5 43.5t30.5 111.5l233 -7q-2 -189 -96 -291.5t-229 -103.5q-75 0 -125.5 22.5t-88.5 52t-74 52.5t-81 23
q-52 0 -83.5 -41t-31.5 -111z" />
    <glyph glyph-name="uni00D8" unicode="&#xd8;" horiz-adv-x="2202" 
d="M463 -98l-195 132l1467 2108l195 -132zM2060 1024q0 -335 -126.5 -570t-344 -358.5t-488.5 -123.5q-273 0 -490 124t-343 359t-126 569q0 335 126 570t343 358.5t490 123.5q271 0 488.5 -123.5t344 -358.5t126.5 -570zM1621 1024q0 217 -64.5 366t-181.5 226t-274 77
t-274 -77t-181.5 -226t-64.5 -366t64.5 -366t181.5 -226t274 -77t274 77t181.5 226t64.5 366z" />
    <glyph glyph-name="uni01A0" unicode="&#x1a0;" horiz-adv-x="2290" 
d="M1981 2148h274q0 -292 -127 -453t-402 -161v220q146 0 200.5 104t54.5 290zM2060 1024q0 -335 -126.5 -570t-344 -358.5t-488.5 -123.5q-273 0 -490 124t-343 359t-126 569q0 335 126 570t343 358.5t490 123.5q271 0 488.5 -123.5t344 -358.5t126.5 -570zM1621 1024
q0 217 -64.5 366t-181.5 226t-274 77t-274 -77t-181.5 -226t-64.5 -366t64.5 -366t181.5 -226t274 -77t274 77t181.5 226t64.5 366z" />
    <glyph glyph-name="uni00D2" unicode="&#xd2;" horiz-adv-x="2202" 
d="M2060 1024q0 -335 -126.5 -570t-344 -358.5t-488.5 -123.5q-273 0 -490 124t-343 359t-126 569q0 335 126 570t343 358.5t490 123.5q271 0 488.5 -123.5t344 -358.5t126.5 -570zM1621 1024q0 217 -64.5 366t-181.5 226t-274 77t-274 -77t-181.5 -226t-64.5 -366
t64.5 -366t181.5 -226t274 -77t274 77t181.5 226t64.5 366zM953 2246l-305 455h393l213 -455h-301z" />
    <glyph glyph-name="uni00D3" unicode="&#xd3;" horiz-adv-x="2202" 
d="M2060 1024q0 -335 -126.5 -570t-344 -358.5t-488.5 -123.5q-273 0 -490 124t-343 359t-126 569q0 335 126 570t343 358.5t490 123.5q271 0 488.5 -123.5t344 -358.5t126.5 -570zM1621 1024q0 217 -64.5 366t-181.5 226t-274 77t-274 -77t-181.5 -226t-64.5 -366
t64.5 -366t181.5 -226t274 -77t274 77t181.5 226t64.5 366zM948 2246l212 455h394l-305 -455h-301z" />
    <glyph glyph-name="uni00D4" unicode="&#xd4;" horiz-adv-x="2202" 
d="M2060 1024q0 -335 -126.5 -570t-344 -358.5t-488.5 -123.5q-273 0 -490 124t-343 359t-126 569q0 335 126 570t343 358.5t490 123.5q271 0 488.5 -123.5t344 -358.5t126.5 -570zM1621 1024q0 217 -64.5 366t-181.5 226t-274 77t-274 -77t-181.5 -226t-64.5 -366
t64.5 -366t181.5 -226t274 -77t274 77t181.5 226t64.5 366zM900 2231h-363v13l405 440h317l406 -440v-13h-363l-201 244z" />
    <glyph glyph-name="uni014C" unicode="&#x14c;" horiz-adv-x="2202" 
d="M2060 1024q0 -335 -126.5 -570t-344 -358.5t-488.5 -123.5q-273 0 -490 124t-343 359t-126 569q0 335 126 570t343 358.5t490 123.5q271 0 488.5 -123.5t344 -358.5t126.5 -570zM1621 1024q0 217 -64.5 366t-181.5 226t-274 77t-274 -77t-181.5 -226t-64.5 -366
t64.5 -366t181.5 -226t274 -77t274 77t181.5 226t64.5 366zM1588 2560v-231h-974v231h974z" />
    <glyph glyph-name="uni014E" unicode="&#x14e;" horiz-adv-x="2202" 
d="M2060 1024q0 -335 -126.5 -570t-344 -358.5t-488.5 -123.5q-273 0 -490 124t-343 359t-126 569q0 335 126 570t343 358.5t490 123.5q271 0 488.5 -123.5t344 -358.5t126.5 -570zM1621 1024q0 217 -64.5 366t-181.5 226t-274 77t-274 -77t-181.5 -226t-64.5 -366
t64.5 -366t181.5 -226t274 -77t274 77t181.5 226t64.5 366zM1299 2584h297q-1 -182 -134.5 -293t-360.5 -111q-228 0 -361 111t-133 293h295q-1 -69 44.5 -124t154.5 -55q106 0 152 54t46 125z" />
    <glyph glyph-name="uni0150" unicode="&#x150;" horiz-adv-x="2202" 
d="M2060 1024q0 -335 -126.5 -570t-344 -358.5t-488.5 -123.5q-273 0 -490 124t-343 359t-126 569q0 335 126 570t343 358.5t490 123.5q271 0 488.5 -123.5t344 -358.5t126.5 -570zM1621 1024q0 217 -64.5 366t-181.5 226t-274 77t-274 -77t-181.5 -226t-64.5 -366
t64.5 -366t181.5 -226t274 -77t274 77t181.5 226t64.5 366zM1176 2226l317 414h360l-376 -414h-301zM663 2226l267 414h358l-327 -414h-298z" />
    <glyph glyph-name="uni01D1" unicode="&#x1d1;" horiz-adv-x="2202" 
d="M2060 1024q0 -335 -126.5 -570t-344 -358.5t-488.5 -123.5q-273 0 -490 124t-343 359t-126 569q0 335 126 570t343 358.5t490 123.5q271 0 488.5 -123.5t344 -358.5t126.5 -570zM1621 1024q0 217 -64.5 366t-181.5 226t-274 77t-274 -77t-181.5 -226t-64.5 -366
t64.5 -366t181.5 -226t274 -77t274 77t181.5 226t64.5 366zM900 2686l201 -244l201 244h363v-14l-406 -440h-317l-405 440v14h363z" />
    <glyph glyph-name="uni01EA" unicode="&#x1ea;" horiz-adv-x="2202" 
d="M2060 1024q0 -335 -126.5 -570t-344 -358.5t-488.5 -123.5q-273 0 -490 124t-343 359t-126 569q0 335 126 570t343 358.5t490 123.5q271 0 488.5 -123.5t344 -358.5t126.5 -570zM1621 1024q0 217 -64.5 366t-181.5 226t-274 77t-274 -77t-181.5 -226t-64.5 -366
t64.5 -366t181.5 -226t274 -77t274 77t181.5 226t64.5 366zM1155 -572q-133 0 -222.5 68.5t-112.5 195.5q-15 82 2.5 165t70 152t140.5 108l317 -115q-94 -44 -154 -95t-59 -123q-1 -48 24 -74t73 -26q33 0 59 8.5t46 15.5l44 -220q-37 -21 -94.5 -40.5t-133.5 -19.5z" />
    <glyph glyph-name="uni01EC" unicode="&#x1ec;" horiz-adv-x="2202" 
d="M2060 1024q0 -335 -126.5 -570t-344 -358.5t-488.5 -123.5q-273 0 -490 124t-343 359t-126 569q0 335 126 570t343 358.5t490 123.5q271 0 488.5 -123.5t344 -358.5t126.5 -570zM1621 1024q0 217 -64.5 366t-181.5 226t-274 77t-274 -77t-181.5 -226t-64.5 -366
t64.5 -366t181.5 -226t274 -77t274 77t181.5 226t64.5 366zM1155 -572q-133 0 -222.5 68.5t-112.5 195.5q-15 82 2.5 165t70 152t140.5 108l317 -115q-94 -44 -154 -95t-59 -123q-1 -48 24 -74t73 -26q33 0 59 8.5t46 15.5l44 -220q-37 -21 -94.5 -40.5t-133.5 -19.5z
M1588 2560v-231h-974v231h974z" />
    <glyph glyph-name="uni020C" unicode="&#x20c;" horiz-adv-x="2202" 
d="M2060 1024q0 -335 -126.5 -570t-344 -358.5t-488.5 -123.5q-273 0 -490 124t-343 359t-126 569q0 335 126 570t343 358.5t490 123.5q271 0 488.5 -123.5t344 -358.5t126.5 -570zM1621 1024q0 217 -64.5 366t-181.5 226t-274 77t-274 -77t-181.5 -226t-64.5 -366
t64.5 -366t181.5 -226t274 -77t274 77t181.5 226t64.5 366zM935 2246l-350 186l-63 269l381 -186zM1424 2246l-310 186l3 269l328 -186z" />
    <glyph glyph-name="uni020E" unicode="&#x20e;" horiz-adv-x="2202" 
d="M2060 1024q0 -335 -126.5 -570t-344 -358.5t-488.5 -123.5q-273 0 -490 124t-343 359t-126 569q0 335 126 570t343 358.5t490 123.5q271 0 488.5 -123.5t344 -358.5t126.5 -570zM1621 1024q0 217 -64.5 366t-181.5 226t-274 77t-274 -77t-181.5 -226t-64.5 -366
t64.5 -366t181.5 -226t274 -77t274 77t181.5 226t64.5 366zM603 2295q-1 182 133 298.5t362 116.5t362 -116.5t134 -298.5h-297q0 70 -46 124t-153 54q-108 0 -153.5 -54.5t-44.5 -123.5h-297z" />
    <glyph glyph-name="uni022A" unicode="&#x22a;" horiz-adv-x="2202" 
d="M2060 1024q0 -335 -126.5 -570t-344 -358.5t-488.5 -123.5q-273 0 -490 124t-343 359t-126 569q0 335 126 570t343 358.5t490 123.5q271 0 488.5 -123.5t344 -358.5t126.5 -570zM1621 1024q0 217 -64.5 366t-181.5 226t-274 77t-274 -77t-181.5 -226t-64.5 -366
t64.5 -366t181.5 -226t274 -77t274 77t181.5 226t64.5 366zM797 2258q-86 0 -148 60.5t-62 143.5q0 85 62 144t148 59q87 0 147.5 -59t60.5 -144q0 -83 -60.5 -143.5t-147.5 -60.5zM1409 2258q-86 0 -148 60.5t-62 143.5q0 85 62 144t148 59q87 0 147.5 -59t60.5 -144
q0 -83 -60.5 -143.5t-147.5 -60.5zM1588 3072v-231h-974v231h974z" />
    <glyph glyph-name="uni022C" unicode="&#x22c;" horiz-adv-x="2202" 
d="M2060 1024q0 -335 -126.5 -570t-344 -358.5t-488.5 -123.5q-273 0 -490 124t-343 359t-126 569q0 335 126 570t343 358.5t490 123.5q271 0 488.5 -123.5t344 -358.5t126.5 -570zM1621 1024q0 217 -64.5 366t-181.5 226t-274 77t-274 -77t-181.5 -226t-64.5 -366
t64.5 -366t181.5 -226t274 -77t274 77t181.5 226t64.5 366zM1344 2571l175 -49q-1 -98 -67 -173.5t-168 -75.5q-75 0 -126.5 23t-98 46t-107.5 23q-39 0 -65.5 -35.5t-26.5 -83.5l-172 48q-1 98 62.5 175t165.5 77q62 0 115.5 -23t106 -45.5t110.5 -22.5q38 0 66.5 33.5
t29.5 82.5zM1590 2938v-234h-978v234h978z" />
    <glyph glyph-name="uni022E" unicode="&#x22e;" horiz-adv-x="2202" 
d="M2060 1024q0 -335 -126.5 -570t-344 -358.5t-488.5 -123.5q-273 0 -490 124t-343 359t-126 569q0 335 126 570t343 358.5t490 123.5q271 0 488.5 -123.5t344 -358.5t126.5 -570zM1621 1024q0 217 -64.5 366t-181.5 226t-274 77t-274 -77t-181.5 -226t-64.5 -366
t64.5 -366t181.5 -226t274 -77t274 77t181.5 226t64.5 366zM1101 2246q-95 0 -163 63.5t-68 152.5q0 88 68 151.5t162 63.5q96 0 163.5 -63.5t67.5 -151.5q0 -89 -67.5 -152.5t-162.5 -63.5z" />
    <glyph glyph-name="uni0230" unicode="&#x230;" horiz-adv-x="2202" 
d="M2060 1024q0 -335 -126.5 -570t-344 -358.5t-488.5 -123.5q-273 0 -490 124t-343 359t-126 569q0 335 126 570t343 358.5t490 123.5q271 0 488.5 -123.5t344 -358.5t126.5 -570zM1621 1024q0 217 -64.5 366t-181.5 226t-274 77t-274 -77t-181.5 -226t-64.5 -366
t64.5 -366t181.5 -226t274 -77t274 77t181.5 226t64.5 366zM1102 2480q-95 0 -163 63.5t-68 152.5q0 88 68 151.5t162 63.5q96 0 163.5 -63.5t67.5 -151.5q0 -89 -67.5 -152.5t-162.5 -63.5zM1609 3272v-231h-974v231h974z" />
    <glyph glyph-name="uni1E4C" unicode="&#x1e4c;" horiz-adv-x="2202" 
d="M2060 1024q0 -335 -126.5 -570t-344 -358.5t-488.5 -123.5q-273 0 -490 124t-343 359t-126 569q0 335 126 570t343 358.5t490 123.5q271 0 488.5 -123.5t344 -358.5t126.5 -570zM1621 1024q0 217 -64.5 366t-181.5 226t-274 77t-274 -77t-181.5 -226t-64.5 -366
t64.5 -366t181.5 -226t274 -77t274 77t181.5 226t64.5 366zM916 2696l276 353h382l-352 -353h-306zM825 2221l-226 3q0 176 90.5 271t221.5 95q67 1 115 -20t87 -48.5t75 -48.5t77 -21q56 0 85 40t30 104l222 -7q-1 -175 -91 -270t-220 -95q-72 -1 -120.5 20t-84.5 48.5
t-70.5 48.5t-79.5 21q-50 0 -80.5 -38.5t-30.5 -102.5z" />
    <glyph glyph-name="uni1E4E" unicode="&#x1e4e;" horiz-adv-x="2202" 
d="M2060 1024q0 -335 -126.5 -570t-344 -358.5t-488.5 -123.5q-273 0 -490 124t-343 359t-126 569q0 335 126 570t343 358.5t490 123.5q271 0 488.5 -123.5t344 -358.5t126.5 -570zM1621 1024q0 217 -64.5 366t-181.5 226t-274 77t-274 -77t-181.5 -226t-64.5 -366
t64.5 -366t181.5 -226t274 -77t274 77t181.5 226t64.5 366zM1341 2547l175 -49q0 -100 -66 -174.5t-166 -74.5q-75 0 -127 23t-98.5 46t-106.5 23q-39 0 -65.5 -35t-26.5 -84l-172 48q-1 98 62 175t166 77q61 0 114.5 -23t106.5 -45.5t111 -22.5q38 0 65.5 34t27.5 82z
M602 2793q-1 68 51.5 116t138.5 48t140.5 -47.5t55.5 -116.5q-1 -69 -54.5 -114.5t-141.5 -45.5q-85 0 -138 45.5t-52 114.5zM1212 2792q0 69 53 117t141 48q85 0 138 -48t54 -116q-1 -69 -53.5 -115.5t-138.5 -46.5q-88 0 -141 46t-53 115z" />
    <glyph glyph-name="uni1E50" unicode="&#x1e50;" horiz-adv-x="2202" 
d="M2060 1024q0 -335 -126.5 -570t-344 -358.5t-488.5 -123.5q-273 0 -490 124t-343 359t-126 569q0 335 126 570t343 358.5t490 123.5q271 0 488.5 -123.5t344 -358.5t126.5 -570zM1621 1024q0 217 -64.5 366t-181.5 226t-274 77t-274 -77t-181.5 -226t-64.5 -366
t64.5 -366t181.5 -226t274 -77t274 77t181.5 226t64.5 366zM959 2683l-343 353h385l279 -353h-321zM1588 2514v-232h-974v232h974z" />
    <glyph glyph-name="uni1E52" unicode="&#x1e52;" horiz-adv-x="2202" 
d="M2060 1024q0 -335 -126.5 -570t-344 -358.5t-488.5 -123.5q-273 0 -490 124t-343 359t-126 569q0 335 126 570t343 358.5t490 123.5q271 0 488.5 -123.5t344 -358.5t126.5 -570zM1621 1024q0 217 -64.5 366t-181.5 226t-274 77t-274 -77t-181.5 -226t-64.5 -366
t64.5 -366t181.5 -226t274 -77t274 77t181.5 226t64.5 366zM923 2683l279 353h385l-344 -353h-320zM1588 2514v-232h-974v232h974z" />
    <glyph glyph-name="uni1ECC" unicode="&#x1ecc;" horiz-adv-x="2202" 
d="M2060 1024q0 -335 -126.5 -570t-344 -358.5t-488.5 -123.5q-273 0 -490 124t-343 359t-126 569q0 335 126 570t343 358.5t490 123.5q271 0 488.5 -123.5t344 -358.5t126.5 -570zM1621 1024q0 217 -64.5 366t-181.5 226t-274 77t-274 -77t-181.5 -226t-64.5 -366
t64.5 -366t181.5 -226t274 -77t274 77t181.5 226t64.5 366zM1101 -576q-95 0 -163 63.5t-68 152.5q0 88 68 151.5t162 63.5q96 0 163.5 -63.5t67.5 -151.5q0 -89 -67.5 -152.5t-162.5 -63.5z" />
    <glyph glyph-name="uni1ECE" unicode="&#x1ece;" horiz-adv-x="2202" 
d="M2060 1024q0 -335 -126.5 -570t-344 -358.5t-488.5 -123.5q-273 0 -490 124t-343 359t-126 569q0 335 126 570t343 358.5t490 123.5q271 0 488.5 -123.5t344 -358.5t126.5 -570zM1621 1024q0 217 -64.5 366t-181.5 226t-274 77t-274 -77t-181.5 -226t-64.5 -366
t64.5 -366t181.5 -226t274 -77t274 77t181.5 226t64.5 366zM1258 2268h-316l-22 180q106 5 151 28.5t44 62.5q1 54 -56.5 73t-143.5 19l11 193q267 0 406.5 -72t138.5 -200q1 -91 -65.5 -137.5t-147.5 -58.5v-88z" />
    <glyph glyph-name="uni1ED0" unicode="&#x1ed0;" horiz-adv-x="2202" 
d="M2060 1024q0 -335 -126.5 -570t-344 -358.5t-488.5 -123.5q-273 0 -490 124t-343 359t-126 569q0 335 126 570t343 358.5t490 123.5q271 0 488.5 -123.5t344 -358.5t126.5 -570zM1621 1024q0 217 -64.5 366t-181.5 226t-274 77t-274 -77t-181.5 -226t-64.5 -366
t64.5 -366t181.5 -226t274 -77t274 77t181.5 226t64.5 366zM580 2216l403 311h230l405 -311h-307l-211 168l-214 -168h-306zM1513 2392l234 375h330l-323 -375h-241z" />
    <glyph glyph-name="uni1ED2" unicode="&#x1ed2;" horiz-adv-x="2202" 
d="M2060 1024q0 -335 -126.5 -570t-344 -358.5t-488.5 -123.5q-273 0 -490 124t-343 359t-126 569q0 335 126 570t343 358.5t490 123.5q271 0 488.5 -123.5t344 -358.5t126.5 -570zM1621 1024q0 217 -64.5 366t-181.5 226t-274 77t-274 -77t-181.5 -226t-64.5 -366
t64.5 -366t181.5 -226t274 -77t274 77t181.5 226t64.5 366zM1213 2521l406 -311h-307l-212 168l-213 -168h-305l402 311h229zM451 2760l235 -374h-238l-324 374h327z" />
    <glyph glyph-name="uni1ED4" unicode="&#x1ed4;" horiz-adv-x="2202" 
d="M2060 1024q0 -335 -126.5 -570t-344 -358.5t-488.5 -123.5q-273 0 -490 124t-343 359t-126 569q0 335 126 570t343 358.5t490 123.5q271 0 488.5 -123.5t344 -358.5t126.5 -570zM1621 1024q0 217 -64.5 366t-181.5 226t-274 77t-274 -77t-181.5 -226t-64.5 -366
t64.5 -366t181.5 -226t274 -77t274 77t181.5 226t64.5 366zM1220 2516l394 -311h-293l-222 175l-225 -175h-293l394 311h245zM1705 2380h-221l-19 150q86 4 125 22t39 53q0 46 -49 62t-122 16l10 161q203 0 310 -59.5t107 -167.5q0 -75 -56.5 -114.5t-123.5 -50.5v-72z" />
    <glyph glyph-name="uni1ED6" unicode="&#x1ed6;" horiz-adv-x="2202" 
d="M2060 1024q0 -335 -126.5 -570t-344 -358.5t-488.5 -123.5q-273 0 -490 124t-343 359t-126 569q0 335 126 570t343 358.5t490 123.5q271 0 488.5 -123.5t344 -358.5t126.5 -570zM1621 1024q0 217 -64.5 366t-181.5 226t-274 77t-274 -77t-181.5 -226t-64.5 -366
t64.5 -366t181.5 -226t274 -77t274 77t181.5 226t64.5 366zM1215 2508l403 -307h-294l-225 168l-220 -168h-298l406 307h228zM1319 2848l148 -51q-1 -81 -52.5 -148.5t-137.5 -67.5q-47 0 -86.5 13t-74 31t-68 31t-71.5 13q-34 0 -53.5 -28.5t-19.5 -66.5l-144 40
q0 78 50.5 145.5t137.5 67.5q39 0 76.5 -13t75.5 -29.5t75 -29.5t73 -13q31 0 50.5 34t20.5 72z" />
    <glyph glyph-name="uni1ED8" unicode="&#x1ed8;" horiz-adv-x="2202" 
d="M2060 1024q0 -335 -126.5 -570t-344 -358.5t-488.5 -123.5q-273 0 -490 124t-343 359t-126 569q0 335 126 570t343 358.5t490 123.5q271 0 488.5 -123.5t344 -358.5t126.5 -570zM1621 1024q0 217 -64.5 366t-181.5 226t-274 77t-274 -77t-181.5 -226t-64.5 -366
t64.5 -366t181.5 -226t274 -77t274 77t181.5 226t64.5 366zM900 2231h-363v13l405 440h317l406 -440v-13h-363l-201 244zM1101 -576q-95 0 -163 63.5t-68 152.5q0 88 68 151.5t162 63.5q96 0 163.5 -63.5t67.5 -151.5q0 -89 -67.5 -152.5t-162.5 -63.5z" />
    <glyph glyph-name="uni1EDA" unicode="&#x1eda;" horiz-adv-x="2290" 
d="M1981 2148h274q0 -292 -127 -453t-402 -161v220q146 0 200.5 104t54.5 290zM2060 1024q0 -335 -126.5 -570t-344 -358.5t-488.5 -123.5q-273 0 -490 124t-343 359t-126 569q0 335 126 570t343 358.5t490 123.5q271 0 488.5 -123.5t344 -358.5t126.5 -570zM1621 1024
q0 217 -64.5 366t-181.5 226t-274 77t-274 -77t-181.5 -226t-64.5 -366t64.5 -366t181.5 -226t274 -77t274 77t181.5 226t64.5 366zM948 2246l212 455h394l-305 -455h-301z" />
    <glyph glyph-name="uni1EDC" unicode="&#x1edc;" horiz-adv-x="2290" 
d="M1981 2148h274q0 -292 -127 -453t-402 -161v220q146 0 200.5 104t54.5 290zM2060 1024q0 -335 -126.5 -570t-344 -358.5t-488.5 -123.5q-273 0 -490 124t-343 359t-126 569q0 335 126 570t343 358.5t490 123.5q271 0 488.5 -123.5t344 -358.5t126.5 -570zM1621 1024
q0 217 -64.5 366t-181.5 226t-274 77t-274 -77t-181.5 -226t-64.5 -366t64.5 -366t181.5 -226t274 -77t274 77t181.5 226t64.5 366zM953 2246l-305 455h393l213 -455h-301z" />
    <glyph glyph-name="uni1EDE" unicode="&#x1ede;" horiz-adv-x="2290" 
d="M1981 2148h274q0 -292 -127 -453t-402 -161v220q146 0 200.5 104t54.5 290zM2060 1024q0 -335 -126.5 -570t-344 -358.5t-488.5 -123.5q-273 0 -490 124t-343 359t-126 569q0 335 126 570t343 358.5t490 123.5q271 0 488.5 -123.5t344 -358.5t126.5 -570zM1621 1024
q0 217 -64.5 366t-181.5 226t-274 77t-274 -77t-181.5 -226t-64.5 -366t64.5 -366t181.5 -226t274 -77t274 77t181.5 226t64.5 366zM1258 2268h-316l-22 180q106 5 151 28.5t44 62.5q1 54 -56.5 73t-143.5 19l11 193q267 0 406.5 -72t138.5 -200q1 -91 -65.5 -137.5
t-147.5 -58.5v-88z" />
    <glyph glyph-name="uni1EE0" unicode="&#x1ee0;" horiz-adv-x="2290" 
d="M1981 2148h274q0 -292 -127 -453t-402 -161v220q146 0 200.5 104t54.5 290zM2060 1024q0 -335 -126.5 -570t-344 -358.5t-488.5 -123.5q-273 0 -490 124t-343 359t-126 569q0 335 126 570t343 358.5t490 123.5q271 0 488.5 -123.5t344 -358.5t126.5 -570zM1621 1024
q0 217 -64.5 366t-181.5 226t-274 77t-274 -77t-181.5 -226t-64.5 -366t64.5 -366t181.5 -226t274 -77t274 77t181.5 226t64.5 366zM815 2237l-237 3q0 191 94.5 293t230.5 103q70 0 120.5 -22.5t91 -52.5t77.5 -52.5t80 -22.5q58 1 88.5 43.5t30.5 111.5l233 -7
q-2 -189 -96 -291.5t-229 -103.5q-75 0 -125.5 22.5t-88.5 52t-74 52.5t-81 23q-52 0 -83.5 -41t-31.5 -111z" />
    <glyph glyph-name="uni1EE2" unicode="&#x1ee2;" horiz-adv-x="2290" 
d="M1981 2148h274q0 -292 -127 -453t-402 -161v220q146 0 200.5 104t54.5 290zM2060 1024q0 -335 -126.5 -570t-344 -358.5t-488.5 -123.5q-273 0 -490 124t-343 359t-126 569q0 335 126 570t343 358.5t490 123.5q271 0 488.5 -123.5t344 -358.5t126.5 -570zM1621 1024
q0 217 -64.5 366t-181.5 226t-274 77t-274 -77t-181.5 -226t-64.5 -366t64.5 -366t181.5 -226t274 -77t274 77t181.5 226t64.5 366zM1101 -576q-95 0 -163 63.5t-68 152.5q0 88 68 151.5t162 63.5q96 0 163.5 -63.5t67.5 -151.5q0 -89 -67.5 -152.5t-162.5 -63.5z" />
    <glyph glyph-name="uni01FE" unicode="&#x1fe;" horiz-adv-x="2202" 
d="M463 -98l-195 132l1467 2108l195 -132zM2060 1024q0 -335 -126.5 -570t-344 -358.5t-488.5 -123.5q-273 0 -490 124t-343 359t-126 569q0 335 126 570t343 358.5t490 123.5q271 0 488.5 -123.5t344 -358.5t126.5 -570zM1621 1024q0 217 -64.5 366t-181.5 226t-274 77
t-274 -77t-181.5 -226t-64.5 -366t64.5 -366t181.5 -226t274 -77t274 77t181.5 226t64.5 366zM948 2246l212 455h394l-305 -455h-301z" />
    <glyph glyph-name="uni039F" unicode="&#x39f;" horiz-adv-x="2202" 
d="M2060 1024q0 -335 -126.5 -570t-344 -358.5t-488.5 -123.5q-273 0 -490 124t-343 359t-126 569q0 335 126 570t343 358.5t490 123.5q271 0 488.5 -123.5t344 -358.5t126.5 -570zM1621 1024q0 217 -64.5 366t-181.5 226t-274 77t-274 -77t-181.5 -226t-64.5 -366
t64.5 -366t181.5 -226t274 -77t274 77t181.5 226t64.5 366z" />
    <glyph glyph-name="uni038C" unicode="&#x38c;" horiz-adv-x="2265" 
d="M2193 1024q0 -335 -126.5 -570t-344 -358.5t-488.5 -123.5q-273 0 -490 124t-343 359t-126 569q0 335 126 570t343 358.5t490 123.5q271 0 488.5 -123.5t344 -358.5t126.5 -570zM1754 1024q0 217 -64.5 366t-181.5 226t-274 77t-274 -77t-181.5 -226t-64.5 -366
t64.5 -366t181.5 -226t274 -77t274 77t181.5 226t64.5 366zM-31 1720l107 475h381l-237 -475h-251z" />
    <glyph glyph-name="uni1F48" unicode="&#x1f48;" horiz-adv-x="2303" 
d="M2231 1024q0 -335 -126.5 -570t-344 -358.5t-488.5 -123.5q-273 0 -490 124t-343 359t-126 569q0 335 126 570t343 358.5t490 123.5q271 0 488.5 -123.5t344 -358.5t126.5 -570zM1792 1024q0 217 -64.5 366t-181.5 226t-274 77t-274 -77t-181.5 -226t-64.5 -366
t64.5 -366t181.5 -226t274 -77t274 77t181.5 226t64.5 366zM323 2048v-131q0 -86 -30.5 -157t-83 -123.5t-119.5 -84.5l-118 125q42 29 66 66t34 82.5t10 99.5v123h241z" />
    <glyph glyph-name="uni1F49" unicode="&#x1f49;" horiz-adv-x="2397" 
d="M2325 1024q0 -335 -126.5 -570t-344 -358.5t-488.5 -123.5q-273 0 -490 124t-343 359t-126 569q0 335 126 570t343 358.5t490 123.5q271 0 488.5 -123.5t344 -358.5t126.5 -570zM1886 1024q0 217 -64.5 366t-181.5 226t-274 77t-274 -77t-181.5 -226t-64.5 -366
t64.5 -366t181.5 -226t274 -77t274 77t181.5 226t64.5 366zM112 1917v131h244v-123q0 -48 9 -93.5t32.5 -85t65.5 -69.5l-118 -125q-99 48 -165 142t-68 223z" />
    <glyph glyph-name="uni1F4A" unicode="&#x1f4a;" horiz-adv-x="2805" 
d="M2733 1024q0 -335 -126.5 -570t-344 -358.5t-488.5 -123.5q-273 0 -490 124t-343 359t-126 569q0 335 126 570t343 358.5t490 123.5q271 0 488.5 -123.5t344 -358.5t126.5 -570zM2294 1024q0 217 -64.5 366t-181.5 226t-274 77t-274 -77t-181.5 -226t-64.5 -366
t64.5 -366t181.5 -226t274 -77t274 77t181.5 226t64.5 366zM874 1604v-20h-133l-326 436v28h298zM351 2048v-112q1 -80 -30 -151t-89.5 -130t-141.5 -103l-111 84q57 63 86 137t29 171v104h257z" />
    <glyph glyph-name="uni1F4B" unicode="&#x1f4b;" horiz-adv-x="2706" 
d="M2634 1024q0 -335 -126.5 -570t-344 -358.5t-488.5 -123.5q-273 0 -490 124t-343 359t-126 569q0 335 126 570t343 358.5t490 123.5q271 0 488.5 -123.5t344 -358.5t126.5 -570zM2195 1024q0 217 -64.5 366t-181.5 226t-274 77t-274 -77t-181.5 -226t-64.5 -366
t64.5 -366t181.5 -226t274 -77t274 77t181.5 226t64.5 366zM774 1614v-32h-133l-326 438v28h302zM-41 1917v131h245v-123q0 -72 20.5 -137.5t89.5 -110.5l-118 -125q-104 48 -171 142t-66 223z" />
    <glyph glyph-name="uni1F4C" unicode="&#x1f4c;" horiz-adv-x="2604" 
d="M2532 1024q0 -335 -126.5 -570t-344 -358.5t-488.5 -123.5q-273 0 -490 124t-343 359t-126 569q0 335 126 570t343 358.5t490 123.5q271 0 488.5 -123.5t344 -358.5t126.5 -570zM2093 1024q0 217 -64.5 366t-181.5 226t-274 77t-274 -77t-181.5 -226t-64.5 -366
t64.5 -366t181.5 -226t274 -77t274 77t181.5 226t64.5 366zM381 1582v32l160 434h298v-28l-326 -438h-132zM339 2048v-131q-1 -85 -31.5 -155.5t-84 -124t-122.5 -85.5l-117 125q66 45 87.5 110.5t21.5 137.5v123h246z" />
    <glyph glyph-name="uni1F4D" unicode="&#x1f4d;" horiz-adv-x="2636" 
d="M2564 1024q0 -335 -126.5 -570t-344 -358.5t-488.5 -123.5q-273 0 -490 124t-343 359t-126 569q0 335 126 570t343 358.5t490 123.5q271 0 488.5 -123.5t344 -358.5t126.5 -570zM2125 1024q0 217 -64.5 366t-181.5 226t-274 77t-274 -77t-181.5 -226t-64.5 -366
t64.5 -366t181.5 -226t274 -77t274 77t181.5 226t64.5 366zM411 1582v32l154 434h302v-28l-328 -438h-128zM-18 1917v131h243v-123q1 -81 24 -143t83 -105l-117 -125q-96 46 -164.5 139t-68.5 226z" />
    <glyph glyph-name="uni1FF8" unicode="&#x1ff8;" horiz-adv-x="2377" 
d="M2305 1024q0 -335 -126.5 -570t-344 -358.5t-488.5 -123.5q-273 0 -490 124t-343 359t-126 569q0 335 126 570t343 358.5t490 123.5q271 0 488.5 -123.5t344 -358.5t126.5 -570zM1866 1024q0 217 -64.5 366t-181.5 226t-274 77t-274 -77t-181.5 -226t-64.5 -366
t64.5 -366t181.5 -226t274 -77t274 77t181.5 226t64.5 366zM433 1580h-128l-326 440v28h298l156 -430v-38z" />
    <glyph glyph-name="uni03F4" unicode="&#x3f4;" horiz-adv-x="2202" 
d="M1663 1170v-288q-129 -53 -227.5 -63t-179 6.5t-155.5 42t-156 45t-179.5 16.5t-227.5 -47v288q129 52 227.5 61t179.5 -7.5t156 -42t155.5 -45t179 -15.5t227.5 49zM2060 1024q0 -335 -126.5 -570t-344 -358.5t-488.5 -123.5q-273 0 -490 124t-343 359t-126 569
q0 335 126 570t343 358.5t490 123.5q271 0 488.5 -123.5t344 -358.5t126.5 -570zM1621 1024q0 217 -64.5 366t-181.5 226t-274 77t-274 -77t-181.5 -226t-64.5 -366t64.5 -366t181.5 -226t274 -77t274 77t181.5 226t64.5 366z" />
    <glyph glyph-name="uni1FF9" unicode="&#x1ff9;" horiz-adv-x="2198" 
d="M2126 1024q0 -335 -126.5 -570t-344 -358.5t-488.5 -123.5q-273 0 -490 124t-343 359t-126 569q0 335 126 570t343 358.5t490 123.5q271 0 488.5 -123.5t344 -358.5t126.5 -570zM1687 1024q0 217 -64.5 366t-181.5 226t-274 77t-274 -77t-181.5 -226t-64.5 -366
t64.5 -366t181.5 -226t274 -77t274 77t181.5 226t64.5 366zM68 1728v38l156 430h381v-28l-325 -440h-212z" />
    <glyph glyph-name="uni041E" unicode="&#x41e;" horiz-adv-x="2202" 
d="M2060 1024q0 -335 -126.5 -570t-344 -358.5t-488.5 -123.5q-273 0 -490 124t-343 359t-126 569q0 335 126 570t343 358.5t490 123.5q271 0 488.5 -123.5t344 -358.5t126.5 -570zM1621 1024q0 217 -64.5 366t-181.5 226t-274 77t-274 -77t-181.5 -226t-64.5 -366
t64.5 -366t181.5 -226t274 -77t274 77t181.5 226t64.5 366z" />
    <glyph glyph-name="uni04E6" unicode="&#x4e6;" horiz-adv-x="2202" 
d="M2060 1024q0 -335 -126.5 -570t-344 -358.5t-488.5 -123.5q-273 0 -490 124t-343 359t-126 569q0 335 126 570t343 358.5t490 123.5q271 0 488.5 -123.5t344 -358.5t126.5 -570zM1621 1024q0 217 -64.5 366t-181.5 226t-274 77t-274 -77t-181.5 -226t-64.5 -366
t64.5 -366t181.5 -226t274 -77t274 77t181.5 226t64.5 366zM796 2258q-86 0 -148 60.5t-62 143.5q0 85 62 144t148 59q87 0 147.5 -59t60.5 -144q0 -83 -60.5 -143.5t-147.5 -60.5zM1408 2258q-86 0 -148 60.5t-62 143.5q0 85 62 144t148 59q87 0 147.5 -59t60.5 -144
q0 -83 -60.5 -143.5t-147.5 -60.5z" />
    <glyph glyph-name="uni019F" unicode="&#x19f;" horiz-adv-x="2202" 
d="M1663 1170v-288q-129 -53 -227.5 -63t-179 6.5t-155.5 42t-156 45t-179.5 16.5t-227.5 -47v288q129 52 227.5 61t179.5 -7.5t156 -42t155.5 -45t179 -15.5t227.5 49zM2060 1024q0 -335 -126.5 -570t-344 -358.5t-488.5 -123.5q-273 0 -490 124t-343 359t-126 569
q0 335 126 570t343 358.5t490 123.5q271 0 488.5 -123.5t344 -358.5t126.5 -570zM1621 1024q0 217 -64.5 366t-181.5 226t-274 77t-274 -77t-181.5 -226t-64.5 -366t64.5 -366t181.5 -226t274 -77t274 77t181.5 226t64.5 366z" />
    <glyph glyph-name="uni04E8" unicode="&#x4e8;" horiz-adv-x="2202" 
d="M1663 1170v-288q-129 -53 -227.5 -63t-179 6.5t-155.5 42t-156 45t-179.5 16.5t-227.5 -47v288q129 52 227.5 61t179.5 -7.5t156 -42t155.5 -45t179 -15.5t227.5 49zM2060 1024q0 -335 -126.5 -570t-344 -358.5t-488.5 -123.5q-273 0 -490 124t-343 359t-126 569
q0 335 126 570t343 358.5t490 123.5q271 0 488.5 -123.5t344 -358.5t126.5 -570zM1621 1024q0 217 -64.5 366t-181.5 226t-274 77t-274 -77t-181.5 -226t-64.5 -366t64.5 -366t181.5 -226t274 -77t274 77t181.5 226t64.5 366z" />
    <glyph glyph-name="uni04EA" unicode="&#x4ea;" horiz-adv-x="2202" 
d="M1663 1170v-288q-129 -53 -227.5 -63t-179 6.5t-155.5 42t-156 45t-179.5 16.5t-227.5 -47v288q129 52 227.5 61t179.5 -7.5t156 -42t155.5 -45t179 -15.5t227.5 49zM2060 1024q0 -335 -126.5 -570t-344 -358.5t-488.5 -123.5q-273 0 -490 124t-343 359t-126 569
q0 335 126 570t343 358.5t490 123.5q271 0 488.5 -123.5t344 -358.5t126.5 -570zM1621 1024q0 217 -64.5 366t-181.5 226t-274 77t-274 -77t-181.5 -226t-64.5 -366t64.5 -366t181.5 -226t274 -77t274 77t181.5 226t64.5 366zM796 2258q-86 0 -148 60.5t-62 143.5
q0 85 62 144t148 59q87 0 147.5 -59t60.5 -144q0 -83 -60.5 -143.5t-147.5 -60.5zM1408 2258q-86 0 -148 60.5t-62 143.5q0 85 62 144t148 59q87 0 147.5 -59t60.5 -144q0 -83 -60.5 -143.5t-147.5 -60.5z" />
    <glyph glyph-name="uni0152" unicode="&#x152;" horiz-adv-x="2866" 
d="M1072 0q-266 0 -477 117.5t-332 345t-121 559.5q0 333 121 562t332 346.5t477 117.5h1628v-357h-947v-488h876v-357h-876v-489h951v-357h-1632zM1320 357v1334h-248q-145 0 -257 -71t-175.5 -219t-63.5 -379q0 -232 63.5 -379t175.5 -216.5t257 -69.5h248z" />
    <glyph glyph-name="uni0050" unicode="P" horiz-adv-x="1824" 
d="M178 0v2048h808q233 0 397 -88.5t250.5 -245t86.5 -360.5t-88 -360t-254.5 -243t-402.5 -87h-515v347h445q125 0 206.5 43.5t122 121t40.5 178.5q0 102 -40.5 178.5t-122.5 119t-208 42.5h-292v-1694h-433z" />
    <glyph glyph-name="uni1E54" unicode="&#x1e54;" horiz-adv-x="1824" 
d="M178 0v2048h808q233 0 397 -88.5t250.5 -245t86.5 -360.5t-88 -360t-254.5 -243t-402.5 -87h-515v347h445q125 0 206.5 43.5t122 121t40.5 178.5q0 102 -40.5 178.5t-122.5 119t-208 42.5h-292v-1694h-433zM746 2246l212 455h394l-305 -455h-301z" />
    <glyph glyph-name="uni1E56" unicode="&#x1e56;" horiz-adv-x="1824" 
d="M178 0v2048h808q233 0 397 -88.5t250.5 -245t86.5 -360.5t-88 -360t-254.5 -243t-402.5 -87h-515v347h445q125 0 206.5 43.5t122 121t40.5 178.5q0 102 -40.5 178.5t-122.5 119t-208 42.5h-292v-1694h-433zM900 2246q-95 0 -163 63.5t-68 152.5q0 88 68 151.5t162 63.5
q96 0 163.5 -63.5t67.5 -151.5q0 -89 -67.5 -152.5t-162.5 -63.5z" />
    <glyph glyph-name="uni048E" unicode="&#x48e;" horiz-adv-x="1862" 
d="M1045 1345l507 -783l-182 -117l-507 784zM188 0v2048h807q233 0 397 -88.5t251 -245t87 -360.5t-88 -360t-254.5 -243t-402.5 -87h-515v347h444q125 0 207 43.5t122.5 121t40.5 178.5q0 102 -40.5 178.5t-123 119t-207.5 42.5h-292v-1694h-433z" />
    <glyph glyph-name="uni01A4" unicode="&#x1a4;" horiz-adv-x="2403" 
d="M486 1319h-386v201q-1 161 70 279.5t202.5 183.5t313.5 65h879q233 0 397 -88.5t250.5 -245t86.5 -360.5t-88 -360t-254.5 -243t-402.5 -87h-364v-664h-432v1694h-71q-83 0 -127 -38.5t-59.5 -97t-14.5 -120.5v-119zM1190 1011h294q125 0 206.5 43.5t122.5 121t41 178.5
q0 102 -41 178.5t-123 119t-208 42.5h-292v-683z" />
    <glyph glyph-name="uni03A1" unicode="&#x3a1;" horiz-adv-x="1824" 
d="M178 0v2048h808q233 0 397 -88.5t250.5 -245t86.5 -360.5t-88 -360t-254.5 -243t-402.5 -87h-515v347h445q125 0 206.5 43.5t122 121t40.5 178.5q0 102 -40.5 178.5t-122.5 119t-208 42.5h-292v-1694h-433z" />
    <glyph glyph-name="uni1FEC" unicode="&#x1fec;" horiz-adv-x="2258" 
d="M580 0v2048h808q233 0 397 -88.5t250.5 -245t86.5 -360.5t-88 -360t-254.5 -243t-402.5 -87h-515v347h445q125 0 206.5 43.5t122 121t40.5 178.5q0 102 -40.5 178.5t-122.5 119t-208 42.5h-292v-1694h-433zM141 1917v131h244v-123q0 -48 9 -93.5t32.5 -85t65.5 -69.5
l-118 -125q-99 48 -165 142t-68 223z" />
    <glyph glyph-name="uni0051" unicode="Q" horiz-adv-x="2204" 
d="M951 712h368l185 -238l182 -212l343 -430h-404l-236 290l-121 172zM2060 1024q0 -335 -126.5 -570t-344 -358.5t-488.5 -123.5q-273 0 -490 124t-343 359t-126 569q0 335 126 570t343 358.5t490 123.5q271 0 488.5 -123.5t344 -358.5t126.5 -570zM1621 1024
q0 217 -64.5 366t-181.5 226t-274 77t-274 -77t-181.5 -226t-64.5 -366t64.5 -366t181.5 -226t274 -77t274 77t181.5 226t64.5 366z" />
    </font>
</defs>
</svg>
