<?xml version="1.0" standalone="no"?>
<!DOCTYPE svg PUBLIC "-//W3C//DTD SVG 1.1//EN" "http://www.w3.org/Graphics/SVG/1.1/DTD/svg11.dtd" >
<svg xmlns="http://www.w3.org/2000/svg" xmlns:xlink="http://www.w3.org/1999/xlink" version="1.1">
<metadata>
Created by FontForge 20190801 at Thu Jan 23 23:42:53 2020
 By Jimmy Wärting
Copyright 2020 The Inter Project Authors (https://github.com/rsms/inter)
</metadata>
<defs>
<font id="Inter-Black" horiz-adv-x="0" >
  <font-face 
    font-family="Inter Black"
    font-weight="900"
    font-stretch="normal"
    units-per-em="2816"
    panose-1="2 11 5 2 3 0 0 0 0 4"
    ascent="2252"
    descent="-564"
    x-height="1536"
    cap-height="2048"
    bbox="-2432.01 -928 7274 3480"
    underline-thickness="192"
    underline-position="-560"
    unicode-range="U+0020-1F852"
  />
<missing-glyph horiz-adv-x="3060" 
d="M320 -640v512h2420v-512h-2420zM320 1472v512h2420v-512h-2420zM320 2176v512h2420v-512h-2420zM320 64v512h2420v-512h-2420zM320 768v512h2420v-512h-2420z" />
    <glyph glyph-name="uni24B6" unicode="A&#x20dd;" horiz-adv-x="3912" 
d="M1500 0h-600l676 2048h760l676 -2048h-600l-448 1484h-16zM1388 808h1128v-416h-1128v416zM1956 -900q-319 0 -607.5 97t-529 273.5t-417 417t-273.5 529t-97 607.5t97 607.5t273.5 529t417 417t529 273.5t607.5 97t607.5 -97t529 -273.5t417 -417t273.5 -529t97 -607.5
t-97 -607.5t-273.5 -529t-417 -417t-529 -273.5t-607.5 -97zM1956 -580q266 0 506.5 81t441 228t347.5 347.5t228 441t81 506.5t-81 506.5t-228 441t-347.5 347.5t-441 228t-506.5 81t-506.5 -81t-441 -228t-347.5 -347.5t-228 -441t-81 -506.5t81 -506.5t228 -441
t347.5 -347.5t441 -228t506.5 -81z" />
    <glyph glyph-name="uni24B7" unicode="B&#x20dd;" horiz-adv-x="3912" 
d="M1198 0v2048h888q234 0 393.5 -63t241 -178t81.5 -271q0 -113 -49.5 -206t-138.5 -155.5t-208 -86.5v-20q132 -5 240 -66.5t172 -169t64 -252.5q0 -168 -87.5 -299t-248.5 -206t-384 -75h-964zM1754 444h260q140 0 210 52.5t70 155.5q0 72 -33 122t-93.5 76t-145.5 26
h-268v-432zM1754 1220h228q73 0 129 23t87.5 66.5t31.5 106.5q0 95 -68 145.5t-172 50.5h-236v-392zM1956 -900q-319 0 -607.5 97t-529 273.5t-417 417t-273.5 529t-97 607.5t97 607.5t273.5 529t417 417t529 273.5t607.5 97t607.5 -97t529 -273.5t417 -417t273.5 -529
t97 -607.5t-97 -607.5t-273.5 -529t-417 -417t-529 -273.5t-607.5 -97zM1956 -580q266 0 506.5 81t441 228t347.5 347.5t228 441t81 506.5t-81 506.5t-228 441t-347.5 347.5t-441 228t-506.5 81t-506.5 -81t-441 -228t-347.5 -347.5t-228 -441t-81 -506.5t81 -506.5
t228 -441t347.5 -347.5t441 -228t506.5 -81z" />
    <glyph glyph-name="uni24B8" unicode="C&#x20dd;" horiz-adv-x="3912" 
d="M2916 1280h-564q-6 70 -31.5 127t-70 98.5t-107.5 64t-143 22.5q-140 0 -236.5 -68t-146 -195t-49.5 -305q0 -188 50.5 -314.5t146.5 -190t231 -63.5q77 0 138 19.5t106 56.5t73.5 89.5t38.5 118.5l564 -4q-10 -130 -73 -264.5t-178.5 -248t-285.5 -182.5t-395 -69
q-282 0 -505.5 121t-353 356t-129.5 575q0 342 132 576.5t356 355t500 120.5q194 0 357 -53t286 -154.5t198 -249.5t91 -339zM1956 -900q-319 0 -607.5 97t-529 273.5t-417 417t-273.5 529t-97 607.5t97 607.5t273.5 529t417 417t529 273.5t607.5 97t607.5 -97t529 -273.5
t417 -417t273.5 -529t97 -607.5t-97 -607.5t-273.5 -529t-417 -417t-529 -273.5t-607.5 -97zM1956 -580q266 0 506.5 81t441 228t347.5 347.5t228 441t81 506.5t-81 506.5t-228 441t-347.5 347.5t-441 228t-506.5 81t-506.5 -81t-441 -228t-347.5 -347.5t-228 -441
t-81 -506.5t81 -506.5t228 -441t347.5 -347.5t441 -228t506.5 -81z" />
    <glyph glyph-name="uni24B9" unicode="D&#x20dd;" horiz-adv-x="3912" 
d="M2024 0h-788v2048h780q316 0 546.5 -122.5t356 -352t125.5 -549.5t-125 -549.5t-354 -352t-541 -122.5zM1792 472h212q152 0 259.5 49t164 169t56.5 334t-57.5 334t-168 169t-270.5 49h-196v-1104zM1956 -900q-319 0 -607.5 97t-529 273.5t-417 417t-273.5 529t-97 607.5
t97 607.5t273.5 529t417 417t529 273.5t607.5 97t607.5 -97t529 -273.5t417 -417t273.5 -529t97 -607.5t-97 -607.5t-273.5 -529t-417 -417t-529 -273.5t-607.5 -97zM1956 -580q266 0 506.5 81t441 228t347.5 347.5t228 441t81 506.5t-81 506.5t-228 441t-347.5 347.5
t-441 228t-506.5 81t-506.5 -81t-441 -228t-347.5 -347.5t-228 -441t-81 -506.5t81 -506.5t228 -441t347.5 -347.5t441 -228t506.5 -81z" />
    <glyph glyph-name="uni24BA" unicode="E&#x20dd;" horiz-adv-x="3912" 
d="M1218 0v2048h1476v-448h-920v-352h844v-448h-844v-352h916v-448h-1472zM1956 -900q-319 0 -607.5 97t-529 273.5t-417 417t-273.5 529t-97 607.5t97 607.5t273.5 529t417 417t529 273.5t607.5 97t607.5 -97t529 -273.5t417 -417t273.5 -529t97 -607.5t-97 -607.5
t-273.5 -529t-417 -417t-529 -273.5t-607.5 -97zM1956 -580q266 0 506.5 81t441 228t347.5 347.5t228 441t81 506.5t-81 506.5t-228 441t-347.5 347.5t-441 228t-506.5 81t-506.5 -81t-441 -228t-347.5 -347.5t-228 -441t-81 -506.5t81 -506.5t228 -441t347.5 -347.5
t441 -228t506.5 -81z" />
    <glyph glyph-name="uni24BB" unicode="F&#x20dd;" horiz-adv-x="3912" 
d="M1236 0v2048h1440v-448h-884v-352h796v-448h-796v-800h-556zM1956 -900q-319 0 -607.5 97t-529 273.5t-417 417t-273.5 529t-97 607.5t97 607.5t273.5 529t417 417t529 273.5t607.5 97t607.5 -97t529 -273.5t417 -417t273.5 -529t97 -607.5t-97 -607.5t-273.5 -529
t-417 -417t-529 -273.5t-607.5 -97zM1956 -580q266 0 506.5 81t441 228t347.5 347.5t228 441t81 506.5t-81 506.5t-228 441t-347.5 347.5t-441 228t-506.5 81t-506.5 -81t-441 -228t-347.5 -347.5t-228 -441t-81 -506.5t81 -506.5t228 -441t347.5 -347.5t441 -228t506.5 -81
z" />
    <glyph glyph-name="uni24BC" unicode="G&#x20dd;" horiz-adv-x="3912" 
d="M2332 1372q-13 53 -41 93.5t-69.5 69t-96 43t-119.5 14.5q-140 0 -238.5 -67t-150 -193t-51.5 -304q0 -180 49 -308t146 -196t241 -68q127 0 211.5 37t126.5 105t42 160l96 -10h-468v396h908v-284q0 -280 -118.5 -478.5t-326 -304t-475.5 -105.5q-299 0 -525 127
t-352.5 362t-126.5 559q0 254 77.5 450t215.5 331.5t319 205t388 69.5q182 0 338.5 -51.5t277 -146t194.5 -223.5t90 -283h-562zM1956 -900q-319 0 -607.5 97t-529 273.5t-417 417t-273.5 529t-97 607.5t97 607.5t273.5 529t417 417t529 273.5t607.5 97t607.5 -97
t529 -273.5t417 -417t273.5 -529t97 -607.5t-97 -607.5t-273.5 -529t-417 -417t-529 -273.5t-607.5 -97zM1956 -580q266 0 506.5 81t441 228t347.5 347.5t228 441t81 506.5t-81 506.5t-228 441t-347.5 347.5t-441 228t-506.5 81t-506.5 -81t-441 -228t-347.5 -347.5
t-228 -441t-81 -506.5t81 -506.5t228 -441t347.5 -347.5t441 -228t506.5 -81z" />
    <glyph glyph-name="uni24BD" unicode="H&#x20dd;" horiz-adv-x="3912" 
d="M1016 0v2048h556v-800h736v800h556v-2048h-556v800h-736v-800h-556zM1956 -900q-319 0 -607.5 97t-529 273.5t-417 417t-273.5 529t-97 607.5t97 607.5t273.5 529t417 417t529 273.5t607.5 97t607.5 -97t529 -273.5t417 -417t273.5 -529t97 -607.5t-97 -607.5
t-273.5 -529t-417 -417t-529 -273.5t-607.5 -97zM1956 -580q266 0 506.5 81t441 228t347.5 347.5t228 441t81 506.5t-81 506.5t-228 441t-347.5 347.5t-441 228t-506.5 81t-506.5 -81t-441 -228t-347.5 -347.5t-228 -441t-81 -506.5t81 -506.5t228 -441t347.5 -347.5
t441 -228t506.5 -81z" />
    <glyph glyph-name="uni24BE" unicode="I&#x20dd;" horiz-adv-x="3912" 
d="M2234 2048v-2048h-556v2048h556zM1956 -900q-319 0 -607.5 97t-529 273.5t-417 417t-273.5 529t-97 607.5t97 607.5t273.5 529t417 417t529 273.5t607.5 97t607.5 -97t529 -273.5t417 -417t273.5 -529t97 -607.5t-97 -607.5t-273.5 -529t-417 -417t-529 -273.5
t-607.5 -97zM1956 -580q266 0 506.5 81t441 228t347.5 347.5t228 441t81 506.5t-81 506.5t-228 441t-347.5 347.5t-441 228t-506.5 81t-506.5 -81t-441 -228t-347.5 -347.5t-228 -441t-81 -506.5t81 -506.5t228 -441t347.5 -347.5t441 -228t506.5 -81z" />
    <glyph glyph-name="uni24BF" unicode="J&#x20dd;" horiz-adv-x="3912" 
d="M2114 2048h548v-1404q-1 -200 -100.5 -351.5t-274 -236t-401.5 -84.5q-197 0 -360 68.5t-260 216t-96 383.5h556q3 -77 26.5 -130t66 -79.5t103.5 -26.5q62 0 104.5 27t64.5 80.5t23 132.5v1404zM1956 -900q-319 0 -607.5 97t-529 273.5t-417 417t-273.5 529t-97 607.5
t97 607.5t273.5 529t417 417t529 273.5t607.5 97t607.5 -97t529 -273.5t417 -417t273.5 -529t97 -607.5t-97 -607.5t-273.5 -529t-417 -417t-529 -273.5t-607.5 -97zM1956 -580q266 0 506.5 81t441 228t347.5 347.5t228 441t81 506.5t-81 506.5t-228 441t-347.5 347.5
t-441 228t-506.5 81t-506.5 -81t-441 -228t-347.5 -347.5t-228 -441t-81 -506.5t81 -506.5t228 -441t347.5 -347.5t441 -228t506.5 -81z" />
    <glyph glyph-name="uni24C0" unicode="K&#x20dd;" horiz-adv-x="3912" 
d="M1044 0v2048h556v-828h28l616 828h648l-692 -912l708 -1136h-664l-460 768l-184 -240v-528h-556zM1956 -900q-319 0 -607.5 97t-529 273.5t-417 417t-273.5 529t-97 607.5t97 607.5t273.5 529t417 417t529 273.5t607.5 97t607.5 -97t529 -273.5t417 -417t273.5 -529
t97 -607.5t-97 -607.5t-273.5 -529t-417 -417t-529 -273.5t-607.5 -97zM1956 -580q266 0 506.5 81t441 228t347.5 347.5t228 441t81 506.5t-81 506.5t-228 441t-347.5 347.5t-441 228t-506.5 81t-506.5 -81t-441 -228t-347.5 -347.5t-228 -441t-81 -506.5t81 -506.5
t228 -441t347.5 -347.5t441 -228t506.5 -81z" />
    <glyph glyph-name="uni24C1" unicode="L&#x20dd;" horiz-adv-x="3912" 
d="M1304 0v2048h556v-1600h828v-448h-1384zM1956 -900q-319 0 -607.5 97t-529 273.5t-417 417t-273.5 529t-97 607.5t97 607.5t273.5 529t417 417t529 273.5t607.5 97t607.5 -97t529 -273.5t417 -417t273.5 -529t97 -607.5t-97 -607.5t-273.5 -529t-417 -417t-529 -273.5
t-607.5 -97zM1956 -580q266 0 506.5 81t441 228t347.5 347.5t228 441t81 506.5t-81 506.5t-228 441t-347.5 347.5t-441 228t-506.5 81t-506.5 -81t-441 -228t-347.5 -347.5t-228 -441t-81 -506.5t81 -506.5t228 -441t347.5 -347.5t441 -228t506.5 -81z" />
    <glyph glyph-name="uni24C2" unicode="M&#x20dd;" horiz-adv-x="3912" 
d="M776 2048h692l476 -1160h24l476 1160h692v-2048h-544v1184h-16l-456 -1168h-328l-456 1176h-16v-1192h-544v2048zM1956 -900q-319 0 -607.5 97t-529 273.5t-417 417t-273.5 529t-97 607.5t97 607.5t273.5 529t417 417t529 273.5t607.5 97t607.5 -97t529 -273.5t417 -417
t273.5 -529t97 -607.5t-97 -607.5t-273.5 -529t-417 -417t-529 -273.5t-607.5 -97zM1956 -580q266 0 506.5 81t441 228t347.5 347.5t228 441t81 506.5t-81 506.5t-228 441t-347.5 347.5t-441 228t-506.5 81t-506.5 -81t-441 -228t-347.5 -347.5t-228 -441t-81 -506.5
t81 -506.5t228 -441t347.5 -347.5t441 -228t506.5 -81z" />
    <glyph glyph-name="uni24C3" unicode="N&#x20dd;" horiz-adv-x="3912" 
d="M2842 2048v-2048h-464l-740 1076h-12v-1076h-556v2048h472l728 -1072h16v1072h556zM1956 -900q-319 0 -607.5 97t-529 273.5t-417 417t-273.5 529t-97 607.5t97 607.5t273.5 529t417 417t529 273.5t607.5 97t607.5 -97t529 -273.5t417 -417t273.5 -529t97 -607.5
t-97 -607.5t-273.5 -529t-417 -417t-529 -273.5t-607.5 -97zM1956 -580q266 0 506.5 81t441 228t347.5 347.5t228 441t81 506.5t-81 506.5t-228 441t-347.5 347.5t-441 228t-506.5 81t-506.5 -81t-441 -228t-347.5 -347.5t-228 -441t-81 -506.5t81 -506.5t228 -441
t347.5 -347.5t441 -228t506.5 -81z" />
    <glyph glyph-name="uni24C4" unicode="O&#x20dd;" horiz-adv-x="3912" 
d="M2952 1024q0 -342 -133 -576.5t-359 -355t-504 -120.5q-280 0 -505.5 121.5t-358 356t-132.5 574.5q0 342 132.5 576.5t358 355t505.5 120.5q278 0 504 -120.5t359 -355t133 -576.5zM2380 1024q0 184 -48.5 310.5t-143 192t-232.5 65.5t-232.5 -65.5t-143 -192
t-48.5 -310.5t48.5 -310.5t143 -192t232.5 -65.5t232.5 65.5t143 192t48.5 310.5zM1956 -900q-319 0 -607.5 97t-529 273.5t-417 417t-273.5 529t-97 607.5t97 607.5t273.5 529t417 417t529 273.5t607.5 97t607.5 -97t529 -273.5t417 -417t273.5 -529t97 -607.5t-97 -607.5
t-273.5 -529t-417 -417t-529 -273.5t-607.5 -97zM1956 -580q266 0 506.5 81t441 228t347.5 347.5t228 441t81 506.5t-81 506.5t-228 441t-347.5 347.5t-441 228t-506.5 81t-506.5 -81t-441 -228t-347.5 -347.5t-228 -441t-81 -506.5t81 -506.5t228 -441t347.5 -347.5
t441 -228t506.5 -81z" />
    <glyph glyph-name="uni24C5" unicode="P&#x20dd;" horiz-adv-x="3912" 
d="M1214 0v2048h884q228 0 399 -90t266 -253t95 -381q0 -220 -97.5 -381t-273 -248t-409.5 -87h-528v432h416q98 0 167.5 34.5t107 98.5t37.5 151q0 88 -37.5 150.5t-107 96t-167.5 33.5h-196v-1604h-556zM1956 -900q-319 0 -607.5 97t-529 273.5t-417 417t-273.5 529
t-97 607.5t97 607.5t273.5 529t417 417t529 273.5t607.5 97t607.5 -97t529 -273.5t417 -417t273.5 -529t97 -607.5t-97 -607.5t-273.5 -529t-417 -417t-529 -273.5t-607.5 -97zM1956 -580q266 0 506.5 81t441 228t347.5 347.5t228 441t81 506.5t-81 506.5t-228 441
t-347.5 347.5t-441 228t-506.5 81t-506.5 -81t-441 -228t-347.5 -347.5t-228 -441t-81 -506.5t81 -506.5t228 -441t347.5 -347.5t441 -228t506.5 -81z" />
    <glyph glyph-name="uni24C6" unicode="Q&#x20dd;" horiz-adv-x="3912" 
d="M1758 760h432l156 -196l264 -300l344 -416h-492l-244 284l-164 236zM2950 1024q0 -342 -133 -576.5t-359 -355t-504 -120.5q-280 0 -505.5 121.5t-358 356t-132.5 574.5q0 342 132.5 576.5t358 355t505.5 120.5q278 0 504 -120.5t359 -355t133 -576.5zM2378 1024
q0 184 -48.5 310.5t-143 192t-232.5 65.5t-232.5 -65.5t-143 -192t-48.5 -310.5t48.5 -310.5t143 -192t232.5 -65.5t232.5 65.5t143 192t48.5 310.5zM1956 -900q-319 0 -607.5 97t-529 273.5t-417 417t-273.5 529t-97 607.5t97 607.5t273.5 529t417 417t529 273.5t607.5 97
t607.5 -97t529 -273.5t417 -417t273.5 -529t97 -607.5t-97 -607.5t-273.5 -529t-417 -417t-529 -273.5t-607.5 -97zM1956 -580q266 0 506.5 81t441 228t347.5 347.5t228 441t81 506.5t-81 506.5t-228 441t-347.5 347.5t-441 228t-506.5 81t-506.5 -81t-441 -228
t-347.5 -347.5t-228 -441t-81 -506.5t81 -506.5t228 -441t347.5 -347.5t441 -228t506.5 -81z" />
    <glyph glyph-name="uni24C7" unicode="R&#x20dd;" horiz-adv-x="3912" 
d="M1180 0v2048h884q228 0 399 -83t266 -239t95 -374q0 -220 -97.5 -371t-273 -228t-409.5 -77h-528v432h416q98 0 167.5 24.5t107 78.5t37.5 141q0 88 -37.5 143.5t-107 82t-167.5 26.5h-196v-1604h-556zM2380 940l512 -940h-604l-500 940h592zM1956 -900q-319 0 -607.5 97
t-529 273.5t-417 417t-273.5 529t-97 607.5t97 607.5t273.5 529t417 417t529 273.5t607.5 97t607.5 -97t529 -273.5t417 -417t273.5 -529t97 -607.5t-97 -607.5t-273.5 -529t-417 -417t-529 -273.5t-607.5 -97zM1956 -580q266 0 506.5 81t441 228t347.5 347.5t228 441
t81 506.5t-81 506.5t-228 441t-347.5 347.5t-441 228t-506.5 81t-506.5 -81t-441 -228t-347.5 -347.5t-228 -441t-81 -506.5t81 -506.5t228 -441t347.5 -347.5t441 -228t506.5 -81z" />
    <glyph glyph-name="uni24C8" unicode="S&#x20dd;" horiz-adv-x="3912" 
d="M2254 1408q-8 100 -74.5 156t-201.5 56q-86 0 -140.5 -20.5t-80.5 -55.5t-27 -80q-2 -37 13.5 -66.5t49.5 -53t87 -42.5t126 -34l168 -36q170 -36 291 -95t198 -138.5t113.5 -178.5t37.5 -216q-1 -202 -101 -342t-285.5 -213t-445.5 -73q-267 0 -465.5 79t-308 243.5
t-110.5 421.5h528q5 -94 47 -158t118.5 -97t182.5 -33q89 0 149 22t91 61t32 89q-1 47 -30.5 82.5t-96.5 64t-181 53.5l-204 44q-272 59 -428.5 197.5t-155.5 378.5q-1 195 104.5 341.5t293 228.5t430.5 82q248 0 429 -83t279.5 -233.5t99.5 -351.5h-532zM1956 -900
q-319 0 -607.5 97t-529 273.5t-417 417t-273.5 529t-97 607.5t97 607.5t273.5 529t417 417t529 273.5t607.5 97t607.5 -97t529 -273.5t417 -417t273.5 -529t97 -607.5t-97 -607.5t-273.5 -529t-417 -417t-529 -273.5t-607.5 -97zM1956 -580q266 0 506.5 81t441 228
t347.5 347.5t228 441t81 506.5t-81 506.5t-228 441t-347.5 347.5t-441 228t-506.5 81t-506.5 -81t-441 -228t-347.5 -347.5t-228 -441t-81 -506.5t81 -506.5t228 -441t347.5 -347.5t441 -228t506.5 -81z" />
    <glyph glyph-name="uni24C9" unicode="T&#x20dd;" horiz-adv-x="3912" 
d="M1066 1600v448h1780v-448h-616v-1600h-548v1600h-616zM1956 -900q-319 0 -607.5 97t-529 273.5t-417 417t-273.5 529t-97 607.5t97 607.5t273.5 529t417 417t529 273.5t607.5 97t607.5 -97t529 -273.5t417 -417t273.5 -529t97 -607.5t-97 -607.5t-273.5 -529t-417 -417
t-529 -273.5t-607.5 -97zM1956 -580q266 0 506.5 81t441 228t347.5 347.5t228 441t81 506.5t-81 506.5t-228 441t-347.5 347.5t-441 228t-506.5 81t-506.5 -81t-441 -228t-347.5 -347.5t-228 -441t-81 -506.5t81 -506.5t228 -441t347.5 -347.5t441 -228t506.5 -81z" />
    <glyph glyph-name="uni24CA" unicode="U&#x20dd;" horiz-adv-x="3912" 
d="M2284 2048h556v-1312q0 -234 -111.5 -404.5t-310.5 -263t-462 -92.5q-265 0 -464 92.5t-309.5 263t-110.5 404.5v1312h556v-1264q0 -95 42 -169.5t116.5 -116.5t169.5 -42q96 0 170 42t116 116.5t42 169.5v1264zM1956 -900q-319 0 -607.5 97t-529 273.5t-417 417
t-273.5 529t-97 607.5t97 607.5t273.5 529t417 417t529 273.5t607.5 97t607.5 -97t529 -273.5t417 -417t273.5 -529t97 -607.5t-97 -607.5t-273.5 -529t-417 -417t-529 -273.5t-607.5 -97zM1956 -580q266 0 506.5 81t441 228t347.5 347.5t228 441t81 506.5t-81 506.5
t-228 441t-347.5 347.5t-441 228t-506.5 81t-506.5 -81t-441 -228t-347.5 -347.5t-228 -441t-81 -506.5t81 -506.5t228 -441t347.5 -347.5t441 -228t506.5 -81z" />
    <glyph glyph-name="uni24CB" unicode="V&#x20dd;" horiz-adv-x="3912" 
d="M1528 2048l420 -1444h16l420 1444h628l-676 -2048h-760l-676 2048h628zM1956 -900q-319 0 -607.5 97t-529 273.5t-417 417t-273.5 529t-97 607.5t97 607.5t273.5 529t417 417t529 273.5t607.5 97t607.5 -97t529 -273.5t417 -417t273.5 -529t97 -607.5t-97 -607.5
t-273.5 -529t-417 -417t-529 -273.5t-607.5 -97zM1956 -580q266 0 506.5 81t441 228t347.5 347.5t228 441t81 506.5t-81 506.5t-228 441t-347.5 347.5t-441 228t-506.5 81t-506.5 -81t-441 -228t-347.5 -347.5t-228 -441t-81 -506.5t81 -506.5t228 -441t347.5 -347.5
t441 -228t506.5 -81z" />
    <glyph glyph-name="uni24CC" unicode="W&#x20dd;" horiz-adv-x="3912" 
d="M1068 0l-604 2048h620l280 -1260h16l332 1260h488l332 -1264h16l280 1264h620l-604 -2048h-532l-348 1144h-16l-348 -1144h-532zM1956 -900q-319 0 -607.5 97t-529 273.5t-417 417t-273.5 529t-97 607.5t97 607.5t273.5 529t417 417t529 273.5t607.5 97t607.5 -97
t529 -273.5t417 -417t273.5 -529t97 -607.5t-97 -607.5t-273.5 -529t-417 -417t-529 -273.5t-607.5 -97zM1956 -580q266 0 506.5 81t441 228t347.5 347.5t228 441t81 506.5t-81 506.5t-228 441t-347.5 347.5t-441 228t-506.5 81t-506.5 -81t-441 -228t-347.5 -347.5
t-228 -441t-81 -506.5t81 -506.5t228 -441t347.5 -347.5t441 -228t506.5 -81z" />
    <glyph glyph-name="uni24CD" unicode="X&#x20dd;" horiz-adv-x="3912" 
d="M1612 2048l336 -596h16l340 596h620l-612 -1024l636 -1024h-636l-348 608h-16l-348 -608h-632l628 1024l-608 1024h624zM1956 -900q-319 0 -607.5 97t-529 273.5t-417 417t-273.5 529t-97 607.5t97 607.5t273.5 529t417 417t529 273.5t607.5 97t607.5 -97t529 -273.5
t417 -417t273.5 -529t97 -607.5t-97 -607.5t-273.5 -529t-417 -417t-529 -273.5t-607.5 -97zM1956 -580q266 0 506.5 81t441 228t347.5 347.5t228 441t81 506.5t-81 506.5t-228 441t-347.5 347.5t-441 228t-506.5 81t-506.5 -81t-441 -228t-347.5 -347.5t-228 -441
t-81 -506.5t81 -506.5t228 -441t347.5 -347.5t441 -228t506.5 -81z" />
    <glyph glyph-name="uni24CE" unicode="Y&#x20dd;" horiz-adv-x="3912" 
d="M928 2048h620l400 -832h16l400 832h620l-752 -1404v-644h-552v644zM1956 -900q-319 0 -607.5 97t-529 273.5t-417 417t-273.5 529t-97 607.5t97 607.5t273.5 529t417 417t529 273.5t607.5 97t607.5 -97t529 -273.5t417 -417t273.5 -529t97 -607.5t-97 -607.5t-273.5 -529
t-417 -417t-529 -273.5t-607.5 -97zM1956 -580q266 0 506.5 81t441 228t347.5 347.5t228 441t81 506.5t-81 506.5t-228 441t-347.5 347.5t-441 228t-506.5 81t-506.5 -81t-441 -228t-347.5 -347.5t-228 -441t-81 -506.5t81 -506.5t228 -441t347.5 -347.5t441 -228t506.5 -81
z" />
    <glyph glyph-name="uni24CF" unicode="Z&#x20dd;" horiz-adv-x="3912" 
d="M1118 0v308l968 1292h-964v448h1672v-308l-968 -1292h964v-448h-1672zM1956 -900q-319 0 -607.5 97t-529 273.5t-417 417t-273.5 529t-97 607.5t97 607.5t273.5 529t417 417t529 273.5t607.5 97t607.5 -97t529 -273.5t417 -417t273.5 -529t97 -607.5t-97 -607.5
t-273.5 -529t-417 -417t-529 -273.5t-607.5 -97zM1956 -580q266 0 506.5 81t441 228t347.5 347.5t228 441t81 506.5t-81 506.5t-228 441t-347.5 347.5t-441 228t-506.5 81t-506.5 -81t-441 -228t-347.5 -347.5t-228 -441t-81 -506.5t81 -506.5t228 -441t347.5 -347.5
t441 -228t506.5 -81z" />
    <glyph glyph-name="uni24EA" unicode="&#x30;&#x20dd;" horiz-adv-x="3912" 
d="M1956 -56q-279 1 -482 129t-313 369t-109 578q1 338 110.5 574t312 359t481.5 123t482 -123.5t313 -359.5t109 -573q0 -339 -110 -580t-312.5 -368.5t-481.5 -127.5zM1956 396q144 0 236.5 150.5t91.5 473.5q0 211 -42 345t-116 198.5t-170 64.5q-144 0 -235 -146
t-93 -462q-1 -215 41 -353.5t116.5 -204.5t170.5 -66zM1956 -900q-319 0 -607.5 97t-529 273.5t-417 417t-273.5 529t-97 607.5t97 607.5t273.5 529t417 417t529 273.5t607.5 97t607.5 -97t529 -273.5t417 -417t273.5 -529t97 -607.5t-97 -607.5t-273.5 -529t-417 -417
t-529 -273.5t-607.5 -97zM1956 -580q266 0 506.5 81t441 228t347.5 347.5t228 441t81 506.5t-81 506.5t-228 441t-347.5 347.5t-441 228t-506.5 81t-506.5 -81t-441 -228t-347.5 -347.5t-228 -441t-81 -506.5t81 -506.5t228 -441t347.5 -347.5t441 -228t506.5 -81z" />
    <glyph glyph-name="uni2460" unicode="&#x31;&#x20dd;" horiz-adv-x="3912" 
d="M2286 2048v-2048h-556v1536h-12l-448 -268v472l504 308h512zM1956 -900q-319 0 -607.5 97t-529 273.5t-417 417t-273.5 529t-97 607.5t97 607.5t273.5 529t417 417t529 273.5t607.5 97t607.5 -97t529 -273.5t417 -417t273.5 -529t97 -607.5t-97 -607.5t-273.5 -529
t-417 -417t-529 -273.5t-607.5 -97zM1956 -580q266 0 506.5 81t441 228t347.5 347.5t228 441t81 506.5t-81 506.5t-228 441t-347.5 347.5t-441 228t-506.5 81t-506.5 -81t-441 -228t-347.5 -347.5t-228 -441t-81 -506.5t81 -506.5t228 -441t347.5 -347.5t441 -228t506.5 -81
z" />
    <glyph glyph-name="uni2461" unicode="&#x32;&#x20dd;" horiz-adv-x="3912" 
d="M1190 0v400l764 632q76 63 130.5 118.5t84 114.5t29.5 131q0 79 -33.5 135t-92.5 86.5t-136 30.5t-135.5 -31t-90.5 -91t-32 -146h-528q0 216 97 372t274 240t415 84q246 0 426.5 -78.5t279 -220.5t98.5 -333q0 -118 -49 -234.5t-176 -257.5t-361 -336l-192 -160v-12h800
v-444h-1572zM1956 -900q-319 0 -607.5 97t-529 273.5t-417 417t-273.5 529t-97 607.5t97 607.5t273.5 529t417 417t529 273.5t607.5 97t607.5 -97t529 -273.5t417 -417t273.5 -529t97 -607.5t-97 -607.5t-273.5 -529t-417 -417t-529 -273.5t-607.5 -97zM1956 -580
q266 0 506.5 81t441 228t347.5 347.5t228 441t81 506.5t-81 506.5t-228 441t-347.5 347.5t-441 228t-506.5 81t-506.5 -81t-441 -228t-347.5 -347.5t-228 -441t-81 -506.5t81 -506.5t228 -441t347.5 -347.5t441 -228t506.5 -81z" />
    <glyph glyph-name="uni2462" unicode="&#x33;&#x20dd;" horiz-adv-x="3912" 
d="M1946 -28q-242 0 -429.5 83.5t-294.5 230.5t-108 338h560q1 -59 36.5 -105.5t97.5 -72.5t142 -26q77 0 136 27.5t92 76.5t32 112q1 62 -37.5 110t-107.5 75t-159 27h-208v384h208q83 0 146.5 27t99 75t34.5 110q1 60 -29 106t-83.5 72t-123.5 26q-76 0 -135.5 -27
t-93.5 -75t-35 -110h-532q1 188 103.5 332t281.5 226t411 82q227 0 401.5 -77t273 -211.5t97.5 -307.5q2 -172 -117.5 -282t-302.5 -130v-16q248 -27 373 -151.5t123 -312.5q1 -180 -107.5 -319t-301 -218t-443.5 -79zM1956 -900q-319 0 -607.5 97t-529 273.5t-417 417
t-273.5 529t-97 607.5t97 607.5t273.5 529t417 417t529 273.5t607.5 97t607.5 -97t529 -273.5t417 -417t273.5 -529t97 -607.5t-97 -607.5t-273.5 -529t-417 -417t-529 -273.5t-607.5 -97zM1956 -580q266 0 506.5 81t441 228t347.5 347.5t228 441t81 506.5t-81 506.5
t-228 441t-347.5 347.5t-441 228t-506.5 81t-506.5 -81t-441 -228t-347.5 -347.5t-228 -441t-81 -506.5t81 -506.5t228 -441t347.5 -347.5t441 -228t506.5 -81z" />
    <glyph glyph-name="uni2463" unicode="&#x34;&#x20dd;" horiz-adv-x="3912" 
d="M974 320v432l824 1296h392v-576h-224l-444 -704v-16h1216v-432h-1764zM1970 0v452l12 188v1408h520v-2048h-532zM1956 -900q-319 0 -607.5 97t-529 273.5t-417 417t-273.5 529t-97 607.5t97 607.5t273.5 529t417 417t529 273.5t607.5 97t607.5 -97t529 -273.5t417 -417
t273.5 -529t97 -607.5t-97 -607.5t-273.5 -529t-417 -417t-529 -273.5t-607.5 -97zM1956 -580q266 0 506.5 81t441 228t347.5 347.5t228 441t81 506.5t-81 506.5t-228 441t-347.5 347.5t-441 228t-506.5 81t-506.5 -81t-441 -228t-347.5 -347.5t-228 -441t-81 -506.5
t81 -506.5t228 -441t347.5 -347.5t441 -228t506.5 -81z" />
    <glyph glyph-name="uni2464" unicode="&#x35;&#x20dd;" horiz-adv-x="3912" 
d="M1950 -28q-236 0 -418.5 83.5t-287 230.5t-106.5 338h540q3 -106 82.5 -169t189.5 -63q85 0 150 36.5t102 103.5t36 156q1 90 -36 156.5t-102 103t-150 36.5q-88 0 -162.5 -42.5t-109.5 -117.5l-488 96l80 1128h1376v-444h-920l-40 -452h12q48 93 166 154.5t274 61.5
q183 0 326.5 -85t227 -234.5t82.5 -344.5q1 -214 -101.5 -379.5t-287.5 -259t-435 -93.5zM1956 -900q-319 0 -607.5 97t-529 273.5t-417 417t-273.5 529t-97 607.5t97 607.5t273.5 529t417 417t529 273.5t607.5 97t607.5 -97t529 -273.5t417 -417t273.5 -529t97 -607.5
t-97 -607.5t-273.5 -529t-417 -417t-529 -273.5t-607.5 -97zM1956 -580q266 0 506.5 81t441 228t347.5 347.5t228 441t81 506.5t-81 506.5t-228 441t-347.5 347.5t-441 228t-506.5 81t-506.5 -81t-441 -228t-347.5 -347.5t-228 -441t-81 -506.5t81 -506.5t228 -441
t347.5 -347.5t441 -228t506.5 -81z" />
    <glyph glyph-name="uni2465" unicode="&#x36;&#x20dd;" horiz-adv-x="3912" 
d="M1970 -28q-179 0 -339 56.5t-283.5 178.5t-194 318t-71.5 475q1 252 64.5 452.5t181 341.5t281.5 215.5t365 74.5q226 0 398 -87.5t274.5 -234.5t119.5 -326h-548q-19 93 -87.5 134.5t-156.5 41.5q-175 0 -256.5 -153t-83.5 -407h12q39 94 118 161t184 103t222 36
q186 0 325.5 -84t217.5 -230t77 -334q1 -220 -103.5 -385t-289.5 -256t-427 -91zM1966 392q83 0 147.5 38t101 104t35.5 150q1 85 -35.5 150.5t-101 103.5t-147.5 38q-61 0 -112.5 -21.5t-89.5 -61t-59.5 -93t-22.5 -116.5q1 -84 38 -150t101 -104t145 -38zM1956 -900
q-319 0 -607.5 97t-529 273.5t-417 417t-273.5 529t-97 607.5t97 607.5t273.5 529t417 417t529 273.5t607.5 97t607.5 -97t529 -273.5t417 -417t273.5 -529t97 -607.5t-97 -607.5t-273.5 -529t-417 -417t-529 -273.5t-607.5 -97zM1956 -580q266 0 506.5 81t441 228
t347.5 347.5t228 441t81 506.5t-81 506.5t-228 441t-347.5 347.5t-441 228t-506.5 81t-506.5 -81t-441 -228t-347.5 -347.5t-228 -441t-81 -506.5t81 -506.5t228 -441t347.5 -347.5t441 -228t506.5 -81z" />
    <glyph glyph-name="uni2466" unicode="&#x37;&#x20dd;" horiz-adv-x="3912" 
d="M1376 0l804 1592v12h-944v444h1520v-444l-808 -1604h-572zM1956 -900q-319 0 -607.5 97t-529 273.5t-417 417t-273.5 529t-97 607.5t97 607.5t273.5 529t417 417t529 273.5t607.5 97t607.5 -97t529 -273.5t417 -417t273.5 -529t97 -607.5t-97 -607.5t-273.5 -529
t-417 -417t-529 -273.5t-607.5 -97zM1956 -580q266 0 506.5 81t441 228t347.5 347.5t228 441t81 506.5t-81 506.5t-228 441t-347.5 347.5t-441 228t-506.5 81t-506.5 -81t-441 -228t-347.5 -347.5t-228 -441t-81 -506.5t81 -506.5t228 -441t347.5 -347.5t441 -228t506.5 -81
z" />
    <glyph glyph-name="uni2467" unicode="&#x38;&#x20dd;" horiz-adv-x="3912" 
d="M1956 -28q-248 0 -442.5 77t-306 209t-111.5 298q0 127 63.5 232t171.5 174.5t241 89.5v16q-175 30 -287.5 155.5t-112.5 296.5q0 161 102 286.5t279 197.5t403 72t403 -72.5t279 -198t102 -285.5q0 -172 -114 -297t-286 -155v-16q132 -20 240 -89.5t172 -174.5t64 -232
q0 -166 -111.5 -298t-306 -209t-442.5 -77zM1956 356q79 0 140 32t96.5 88.5t35.5 127.5t-35.5 126t-96.5 86.5t-140 31.5q-78 0 -139.5 -31.5t-97 -86.5t-35.5 -126t35.5 -127t97 -88.5t139.5 -32.5zM1956 1232q70 0 124 29t85 80t31 115t-31 113.5t-85 78t-124 28.5
q-69 0 -123.5 -28.5t-85.5 -78t-31 -113.5t31 -114.5t85.5 -80t123.5 -29.5zM1956 -900q-319 0 -607.5 97t-529 273.5t-417 417t-273.5 529t-97 607.5t97 607.5t273.5 529t417 417t529 273.5t607.5 97t607.5 -97t529 -273.5t417 -417t273.5 -529t97 -607.5t-97 -607.5
t-273.5 -529t-417 -417t-529 -273.5t-607.5 -97zM1956 -580q266 0 506.5 81t441 228t347.5 347.5t228 441t81 506.5t-81 506.5t-228 441t-347.5 347.5t-441 228t-506.5 81t-506.5 -81t-441 -228t-347.5 -347.5t-228 -441t-81 -506.5t81 -506.5t228 -441t347.5 -347.5
t441 -228t506.5 -81z" />
    <glyph glyph-name="uni2468" unicode="&#x39;&#x20dd;" horiz-adv-x="3912" 
d="M1934 2084q179 0 339 -56.5t283.5 -178.5t194 -318t71.5 -475q-1 -252 -64.5 -452.5t-180.5 -341.5t-281 -215.5t-366 -74.5q-227 0 -399 87t-274 234t-119 327h548q20 -93 88 -134.5t156 -41.5q176 0 257.5 152.5t82.5 407.5h-12q-39 -94 -118 -161t-184 -103t-222 -36
q-185 0 -325 83.5t-218 230t-77 334.5q-1 220 103 384.5t289 256t428 91.5zM1938 1664q-83 0 -147.5 -38t-101 -104t-35.5 -150q-1 -84 35.5 -150t101 -104t147.5 -38q61 0 112.5 22t89.5 61t59.5 92.5t22.5 116.5q-1 84 -38 150t-101 104t-145 38zM1956 -900
q-319 0 -607.5 97t-529 273.5t-417 417t-273.5 529t-97 607.5t97 607.5t273.5 529t417 417t529 273.5t607.5 97t607.5 -97t529 -273.5t417 -417t273.5 -529t97 -607.5t-97 -607.5t-273.5 -529t-417 -417t-529 -273.5t-607.5 -97zM1956 -580q266 0 506.5 81t441 228
t347.5 347.5t228 441t81 506.5t-81 506.5t-228 441t-347.5 347.5t-441 228t-506.5 81t-506.5 -81t-441 -228t-347.5 -347.5t-228 -441t-81 -506.5t81 -506.5t228 -441t347.5 -347.5t441 -228t506.5 -81z" />
    <glyph glyph-name="uniE12B" unicode="&#xe06b;&#x20dd;" horiz-adv-x="3912" 
d="M2252 1824l188 -72l-788 -1520l-180 80zM1956 -52q-279 1 -482 129t-313 369t-109 578q1 338 110.5 574t312 359t481.5 123t482 -123.5t313 -359.5t109 -573q0 -339 -110 -580t-312.5 -368.5t-481.5 -127.5zM1956 400q144 0 236.5 150.5t91.5 473.5q0 211 -42 345
t-116 198.5t-170 64.5q-144 0 -235 -146t-93 -462q-1 -215 41 -353.5t116.5 -204.5t170.5 -66zM1956 -900q-319 0 -607.5 97t-529 273.5t-417 417t-273.5 529t-97 607.5t97 607.5t273.5 529t417 417t529 273.5t607.5 97t607.5 -97t529 -273.5t417 -417t273.5 -529t97 -607.5
t-97 -607.5t-273.5 -529t-417 -417t-529 -273.5t-607.5 -97zM1956 -580q266 0 506.5 81t441 228t347.5 347.5t228 441t81 506.5t-81 506.5t-228 441t-347.5 347.5t-441 228t-506.5 81t-506.5 -81t-441 -228t-347.5 -347.5t-228 -441t-81 -506.5t81 -506.5t228 -441
t347.5 -347.5t441 -228t506.5 -81z" />
    <glyph glyph-name="uniE12C" unicode="&#xe06c;&#x20dd;" horiz-adv-x="3912" 
d="M2318 2048v-2048h-556v1404h-20q-28 -37 -81.5 -72t-134.5 -57.5t-192 -22.5v436q86 0 162.5 28.5t135.5 78.5t92.5 115t33.5 138h560zM1956 -900q-319 0 -607.5 97t-529 273.5t-417 417t-273.5 529t-97 607.5t97 607.5t273.5 529t417 417t529 273.5t607.5 97t607.5 -97
t529 -273.5t417 -417t273.5 -529t97 -607.5t-97 -607.5t-273.5 -529t-417 -417t-529 -273.5t-607.5 -97zM1956 -580q266 0 506.5 81t441 228t347.5 347.5t228 441t81 506.5t-81 506.5t-228 441t-347.5 347.5t-441 228t-506.5 81t-506.5 -81t-441 -228t-347.5 -347.5
t-228 -441t-81 -506.5t81 -506.5t228 -441t347.5 -347.5t441 -228t506.5 -81z" />
    <glyph glyph-name="uniE12D" unicode="&#xe06d;&#x20dd;" horiz-adv-x="3912" 
d="M1114 624h560q2 -59 39 -105.5t99 -72.5t138 -26q80 0 138.5 28.5t90 77.5t31.5 110q0 67 -37.5 114.5t-103.5 72.5t-151 25h-260v368l416 376v12h-856v444h1516v-400l-552 -484v-16q182 -22 301.5 -80t188 -137.5t97.5 -168.5t29 -174q0 -186 -112.5 -324.5t-304.5 -215
t-431 -76.5q-253 0 -440 84t-290.5 231t-105.5 337zM1956 -900q-319 0 -607.5 97t-529 273.5t-417 417t-273.5 529t-97 607.5t97 607.5t273.5 529t417 417t529 273.5t607.5 97t607.5 -97t529 -273.5t417 -417t273.5 -529t97 -607.5t-97 -607.5t-273.5 -529t-417 -417
t-529 -273.5t-607.5 -97zM1956 -580q266 0 506.5 81t441 228t347.5 347.5t228 441t81 506.5t-81 506.5t-228 441t-347.5 347.5t-441 228t-506.5 81t-506.5 -81t-441 -228t-347.5 -347.5t-228 -441t-81 -506.5t81 -506.5t228 -441t347.5 -347.5t441 -228t506.5 -81z" />
    <glyph glyph-name="uniE12E" unicode="&#xe06e;&#x20dd;" horiz-adv-x="3912" 
d="M1034 320v432l728 1296h532l-712 -1280v-16h1216v-432h-1764zM2030 0v448l20 192v640h500v-1280h-520zM1956 -900q-319 0 -607.5 97t-529 273.5t-417 417t-273.5 529t-97 607.5t97 607.5t273.5 529t417 417t529 273.5t607.5 97t607.5 -97t529 -273.5t417 -417t273.5 -529
t97 -607.5t-97 -607.5t-273.5 -529t-417 -417t-529 -273.5t-607.5 -97zM1956 -580q266 0 506.5 81t441 228t347.5 347.5t228 441t81 506.5t-81 506.5t-228 441t-347.5 347.5t-441 228t-506.5 81t-506.5 -81t-441 -228t-347.5 -347.5t-228 -441t-81 -506.5t81 -506.5
t228 -441t347.5 -347.5t441 -228t506.5 -81z" />
    <glyph glyph-name="uniE12F" unicode="&#xe06f;&#x20dd;" horiz-adv-x="3912" 
d="M1148 676q0 116 29 225.5t83 216t128 214.5l484 716h544l-468 -688q39 6 81 11t87 5q190 0 336 -84t229 -235t83 -353q0 -224 -103 -388.5t-283 -254t-410 -89.5q-216 0 -403 78.5t-302 235t-115 390.5zM1696 680q0 -84 33.5 -149t94 -102t140.5 -37q78 0 137.5 37
t93 102t33.5 149t-34.5 149t-94 102t-135.5 37q-80 0 -140.5 -37t-94 -102t-33.5 -149zM1956 -900q-319 0 -607.5 97t-529 273.5t-417 417t-273.5 529t-97 607.5t97 607.5t273.5 529t417 417t529 273.5t607.5 97t607.5 -97t529 -273.5t417 -417t273.5 -529t97 -607.5
t-97 -607.5t-273.5 -529t-417 -417t-529 -273.5t-607.5 -97zM1956 -580q266 0 506.5 81t441 228t347.5 347.5t228 441t81 506.5t-81 506.5t-228 441t-347.5 347.5t-441 228t-506.5 81t-506.5 -81t-441 -228t-347.5 -347.5t-228 -441t-81 -506.5t81 -506.5t228 -441
t347.5 -347.5t441 -228t506.5 -81z" />
    <glyph glyph-name="uniE130" unicode="&#xe070;&#x20dd;" horiz-adv-x="3912" 
d="M1148 1344q0 224 102.5 388.5t282 254t411.5 89.5q214 0 401 -77.5t303 -234t116 -392.5q0 -116 -30 -225.5t-84 -216t-126 -214.5l-484 -716h-544l468 692q-39 -9 -81 -14.5t-87 -5.5q-192 0 -338 84t-228 235t-82 353zM1684 1368q0 -84 33.5 -149t93 -102t137.5 -37
t138.5 37t95 102t34.5 149t-34.5 149t-95 102t-138.5 37t-137.5 -37t-93 -102t-33.5 -149zM1956 -900q-319 0 -607.5 97t-529 273.5t-417 417t-273.5 529t-97 607.5t97 607.5t273.5 529t417 417t529 273.5t607.5 97t607.5 -97t529 -273.5t417 -417t273.5 -529t97 -607.5
t-97 -607.5t-273.5 -529t-417 -417t-529 -273.5t-607.5 -97zM1956 -580q266 0 506.5 81t441 228t347.5 347.5t228 441t81 506.5t-81 506.5t-228 441t-347.5 347.5t-441 228t-506.5 81t-506.5 -81t-441 -228t-347.5 -347.5t-228 -441t-81 -506.5t81 -506.5t228 -441
t347.5 -347.5t441 -228t506.5 -81z" />
    <glyph glyph-name="uniE131" unicode="&#x21;&#x20dd;" horiz-adv-x="3912" 
d="M2236 2048l-52 -1408h-456l-52 1408h560zM1956 -32q-116 0 -198.5 81.5t-81.5 198.5q-1 114 81.5 195t198.5 81q110 0 194.5 -81t85.5 -195q-1 -78 -40.5 -141.5t-102.5 -101t-137 -37.5zM1956 -900q-319 0 -607.5 97t-529 273.5t-417 417t-273.5 529t-97 607.5t97 607.5
t273.5 529t417 417t529 273.5t607.5 97t607.5 -97t529 -273.5t417 -417t273.5 -529t97 -607.5t-97 -607.5t-273.5 -529t-417 -417t-529 -273.5t-607.5 -97zM1956 -580q266 0 506.5 81t441 228t347.5 347.5t228 441t81 506.5t-81 506.5t-228 441t-347.5 347.5t-441 228
t-506.5 81t-506.5 -81t-441 -228t-347.5 -347.5t-228 -441t-81 -506.5t81 -506.5t228 -441t347.5 -347.5t441 -228t506.5 -81z" />
    <glyph glyph-name="uniE132" unicode="&#x3f;&#x20dd;" horiz-adv-x="3912" 
d="M1686 640v48q0 165 26 263t77 157.5t125 107.5q64 42 114.5 81t80 83t29.5 100q0 50 -24 88t-65 59t-91 21q-54 0 -99.5 -25t-73 -69t-27.5 -102h-512q2 220 100 357.5t260 202t356 64.5q214 0 382 -62.5t265 -188t97 -313.5q0 -121 -41.5 -212.5t-115 -161
t-171.5 -126.5q-72 -42 -121 -86.5t-74 -101t-25 -136.5v-48h-472zM1930 -32q-116 0 -198.5 81.5t-81.5 198.5q-1 114 81.5 195t198.5 81q110 0 194.5 -81t85.5 -195q-1 -78 -40.5 -141.5t-102.5 -101t-137 -37.5zM1956 -900q-319 0 -607.5 97t-529 273.5t-417 417
t-273.5 529t-97 607.5t97 607.5t273.5 529t417 417t529 273.5t607.5 97t607.5 -97t529 -273.5t417 -417t273.5 -529t97 -607.5t-97 -607.5t-273.5 -529t-417 -417t-529 -273.5t-607.5 -97zM1956 -580q266 0 506.5 81t441 228t347.5 347.5t228 441t81 506.5t-81 506.5
t-228 441t-347.5 347.5t-441 228t-506.5 81t-506.5 -81t-441 -228t-347.5 -347.5t-228 -441t-81 -506.5t81 -506.5t228 -441t347.5 -347.5t441 -228t506.5 -81z" />
    <glyph glyph-name="uniE133" unicode="&#x23;&#x20dd;" horiz-adv-x="3912" 
d="M1948 0l336 2048h400l-336 -2048h-400zM1040 468l68 400h1648l-68 -400h-1648zM1228 0l336 2048h400l-336 -2048h-400zM1156 1180l68 400h1648l-68 -400h-1648zM1956 -900q-319 0 -607.5 97t-529 273.5t-417 417t-273.5 529t-97 607.5t97 607.5t273.5 529t417 417
t529 273.5t607.5 97t607.5 -97t529 -273.5t417 -417t273.5 -529t97 -607.5t-97 -607.5t-273.5 -529t-417 -417t-529 -273.5t-607.5 -97zM1956 -580q266 0 506.5 81t441 228t347.5 347.5t228 441t81 506.5t-81 506.5t-228 441t-347.5 347.5t-441 228t-506.5 81t-506.5 -81
t-441 -228t-347.5 -347.5t-228 -441t-81 -506.5t81 -506.5t228 -441t347.5 -347.5t441 -228t506.5 -81z" />
    <glyph glyph-name="uniE134" unicode="&#x2d;&#x20dd;" horiz-adv-x="3912" 
d="M2436 1232v-416h-960v416h960zM1956 -900q-319 0 -607.5 97t-529 273.5t-417 417t-273.5 529t-97 607.5t97 607.5t273.5 529t417 417t529 273.5t607.5 97t607.5 -97t529 -273.5t417 -417t273.5 -529t97 -607.5t-97 -607.5t-273.5 -529t-417 -417t-529 -273.5t-607.5 -97z
M1956 -580q266 0 506.5 81t441 228t347.5 347.5t228 441t81 506.5t-81 506.5t-228 441t-347.5 347.5t-441 228t-506.5 81t-506.5 -81t-441 -228t-347.5 -347.5t-228 -441t-81 -506.5t81 -506.5t228 -441t347.5 -347.5t441 -228t506.5 -81z" />
    <glyph glyph-name="uniE135" unicode="&#x3c;&#x20dd;" horiz-adv-x="3912" 
d="M1172 784v480l1488 596v-504l-948 -328l16 24v-56l-16 24l948 -328v-504zM1956 -900q-319 0 -607.5 97t-529 273.5t-417 417t-273.5 529t-97 607.5t97 607.5t273.5 529t417 417t529 273.5t607.5 97t607.5 -97t529 -273.5t417 -417t273.5 -529t97 -607.5t-97 -607.5
t-273.5 -529t-417 -417t-529 -273.5t-607.5 -97zM1956 -580q266 0 506.5 81t441 228t347.5 347.5t228 441t81 506.5t-81 506.5t-228 441t-347.5 347.5t-441 228t-506.5 81t-506.5 -81t-441 -228t-347.5 -347.5t-228 -441t-81 -506.5t81 -506.5t228 -441t347.5 -347.5
t441 -228t506.5 -81z" />
    <glyph glyph-name="uniE136" unicode="&#x3e;&#x20dd;" horiz-adv-x="3912" 
d="M2740 784l-1488 -596v504l948 328l-16 -24v56l16 -24l-948 328v504l1488 -596v-480zM1956 -900q-319 0 -607.5 97t-529 273.5t-417 417t-273.5 529t-97 607.5t97 607.5t273.5 529t417 417t529 273.5t607.5 97t607.5 -97t529 -273.5t417 -417t273.5 -529t97 -607.5
t-97 -607.5t-273.5 -529t-417 -417t-529 -273.5t-607.5 -97zM1956 -580q266 0 506.5 81t441 228t347.5 347.5t228 441t81 506.5t-81 506.5t-228 441t-347.5 347.5t-441 228t-506.5 81t-506.5 -81t-441 -228t-347.5 -347.5t-228 -441t-81 -506.5t81 -506.5t228 -441
t347.5 -347.5t441 -228t506.5 -81z" />
    <glyph glyph-name="uniE137" unicode="&#x3d;&#x20dd;" horiz-adv-x="3912" 
d="M1216 1156v448h1480v-448h-1480zM1216 444v448h1480v-448h-1480zM1956 -900q-319 0 -607.5 97t-529 273.5t-417 417t-273.5 529t-97 607.5t97 607.5t273.5 529t417 417t529 273.5t607.5 97t607.5 -97t529 -273.5t417 -417t273.5 -529t97 -607.5t-97 -607.5t-273.5 -529
t-417 -417t-529 -273.5t-607.5 -97zM1956 -580q266 0 506.5 81t441 228t347.5 347.5t228 441t81 506.5t-81 506.5t-228 441t-347.5 347.5t-441 228t-506.5 81t-506.5 -81t-441 -228t-347.5 -347.5t-228 -441t-81 -506.5t81 -506.5t228 -441t347.5 -347.5t441 -228t506.5 -81
z" />
    <glyph glyph-name="uni2295" unicode="&#x2b;&#x20dd;" horiz-adv-x="3912" 
d="M1732 280v1480h448v-1480h-448zM1216 796v448h1480v-448h-1480zM1956 -900q-319 0 -607.5 97t-529 273.5t-417 417t-273.5 529t-97 607.5t97 607.5t273.5 529t417 417t529 273.5t607.5 97t607.5 -97t529 -273.5t417 -417t273.5 -529t97 -607.5t-97 -607.5t-273.5 -529
t-417 -417t-529 -273.5t-607.5 -97zM1956 -580q266 0 506.5 81t441 228t347.5 347.5t228 441t81 506.5t-81 506.5t-228 441t-347.5 347.5t-441 228t-506.5 81t-506.5 -81t-441 -228t-347.5 -347.5t-228 -441t-81 -506.5t81 -506.5t228 -441t347.5 -347.5t441 -228t506.5 -81
z" />
    <glyph glyph-name="uni2296" unicode="&#x2212;&#x20dd;" horiz-adv-x="3912" 
d="M2696 1248v-448h-1480v448h1480zM1956 -900q-319 0 -607.5 97t-529 273.5t-417 417t-273.5 529t-97 607.5t97 607.5t273.5 529t417 417t529 273.5t607.5 97t607.5 -97t529 -273.5t417 -417t273.5 -529t97 -607.5t-97 -607.5t-273.5 -529t-417 -417t-529 -273.5
t-607.5 -97zM1956 -580q266 0 506.5 81t441 228t347.5 347.5t228 441t81 506.5t-81 506.5t-228 441t-347.5 347.5t-441 228t-506.5 81t-506.5 -81t-441 -228t-347.5 -347.5t-228 -441t-81 -506.5t81 -506.5t228 -441t347.5 -347.5t441 -228t506.5 -81z" />
    <glyph glyph-name="uni2297" unicode="&#xd7;&#x20dd;" horiz-adv-x="3912" 
d="M2408 228l-1240 1236l336 340l1240 -1240zM1504 228l-336 336l1240 1240l336 -340zM1956 -900q-319 0 -607.5 97t-529 273.5t-417 417t-273.5 529t-97 607.5t97 607.5t273.5 529t417 417t529 273.5t607.5 97t607.5 -97t529 -273.5t417 -417t273.5 -529t97 -607.5
t-97 -607.5t-273.5 -529t-417 -417t-529 -273.5t-607.5 -97zM1956 -580q266 0 506.5 81t441 228t347.5 347.5t228 441t81 506.5t-81 506.5t-228 441t-347.5 347.5t-441 228t-506.5 81t-506.5 -81t-441 -228t-347.5 -347.5t-228 -441t-81 -506.5t81 -506.5t228 -441
t347.5 -347.5t441 -228t506.5 -81z" />
    <glyph glyph-name="uni2A38" unicode="&#xf7;&#x20dd;" horiz-adv-x="3912" 
d="M2696 1232v-416h-1480v416h1480zM1956 160q-118 0 -201 83t-83 201q0 116 83 198t201 82q116 0 198 -82t82 -198q0 -118 -82 -201t-198 -83zM1956 1324q-78 0 -142.5 38.5t-103 103t-38.5 142.5q0 117 83.5 198.5t200.5 81.5t198.5 -81.5t81.5 -198.5t-81.5 -200.5
t-198.5 -83.5zM1956 -900q-319 0 -607.5 97t-529 273.5t-417 417t-273.5 529t-97 607.5t97 607.5t273.5 529t417 417t529 273.5t607.5 97t607.5 -97t529 -273.5t417 -417t273.5 -529t97 -607.5t-97 -607.5t-273.5 -529t-417 -417t-529 -273.5t-607.5 -97zM1956 -580
q266 0 506.5 81t441 228t347.5 347.5t228 441t81 506.5t-81 506.5t-228 441t-347.5 347.5t-441 228t-506.5 81t-506.5 -81t-441 -228t-347.5 -347.5t-228 -441t-81 -506.5t81 -506.5t228 -441t347.5 -347.5t441 -228t506.5 -81z" />
    <glyph glyph-name="uniE138" unicode="&#x2191;&#x20dd;" horiz-adv-x="3912" 
d="M1750 0v1286l-468 -470l-286 284l962 960l960 -960l-282 -284l-470 470v-1286h-416zM1956 -900q-319 0 -607.5 97t-529 273.5t-417 417t-273.5 529t-97 607.5t97 607.5t273.5 529t417 417t529 273.5t607.5 97t607.5 -97t529 -273.5t417 -417t273.5 -529t97 -607.5
t-97 -607.5t-273.5 -529t-417 -417t-529 -273.5t-607.5 -97zM1956 -580q266 0 506.5 81t441 228t347.5 347.5t228 441t81 506.5t-81 506.5t-228 441t-347.5 347.5t-441 228t-506.5 81t-506.5 -81t-441 -228t-347.5 -347.5t-228 -441t-81 -506.5t81 -506.5t228 -441
t347.5 -347.5t441 -228t506.5 -81z" />
    <glyph glyph-name="uniE139" unicode="&#x2193;&#x20dd;" horiz-adv-x="3912" 
d="M2164 2048v-1286l468 470l286 -284l-962 -960l-960 960l282 284l470 -470v1286h416zM1956 -900q-319 0 -607.5 97t-529 273.5t-417 417t-273.5 529t-97 607.5t97 607.5t273.5 529t417 417t529 273.5t607.5 97t607.5 -97t529 -273.5t417 -417t273.5 -529t97 -607.5
t-97 -607.5t-273.5 -529t-417 -417t-529 -273.5t-607.5 -97zM1956 -580q266 0 506.5 81t441 228t347.5 347.5t228 441t81 506.5t-81 506.5t-228 441t-347.5 347.5t-441 228t-506.5 81t-506.5 -81t-441 -228t-347.5 -347.5t-228 -441t-81 -506.5t81 -506.5t228 -441
t347.5 -347.5t441 -228t506.5 -81z" />
    <glyph glyph-name="uniE13A" unicode="&#x2190;&#x20dd;" horiz-adv-x="3912" 
d="M2010 -58l-1082 1082l1082 1082l284 -282l-592 -592h1284v-416h-1284l592 -592zM1956 -900q-319 0 -607.5 97t-529 273.5t-417 417t-273.5 529t-97 607.5t97 607.5t273.5 529t417 417t529 273.5t607.5 97t607.5 -97t529 -273.5t417 -417t273.5 -529t97 -607.5t-97 -607.5
t-273.5 -529t-417 -417t-529 -273.5t-607.5 -97zM1956 -580q266 0 506.5 81t441 228t347.5 347.5t228 441t81 506.5t-81 506.5t-228 441t-347.5 347.5t-441 228t-506.5 81t-506.5 -81t-441 -228t-347.5 -347.5t-228 -441t-81 -506.5t81 -506.5t228 -441t347.5 -347.5
t441 -228t506.5 -81z" />
    <glyph glyph-name="uniE13B" unicode="&#x2192;&#x20dd;" horiz-adv-x="3912" 
d="M1904 -58l-284 282l592 592h-1284v416h1284l-592 592l284 282l1082 -1082zM1956 -900q-319 0 -607.5 97t-529 273.5t-417 417t-273.5 529t-97 607.5t97 607.5t273.5 529t417 417t529 273.5t607.5 97t607.5 -97t529 -273.5t417 -417t273.5 -529t97 -607.5t-97 -607.5
t-273.5 -529t-417 -417t-529 -273.5t-607.5 -97zM1956 -580q266 0 506.5 81t441 228t347.5 347.5t228 441t81 506.5t-81 506.5t-228 441t-347.5 347.5t-441 228t-506.5 81t-506.5 -81t-441 -228t-347.5 -347.5t-228 -441t-81 -506.5t81 -506.5t228 -441t347.5 -347.5
t441 -228t506.5 -81z" />
    <glyph glyph-name="uniE13C" unicode="&#x2713;&#x20dd;" horiz-adv-x="3912" 
d="M912 944l368 368l420 -412l984 980l368 -368l-1352 -1344zM1956 -900q-319 0 -607.5 97t-529 273.5t-417 417t-273.5 529t-97 607.5t97 607.5t273.5 529t417 417t529 273.5t607.5 97t607.5 -97t529 -273.5t417 -417t273.5 -529t97 -607.5t-97 -607.5t-273.5 -529
t-417 -417t-529 -273.5t-607.5 -97zM1956 -580q266 0 506.5 81t441 228t347.5 347.5t228 441t81 506.5t-81 506.5t-228 441t-347.5 347.5t-441 228t-506.5 81t-506.5 -81t-441 -228t-347.5 -347.5t-228 -441t-81 -506.5t81 -506.5t228 -441t347.5 -347.5t441 -228t506.5 -81
z" />
    <glyph glyph-name="uniE13D" unicode="&#x2717;&#x20dd;" horiz-adv-x="3912" 
d="M1472 174l-368 368l1340 1332l368 -368zM2440 174l-1340 1332l368 368l1340 -1332zM1956 -900q-319 0 -607.5 97t-529 273.5t-417 417t-273.5 529t-97 607.5t97 607.5t273.5 529t417 417t529 273.5t607.5 97t607.5 -97t529 -273.5t417 -417t273.5 -529t97 -607.5
t-97 -607.5t-273.5 -529t-417 -417t-529 -273.5t-607.5 -97zM1956 -580q266 0 506.5 81t441 228t347.5 347.5t228 441t81 506.5t-81 506.5t-228 441t-347.5 347.5t-441 228t-506.5 81t-506.5 -81t-441 -228t-347.5 -347.5t-228 -441t-81 -506.5t81 -506.5t228 -441
t347.5 -347.5t441 -228t506.5 -81z" />
    <glyph glyph-name="u1F130" unicode="A&#x20de;" horiz-adv-x="3912" 
d="M1500 0h-600l676 2048h760l676 -2048h-600l-448 1484h-16zM1388 808h1128v-416h-1128v416zM444 -832q-168 0 -256 88t-88 256v3024q0 168 88 256t256 88h3024q168 0 256 -88t88 -256v-3024q0 -168 -88 -256t-256 -88h-3024zM436 -512h3040q8 0 12 4.5t4 11.5v3040
q0 8 -4 12t-12 4h-3040q-7 0 -11.5 -4t-4.5 -12v-3040q0 -7 4.5 -11.5t11.5 -4.5z" />
    <glyph glyph-name="u1F131" unicode="B&#x20de;" horiz-adv-x="3912" 
d="M1156 0v2048h888q234 0 393.5 -63t241 -178t81.5 -271q0 -113 -49.5 -206t-138.5 -155.5t-208 -86.5v-20q132 -5 240 -66.5t172 -169t64 -252.5q0 -168 -87.5 -299t-248.5 -206t-384 -75h-964zM1712 444h260q140 0 210 52.5t70 155.5q0 72 -33 122t-93.5 76t-145.5 26
h-268v-432zM1712 1220h228q73 0 129 23t87.5 66.5t31.5 106.5q0 95 -68 145.5t-172 50.5h-236v-392zM444 -832q-168 0 -256 88t-88 256v3024q0 168 88 256t256 88h3024q168 0 256 -88t88 -256v-3024q0 -168 -88 -256t-256 -88h-3024zM436 -512h3040q8 0 12 4.5t4 11.5v3040
q0 8 -4 12t-12 4h-3040q-7 0 -11.5 -4t-4.5 -12v-3040q0 -7 4.5 -11.5t11.5 -4.5z" />
    <glyph glyph-name="u1F132" unicode="C&#x20de;" horiz-adv-x="3912" 
d="M2916 1280h-564q-6 70 -31.5 127t-70 98.5t-107.5 64t-143 22.5q-140 0 -236.5 -68t-146 -195t-49.5 -305q0 -188 50.5 -314.5t146.5 -190t231 -63.5q77 0 138 19.5t106 56.5t73.5 89.5t38.5 118.5l564 -4q-10 -130 -73 -264.5t-178.5 -248t-285.5 -182.5t-395 -69
q-282 0 -505.5 121t-353 356t-129.5 575q0 342 132 576.5t356 355t500 120.5q194 0 357 -53t286 -154.5t198 -249.5t91 -339zM444 -832q-168 0 -256 88t-88 256v3024q0 168 88 256t256 88h3024q168 0 256 -88t88 -256v-3024q0 -168 -88 -256t-256 -88h-3024zM436 -512h3040
q8 0 12 4.5t4 11.5v3040q0 8 -4 12t-12 4h-3040q-7 0 -11.5 -4t-4.5 -12v-3040q0 -7 4.5 -11.5t11.5 -4.5z" />
    <glyph glyph-name="u1F133" unicode="D&#x20de;" horiz-adv-x="3912" 
d="M1860 0h-788v2048h780q316 0 546.5 -122.5t356 -352t125.5 -549.5t-125 -549.5t-354 -352t-541 -122.5zM1628 472h212q152 0 259.5 49t164 169t56.5 334t-57.5 334t-168 169t-270.5 49h-196v-1104zM444 -832q-168 0 -256 88t-88 256v3024q0 168 88 256t256 88h3024
q168 0 256 -88t88 -256v-3024q0 -168 -88 -256t-256 -88h-3024zM436 -512h3040q8 0 12 4.5t4 11.5v3040q0 8 -4 12t-12 4h-3040q-7 0 -11.5 -4t-4.5 -12v-3040q0 -7 4.5 -11.5t11.5 -4.5z" />
    <glyph glyph-name="u1F134" unicode="E&#x20de;" horiz-adv-x="3912" 
d="M1218 0v2048h1476v-448h-920v-352h844v-448h-844v-352h916v-448h-1472zM444 -832q-168 0 -256 88t-88 256v3024q0 168 88 256t256 88h3024q168 0 256 -88t88 -256v-3024q0 -168 -88 -256t-256 -88h-3024zM436 -512h3040q8 0 12 4.5t4 11.5v3040q0 8 -4 12t-12 4h-3040
q-7 0 -11.5 -4t-4.5 -12v-3040q0 -7 4.5 -11.5t11.5 -4.5z" />
    <glyph glyph-name="u1F135" unicode="F&#x20de;" horiz-adv-x="3912" 
d="M1256 0v2048h1440v-448h-884v-352h796v-448h-796v-800h-556zM444 -832q-168 0 -256 88t-88 256v3024q0 168 88 256t256 88h3024q168 0 256 -88t88 -256v-3024q0 -168 -88 -256t-256 -88h-3024zM436 -512h3040q8 0 12 4.5t4 11.5v3040q0 8 -4 12t-12 4h-3040
q-7 0 -11.5 -4t-4.5 -12v-3040q0 -7 4.5 -11.5t11.5 -4.5z" />
    <glyph glyph-name="u1F136" unicode="G&#x20de;" horiz-adv-x="3912" 
d="M2332 1372q-13 53 -41 93.5t-69.5 69t-96 43t-119.5 14.5q-140 0 -238.5 -67t-150 -193t-51.5 -304q0 -180 49 -308t146 -196t241 -68q127 0 211.5 37t126.5 105t42 160l96 -10h-468v396h908v-284q0 -280 -118.5 -478.5t-326 -304t-475.5 -105.5q-299 0 -525 127
t-352.5 362t-126.5 559q0 254 77.5 450t215.5 331.5t319 205t388 69.5q182 0 338.5 -51.5t277 -146t194.5 -223.5t90 -283h-562zM444 -832q-168 0 -256 88t-88 256v3024q0 168 88 256t256 88h3024q168 0 256 -88t88 -256v-3024q0 -168 -88 -256t-256 -88h-3024zM436 -512
h3040q8 0 12 4.5t4 11.5v3040q0 8 -4 12t-12 4h-3040q-7 0 -11.5 -4t-4.5 -12v-3040q0 -7 4.5 -11.5t11.5 -4.5z" />
    <glyph glyph-name="u1F137" unicode="H&#x20de;" horiz-adv-x="3912" 
d="M1032 0v2048h556v-800h736v800h556v-2048h-556v800h-736v-800h-556zM444 -832q-168 0 -256 88t-88 256v3024q0 168 88 256t256 88h3024q168 0 256 -88t88 -256v-3024q0 -168 -88 -256t-256 -88h-3024zM436 -512h3040q8 0 12 4.5t4 11.5v3040q0 8 -4 12t-12 4h-3040
q-7 0 -11.5 -4t-4.5 -12v-3040q0 -7 4.5 -11.5t11.5 -4.5z" />
    <glyph glyph-name="u1F138" unicode="I&#x20de;" horiz-adv-x="3912" 
d="M2234 2048v-2048h-556v2048h556zM444 -832q-168 0 -256 88t-88 256v3024q0 168 88 256t256 88h3024q168 0 256 -88t88 -256v-3024q0 -168 -88 -256t-256 -88h-3024zM436 -512h3040q8 0 12 4.5t4 11.5v3040q0 8 -4 12t-12 4h-3040q-7 0 -11.5 -4t-4.5 -12v-3040
q0 -7 4.5 -11.5t11.5 -4.5z" />
    <glyph glyph-name="u1F139" unicode="J&#x20de;" horiz-adv-x="3912" 
d="M2114 2048h548v-1404q-1 -200 -100.5 -351.5t-274 -236t-401.5 -84.5q-197 0 -360 68.5t-260 216t-96 383.5h556q3 -77 26.5 -130t66 -79.5t103.5 -26.5q62 0 104.5 27t64.5 80.5t23 132.5v1404zM444 -832q-168 0 -256 88t-88 256v3024q0 168 88 256t256 88h3024
q168 0 256 -88t88 -256v-3024q0 -168 -88 -256t-256 -88h-3024zM436 -512h3040q8 0 12 4.5t4 11.5v3040q0 8 -4 12t-12 4h-3040q-7 0 -11.5 -4t-4.5 -12v-3040q0 -7 4.5 -11.5t11.5 -4.5z" />
    <glyph glyph-name="u1F13A" unicode="K&#x20de;" horiz-adv-x="3912" 
d="M1044 0v2048h556v-828h28l616 828h648l-692 -912l708 -1136h-664l-460 768l-184 -240v-528h-556zM444 -832q-168 0 -256 88t-88 256v3024q0 168 88 256t256 88h3024q168 0 256 -88t88 -256v-3024q0 -168 -88 -256t-256 -88h-3024zM436 -512h3040q8 0 12 4.5t4 11.5v3040
q0 8 -4 12t-12 4h-3040q-7 0 -11.5 -4t-4.5 -12v-3040q0 -7 4.5 -11.5t11.5 -4.5z" />
    <glyph glyph-name="u1F13B" unicode="L&#x20de;" horiz-adv-x="3912" 
d="M1284 0v2048h556v-1600h828v-448h-1384zM444 -832q-168 0 -256 88t-88 256v3024q0 168 88 256t256 88h3024q168 0 256 -88t88 -256v-3024q0 -168 -88 -256t-256 -88h-3024zM436 -512h3040q8 0 12 4.5t4 11.5v3040q0 8 -4 12t-12 4h-3040q-7 0 -11.5 -4t-4.5 -12v-3040
q0 -7 4.5 -11.5t11.5 -4.5z" />
    <glyph glyph-name="u1F13C" unicode="M&#x20de;" horiz-adv-x="3912" 
d="M776 2048h692l476 -1160h24l476 1160h692v-2048h-544v1184h-16l-456 -1168h-328l-456 1176h-16v-1192h-544v2048zM444 -832q-168 0 -256 88t-88 256v3024q0 168 88 256t256 88h3024q168 0 256 -88t88 -256v-3024q0 -168 -88 -256t-256 -88h-3024zM436 -512h3040
q8 0 12 4.5t4 11.5v3040q0 8 -4 12t-12 4h-3040q-7 0 -11.5 -4t-4.5 -12v-3040q0 -7 4.5 -11.5t11.5 -4.5z" />
    <glyph glyph-name="u1F13D" unicode="N&#x20de;" horiz-adv-x="3912" 
d="M2842 2048v-2048h-464l-740 1076h-12v-1076h-556v2048h472l728 -1072h16v1072h556zM444 -832q-168 0 -256 88t-88 256v3024q0 168 88 256t256 88h3024q168 0 256 -88t88 -256v-3024q0 -168 -88 -256t-256 -88h-3024zM436 -512h3040q8 0 12 4.5t4 11.5v3040q0 8 -4 12
t-12 4h-3040q-7 0 -11.5 -4t-4.5 -12v-3040q0 -7 4.5 -11.5t11.5 -4.5z" />
    <glyph glyph-name="u1F13E" unicode="O&#x20de;" horiz-adv-x="3912" 
d="M2952 1024q0 -342 -133 -576.5t-359 -355t-504 -120.5q-280 0 -505.5 121.5t-358 356t-132.5 574.5q0 342 132.5 576.5t358 355t505.5 120.5q278 0 504 -120.5t359 -355t133 -576.5zM2380 1024q0 184 -48.5 310.5t-143 192t-232.5 65.5t-232.5 -65.5t-143 -192
t-48.5 -310.5t48.5 -310.5t143 -192t232.5 -65.5t232.5 65.5t143 192t48.5 310.5zM444 -832q-168 0 -256 88t-88 256v3024q0 168 88 256t256 88h3024q168 0 256 -88t88 -256v-3024q0 -168 -88 -256t-256 -88h-3024zM436 -512h3040q8 0 12 4.5t4 11.5v3040q0 8 -4 12t-12 4
h-3040q-7 0 -11.5 -4t-4.5 -12v-3040q0 -7 4.5 -11.5t11.5 -4.5z" />
    <glyph glyph-name="u1F13F" unicode="P&#x20de;" horiz-adv-x="3912" 
d="M1196 0v2048h884q228 0 399 -90t266 -253t95 -381q0 -220 -97.5 -381t-273 -248t-409.5 -87h-528v432h416q98 0 167.5 34.5t107 98.5t37.5 151q0 88 -37.5 150.5t-107 96t-167.5 33.5h-196v-1604h-556zM444 -832q-168 0 -256 88t-88 256v3024q0 168 88 256t256 88h3024
q168 0 256 -88t88 -256v-3024q0 -168 -88 -256t-256 -88h-3024zM436 -512h3040q8 0 12 4.5t4 11.5v3040q0 8 -4 12t-12 4h-3040q-7 0 -11.5 -4t-4.5 -12v-3040q0 -7 4.5 -11.5t11.5 -4.5z" />
    <glyph glyph-name="u1F140" unicode="Q&#x20de;" horiz-adv-x="3912" 
d="M1758 760h432l156 -196l264 -300l344 -416h-492l-244 284l-164 236zM2950 1024q0 -342 -133 -576.5t-359 -355t-504 -120.5q-280 0 -505.5 121.5t-358 356t-132.5 574.5q0 342 132.5 576.5t358 355t505.5 120.5q278 0 504 -120.5t359 -355t133 -576.5zM2378 1024
q0 184 -48.5 310.5t-143 192t-232.5 65.5t-232.5 -65.5t-143 -192t-48.5 -310.5t48.5 -310.5t143 -192t232.5 -65.5t232.5 65.5t143 192t48.5 310.5zM444 -832q-168 0 -256 88t-88 256v3024q0 168 88 256t256 88h3024q168 0 256 -88t88 -256v-3024q0 -168 -88 -256t-256 -88
h-3024zM436 -512h3040q8 0 12 4.5t4 11.5v3040q0 8 -4 12t-12 4h-3040q-7 0 -11.5 -4t-4.5 -12v-3040q0 -7 4.5 -11.5t11.5 -4.5z" />
    <glyph glyph-name="u1F141" unicode="R&#x20de;" horiz-adv-x="3912" 
d="M1140 0v2048h884q228 0 399 -83t266 -239t95 -374q0 -220 -97.5 -371t-273 -228t-409.5 -77h-528v432h416q98 0 167.5 24.5t107 78.5t37.5 141q0 88 -37.5 143.5t-107 82t-167.5 26.5h-196v-1604h-556zM2340 940l512 -940h-604l-500 940h592zM444 -832q-168 0 -256 88
t-88 256v3024q0 168 88 256t256 88h3024q168 0 256 -88t88 -256v-3024q0 -168 -88 -256t-256 -88h-3024zM436 -512h3040q8 0 12 4.5t4 11.5v3040q0 8 -4 12t-12 4h-3040q-7 0 -11.5 -4t-4.5 -12v-3040q0 -7 4.5 -11.5t11.5 -4.5z" />
    <glyph glyph-name="u1F142" unicode="S&#x20de;" horiz-adv-x="3912" 
d="M2254 1408q-8 100 -74.5 156t-201.5 56q-86 0 -140.5 -20.5t-80.5 -55.5t-27 -80q-2 -37 13.5 -66.5t49.5 -53t87 -42.5t126 -34l168 -36q170 -36 291 -95t198 -138.5t113.5 -178.5t37.5 -216q-1 -202 -101 -342t-285.5 -213t-445.5 -73q-267 0 -465.5 79t-308 243.5
t-110.5 421.5h528q5 -94 47 -158t118.5 -97t182.5 -33q89 0 149 22t91 61t32 89q-1 47 -30.5 82.5t-96.5 64t-181 53.5l-204 44q-272 59 -428.5 197.5t-155.5 378.5q-1 195 104.5 341.5t293 228.5t430.5 82q248 0 429 -83t279.5 -233.5t99.5 -351.5h-532zM444 -832
q-168 0 -256 88t-88 256v3024q0 168 88 256t256 88h3024q168 0 256 -88t88 -256v-3024q0 -168 -88 -256t-256 -88h-3024zM436 -512h3040q8 0 12 4.5t4 11.5v3040q0 8 -4 12t-12 4h-3040q-7 0 -11.5 -4t-4.5 -12v-3040q0 -7 4.5 -11.5t11.5 -4.5z" />
    <glyph glyph-name="u1F143" unicode="T&#x20de;" horiz-adv-x="3912" 
d="M1066 1600v448h1780v-448h-616v-1600h-548v1600h-616zM444 -832q-168 0 -256 88t-88 256v3024q0 168 88 256t256 88h3024q168 0 256 -88t88 -256v-3024q0 -168 -88 -256t-256 -88h-3024zM436 -512h3040q8 0 12 4.5t4 11.5v3040q0 8 -4 12t-12 4h-3040q-7 0 -11.5 -4
t-4.5 -12v-3040q0 -7 4.5 -11.5t11.5 -4.5z" />
    <glyph glyph-name="u1F144" unicode="U&#x20de;" horiz-adv-x="3912" 
d="M2284 2048h556v-1312q0 -234 -111.5 -404.5t-310.5 -263t-462 -92.5q-265 0 -464 92.5t-309.5 263t-110.5 404.5v1312h556v-1264q0 -95 42 -169.5t116.5 -116.5t169.5 -42q96 0 170 42t116 116.5t42 169.5v1264zM444 -832q-168 0 -256 88t-88 256v3024q0 168 88 256
t256 88h3024q168 0 256 -88t88 -256v-3024q0 -168 -88 -256t-256 -88h-3024zM436 -512h3040q8 0 12 4.5t4 11.5v3040q0 8 -4 12t-12 4h-3040q-7 0 -11.5 -4t-4.5 -12v-3040q0 -7 4.5 -11.5t11.5 -4.5z" />
    <glyph glyph-name="u1F145" unicode="V&#x20de;" horiz-adv-x="3912" 
d="M1528 2048l420 -1444h16l420 1444h628l-676 -2048h-760l-676 2048h628zM444 -832q-168 0 -256 88t-88 256v3024q0 168 88 256t256 88h3024q168 0 256 -88t88 -256v-3024q0 -168 -88 -256t-256 -88h-3024zM436 -512h3040q8 0 12 4.5t4 11.5v3040q0 8 -4 12t-12 4h-3040
q-7 0 -11.5 -4t-4.5 -12v-3040q0 -7 4.5 -11.5t11.5 -4.5z" />
    <glyph glyph-name="u1F146" unicode="W&#x20de;" horiz-adv-x="3912" 
d="M1068 0l-604 2048h620l280 -1260h16l332 1260h488l332 -1264h16l280 1264h620l-604 -2048h-532l-348 1144h-16l-348 -1144h-532zM444 -832q-168 0 -256 88t-88 256v3024q0 168 88 256t256 88h3024q168 0 256 -88t88 -256v-3024q0 -168 -88 -256t-256 -88h-3024zM436 -512
h3040q8 0 12 4.5t4 11.5v3040q0 8 -4 12t-12 4h-3040q-7 0 -11.5 -4t-4.5 -12v-3040q0 -7 4.5 -11.5t11.5 -4.5z" />
    <glyph glyph-name="u1F147" unicode="X&#x20de;" horiz-adv-x="3912" 
d="M1612 2048l336 -596h16l340 596h620l-612 -1024l636 -1024h-636l-348 608h-16l-348 -608h-632l628 1024l-608 1024h624zM444 -832q-168 0 -256 88t-88 256v3024q0 168 88 256t256 88h3024q168 0 256 -88t88 -256v-3024q0 -168 -88 -256t-256 -88h-3024zM436 -512h3040
q8 0 12 4.5t4 11.5v3040q0 8 -4 12t-12 4h-3040q-7 0 -11.5 -4t-4.5 -12v-3040q0 -7 4.5 -11.5t11.5 -4.5z" />
    <glyph glyph-name="u1F148" unicode="Y&#x20de;" horiz-adv-x="3912" 
d="M928 2048h620l400 -832h16l400 832h620l-752 -1404v-644h-552v644zM444 -832q-168 0 -256 88t-88 256v3024q0 168 88 256t256 88h3024q168 0 256 -88t88 -256v-3024q0 -168 -88 -256t-256 -88h-3024zM436 -512h3040q8 0 12 4.5t4 11.5v3040q0 8 -4 12t-12 4h-3040
q-7 0 -11.5 -4t-4.5 -12v-3040q0 -7 4.5 -11.5t11.5 -4.5z" />
    <glyph glyph-name="u1F149" unicode="Z&#x20de;" horiz-adv-x="3912" 
d="M1118 0v308l968 1292h-964v448h1672v-308l-968 -1292h964v-448h-1672zM444 -832q-168 0 -256 88t-88 256v3024q0 168 88 256t256 88h3024q168 0 256 -88t88 -256v-3024q0 -168 -88 -256t-256 -88h-3024zM436 -512h3040q8 0 12 4.5t4 11.5v3040q0 8 -4 12t-12 4h-3040
q-7 0 -11.5 -4t-4.5 -12v-3040q0 -7 4.5 -11.5t11.5 -4.5z" />
    <glyph glyph-name="uniE13E" unicode="&#x30;&#x20de;" horiz-adv-x="3912" 
d="M1956 -56q-279 1 -482 129t-313 369t-109 578q1 338 110.5 574t312 359t481.5 123t482 -123.5t313 -359.5t109 -573q0 -339 -110 -580t-312.5 -368.5t-481.5 -127.5zM1956 396q144 0 236.5 150.5t91.5 473.5q0 211 -42 345t-116 198.5t-170 64.5q-144 0 -235 -146
t-93 -462q-1 -215 41 -353.5t116.5 -204.5t170.5 -66zM444 -832q-168 0 -256 88t-88 256v3024q0 168 88 256t256 88h3024q168 0 256 -88t88 -256v-3024q0 -168 -88 -256t-256 -88h-3024zM436 -512h3040q8 0 12 4.5t4 11.5v3040q0 8 -4 12t-12 4h-3040q-7 0 -11.5 -4
t-4.5 -12v-3040q0 -7 4.5 -11.5t11.5 -4.5z" />
    <glyph glyph-name="uniE13F" unicode="&#x31;&#x20de;" horiz-adv-x="3912" 
d="M2286 2048v-2048h-556v1536h-12l-448 -268v472l504 308h512zM444 -832q-168 0 -256 88t-88 256v3024q0 168 88 256t256 88h3024q168 0 256 -88t88 -256v-3024q0 -168 -88 -256t-256 -88h-3024zM436 -512h3040q8 0 12 4.5t4 11.5v3040q0 8 -4 12t-12 4h-3040
q-7 0 -11.5 -4t-4.5 -12v-3040q0 -7 4.5 -11.5t11.5 -4.5z" />
    <glyph glyph-name="uniE140" unicode="&#x32;&#x20de;" horiz-adv-x="3912" 
d="M1190 0v400l764 632q76 63 130.5 118.5t84 114.5t29.5 131q0 79 -33.5 135t-92.5 86.5t-136 30.5t-135.5 -31t-90.5 -91t-32 -146h-528q0 216 97 372t274 240t415 84q246 0 426.5 -78.5t279 -220.5t98.5 -333q0 -118 -49 -234.5t-176 -257.5t-361 -336l-192 -160v-12h800
v-444h-1572zM444 -832q-168 0 -256 88t-88 256v3024q0 168 88 256t256 88h3024q168 0 256 -88t88 -256v-3024q0 -168 -88 -256t-256 -88h-3024zM436 -512h3040q8 0 12 4.5t4 11.5v3040q0 8 -4 12t-12 4h-3040q-7 0 -11.5 -4t-4.5 -12v-3040q0 -7 4.5 -11.5t11.5 -4.5z" />
    <glyph glyph-name="uniE141" unicode="&#x33;&#x20de;" horiz-adv-x="3912" 
d="M1936 -28q-242 0 -429.5 83.5t-294.5 230.5t-108 338h560q1 -59 36.5 -105.5t97.5 -72.5t142 -26q77 0 136 27.5t92 76.5t32 112q1 62 -37.5 110t-107.5 75t-159 27h-208v384h208q83 0 146.5 27t99 75t34.5 110q1 60 -29 106t-83.5 72t-123.5 26q-76 0 -135.5 -27
t-93.5 -75t-35 -110h-532q1 188 103.5 332t281.5 226t411 82q227 0 401.5 -77t273 -211.5t97.5 -307.5q2 -172 -117.5 -282t-302.5 -130v-16q248 -27 373 -151.5t123 -312.5q1 -180 -107.5 -319t-301 -218t-443.5 -79zM444 -832q-168 0 -256 88t-88 256v3024q0 168 88 256
t256 88h3024q168 0 256 -88t88 -256v-3024q0 -168 -88 -256t-256 -88h-3024zM436 -512h3040q8 0 12 4.5t4 11.5v3040q0 8 -4 12t-12 4h-3040q-7 0 -11.5 -4t-4.5 -12v-3040q0 -7 4.5 -11.5t11.5 -4.5z" />
    <glyph glyph-name="uniE142" unicode="&#x34;&#x20de;" horiz-adv-x="3912" 
d="M1034 320v432l824 1296h392v-576h-224l-444 -704v-16h1216v-432h-1764zM2030 0v452l12 188v1408h520v-2048h-532zM444 -832q-168 0 -256 88t-88 256v3024q0 168 88 256t256 88h3024q168 0 256 -88t88 -256v-3024q0 -168 -88 -256t-256 -88h-3024zM436 -512h3040
q8 0 12 4.5t4 11.5v3040q0 8 -4 12t-12 4h-3040q-7 0 -11.5 -4t-4.5 -12v-3040q0 -7 4.5 -11.5t11.5 -4.5z" />
    <glyph glyph-name="uniE143" unicode="&#x35;&#x20de;" horiz-adv-x="3912" 
d="M1950 -28q-236 0 -418.5 83.5t-287 230.5t-106.5 338h540q3 -106 82.5 -169t189.5 -63q85 0 150 36.5t102 103.5t36 156q1 90 -36 156.5t-102 103t-150 36.5q-88 0 -162.5 -42.5t-109.5 -117.5l-488 96l80 1128h1376v-444h-920l-40 -452h12q48 93 166 154.5t274 61.5
q183 0 326.5 -85t227 -234.5t82.5 -344.5q1 -214 -101.5 -379.5t-287.5 -259t-435 -93.5zM444 -832q-168 0 -256 88t-88 256v3024q0 168 88 256t256 88h3024q168 0 256 -88t88 -256v-3024q0 -168 -88 -256t-256 -88h-3024zM436 -512h3040q8 0 12 4.5t4 11.5v3040q0 8 -4 12
t-12 4h-3040q-7 0 -11.5 -4t-4.5 -12v-3040q0 -7 4.5 -11.5t11.5 -4.5z" />
    <glyph glyph-name="uniE144" unicode="&#x36;&#x20de;" horiz-adv-x="3912" 
d="M1970 -28q-179 0 -339 56.5t-283.5 178.5t-194 318t-71.5 475q1 252 64.5 452.5t181 341.5t281.5 215.5t365 74.5q226 0 398 -87.5t274.5 -234.5t119.5 -326h-548q-19 93 -87.5 134.5t-156.5 41.5q-175 0 -256.5 -153t-83.5 -407h12q39 94 118 161t184 103t222 36
q186 0 325.5 -84t217.5 -230t77 -334q1 -220 -103.5 -385t-289.5 -256t-427 -91zM1966 392q83 0 147.5 38t101 104t35.5 150q1 85 -35.5 150.5t-101 103.5t-147.5 38q-61 0 -112.5 -21.5t-89.5 -61t-59.5 -93t-22.5 -116.5q1 -84 38 -150t101 -104t145 -38zM444 -832
q-168 0 -256 88t-88 256v3024q0 168 88 256t256 88h3024q168 0 256 -88t88 -256v-3024q0 -168 -88 -256t-256 -88h-3024zM436 -512h3040q8 0 12 4.5t4 11.5v3040q0 8 -4 12t-12 4h-3040q-7 0 -11.5 -4t-4.5 -12v-3040q0 -7 4.5 -11.5t11.5 -4.5z" />
    <glyph glyph-name="uniE145" unicode="&#x37;&#x20de;" horiz-adv-x="3912" 
d="M1376 0l804 1592v12h-944v444h1520v-444l-808 -1604h-572zM444 -832q-168 0 -256 88t-88 256v3024q0 168 88 256t256 88h3024q168 0 256 -88t88 -256v-3024q0 -168 -88 -256t-256 -88h-3024zM436 -512h3040q8 0 12 4.5t4 11.5v3040q0 8 -4 12t-12 4h-3040q-7 0 -11.5 -4
t-4.5 -12v-3040q0 -7 4.5 -11.5t11.5 -4.5z" />
    <glyph glyph-name="uniE146" unicode="&#x38;&#x20de;" horiz-adv-x="3912" 
d="M1956 -28q-248 0 -442.5 77t-306 209t-111.5 298q0 127 63.5 232t171.5 174.5t241 89.5v16q-175 30 -287.5 155.5t-112.5 296.5q0 161 102 286.5t279 197.5t403 72t403 -72.5t279 -198t102 -285.5q0 -172 -114 -297t-286 -155v-16q132 -20 240 -89.5t172 -174.5t64 -232
q0 -166 -111.5 -298t-306 -209t-442.5 -77zM1956 356q79 0 140 32t96.5 88.5t35.5 127.5t-35.5 126t-96.5 86.5t-140 31.5q-78 0 -139.5 -31.5t-97 -86.5t-35.5 -126t35.5 -127t97 -88.5t139.5 -32.5zM1956 1232q70 0 124 29t85 80t31 115t-31 113.5t-85 78t-124 28.5
q-69 0 -123.5 -28.5t-85.5 -78t-31 -113.5t31 -114.5t85.5 -80t123.5 -29.5zM444 -832q-168 0 -256 88t-88 256v3024q0 168 88 256t256 88h3024q168 0 256 -88t88 -256v-3024q0 -168 -88 -256t-256 -88h-3024zM436 -512h3040q8 0 12 4.5t4 11.5v3040q0 8 -4 12t-12 4h-3040
q-7 0 -11.5 -4t-4.5 -12v-3040q0 -7 4.5 -11.5t11.5 -4.5z" />
    <glyph glyph-name="uniE147" unicode="&#x39;&#x20de;" horiz-adv-x="3912" 
d="M1936 2084q179 0 339 -56.5t283.5 -178.5t194 -318t71.5 -475q-1 -252 -64.5 -452.5t-180.5 -341.5t-281 -215.5t-366 -74.5q-227 0 -399 87t-274 234t-119 327h548q20 -93 88 -134.5t156 -41.5q176 0 257.5 152.5t82.5 407.5h-12q-39 -94 -118 -161t-184 -103t-222 -36
q-185 0 -325 83.5t-218 230t-77 334.5q-1 220 103 384.5t289 256t428 91.5zM1940 1664q-83 0 -147.5 -38t-101 -104t-35.5 -150q-1 -84 35.5 -150t101 -104t147.5 -38q61 0 112.5 22t89.5 61t59.5 92.5t22.5 116.5q-1 84 -38 150t-101 104t-145 38zM444 -832q-168 0 -256 88
t-88 256v3024q0 168 88 256t256 88h3024q168 0 256 -88t88 -256v-3024q0 -168 -88 -256t-256 -88h-3024zM436 -512h3040q8 0 12 4.5t4 11.5v3040q0 8 -4 12t-12 4h-3040q-7 0 -11.5 -4t-4.5 -12v-3040q0 -7 4.5 -11.5t11.5 -4.5z" />
    <glyph glyph-name="uniE148" unicode="&#xe06b;&#x20de;" horiz-adv-x="3912" 
d="M2252 1824l188 -72l-788 -1520l-180 80zM1956 -52q-279 1 -482 129t-313 369t-109 578q1 338 110.5 574t312 359t481.5 123t482 -123.5t313 -359.5t109 -573q0 -339 -110 -580t-312.5 -368.5t-481.5 -127.5zM1956 400q144 0 236.5 150.5t91.5 473.5q0 211 -42 345
t-116 198.5t-170 64.5q-144 0 -235 -146t-93 -462q-1 -215 41 -353.5t116.5 -204.5t170.5 -66zM444 -832q-168 0 -256 88t-88 256v3024q0 168 88 256t256 88h3024q168 0 256 -88t88 -256v-3024q0 -168 -88 -256t-256 -88h-3024zM436 -512h3040q8 0 12 4.5t4 11.5v3040
q0 8 -4 12t-12 4h-3040q-7 0 -11.5 -4t-4.5 -12v-3040q0 -7 4.5 -11.5t11.5 -4.5z" />
    <glyph glyph-name="uniE149" unicode="&#xe06c;&#x20de;" horiz-adv-x="3912" 
d="M2318 2048v-2048h-556v1404h-20q-28 -37 -81.5 -72t-134.5 -57.5t-192 -22.5v436q86 0 162.5 28.5t135.5 78.5t92.5 115t33.5 138h560zM444 -832q-168 0 -256 88t-88 256v3024q0 168 88 256t256 88h3024q168 0 256 -88t88 -256v-3024q0 -168 -88 -256t-256 -88h-3024z
M436 -512h3040q8 0 12 4.5t4 11.5v3040q0 8 -4 12t-12 4h-3040q-7 0 -11.5 -4t-4.5 -12v-3040q0 -7 4.5 -11.5t11.5 -4.5z" />
    <glyph glyph-name="uniE14A" unicode="&#xe06d;&#x20de;" horiz-adv-x="3912" 
d="M1094 624h560q2 -59 39 -105.5t99 -72.5t138 -26q80 0 138.5 28.5t90 77.5t31.5 110q0 67 -37.5 114.5t-103.5 72.5t-151 25h-260v368l416 376v12h-856v444h1516v-400l-552 -484v-16q182 -22 301.5 -80t188 -137.5t97.5 -168.5t29 -174q0 -186 -112.5 -324.5t-304.5 -215
t-431 -76.5q-253 0 -440 84t-290.5 231t-105.5 337zM444 -832q-168 0 -256 88t-88 256v3024q0 168 88 256t256 88h3024q168 0 256 -88t88 -256v-3024q0 -168 -88 -256t-256 -88h-3024zM436 -512h3040q8 0 12 4.5t4 11.5v3040q0 8 -4 12t-12 4h-3040q-7 0 -11.5 -4t-4.5 -12
v-3040q0 -7 4.5 -11.5t11.5 -4.5z" />
    <glyph glyph-name="uniE14B" unicode="&#xe06e;&#x20de;" horiz-adv-x="3912" 
d="M1034 320v432l728 1296h532l-712 -1280v-16h1216v-432h-1764zM2030 0v448l20 192v640h500v-1280h-520zM444 -832q-168 0 -256 88t-88 256v3024q0 168 88 256t256 88h3024q168 0 256 -88t88 -256v-3024q0 -168 -88 -256t-256 -88h-3024zM436 -512h3040q8 0 12 4.5t4 11.5
v3040q0 8 -4 12t-12 4h-3040q-7 0 -11.5 -4t-4.5 -12v-3040q0 -7 4.5 -11.5t11.5 -4.5z" />
    <glyph glyph-name="uniE14C" unicode="&#xe06f;&#x20de;" horiz-adv-x="3912" 
d="M1148 676q0 116 29 225.5t83 216t128 214.5l484 716h544l-468 -688q39 6 81 11t87 5q190 0 336 -84t229 -235t83 -353q0 -224 -103 -388.5t-283 -254t-410 -89.5q-216 0 -403 78.5t-302 235t-115 390.5zM1696 680q0 -84 33.5 -149t94 -102t140.5 -37q78 0 137.5 37
t93 102t33.5 149t-34.5 149t-94 102t-135.5 37q-80 0 -140.5 -37t-94 -102t-33.5 -149zM444 -832q-168 0 -256 88t-88 256v3024q0 168 88 256t256 88h3024q168 0 256 -88t88 -256v-3024q0 -168 -88 -256t-256 -88h-3024zM436 -512h3040q8 0 12 4.5t4 11.5v3040q0 8 -4 12
t-12 4h-3040q-7 0 -11.5 -4t-4.5 -12v-3040q0 -7 4.5 -11.5t11.5 -4.5z" />
    <glyph glyph-name="uniE14D" unicode="&#xe070;&#x20de;" horiz-adv-x="3912" 
d="M1148 1344q0 224 102.5 388.5t282 254t411.5 89.5q214 0 401 -77.5t303 -234t116 -392.5q0 -116 -30 -225.5t-84 -216t-126 -214.5l-484 -716h-544l468 692q-39 -9 -81 -14.5t-87 -5.5q-192 0 -338 84t-228 235t-82 353zM1684 1368q0 -84 33.5 -149t93 -102t137.5 -37
t138.5 37t95 102t34.5 149t-34.5 149t-95 102t-138.5 37t-137.5 -37t-93 -102t-33.5 -149zM444 -832q-168 0 -256 88t-88 256v3024q0 168 88 256t256 88h3024q168 0 256 -88t88 -256v-3024q0 -168 -88 -256t-256 -88h-3024zM436 -512h3040q8 0 12 4.5t4 11.5v3040q0 8 -4 12
t-12 4h-3040q-7 0 -11.5 -4t-4.5 -12v-3040q0 -7 4.5 -11.5t11.5 -4.5z" />
    <glyph glyph-name="uniE14E" unicode="&#x21;&#x20de;" horiz-adv-x="3912" 
d="M2236 2048l-52 -1408h-456l-52 1408h560zM1956 -32q-116 0 -198.5 81.5t-81.5 198.5q-1 114 81.5 195t198.5 81q110 0 194.5 -81t85.5 -195q-1 -78 -40.5 -141.5t-102.5 -101t-137 -37.5zM444 -832q-168 0 -256 88t-88 256v3024q0 168 88 256t256 88h3024q168 0 256 -88
t88 -256v-3024q0 -168 -88 -256t-256 -88h-3024zM436 -512h3040q8 0 12 4.5t4 11.5v3040q0 8 -4 12t-12 4h-3040q-7 0 -11.5 -4t-4.5 -12v-3040q0 -7 4.5 -11.5t11.5 -4.5z" />
    <glyph glyph-name="uniE14F" unicode="&#x3f;&#x20de;" horiz-adv-x="3912" 
d="M1686 640v48q0 165 26 263t77 157.5t125 107.5q64 42 114.5 81t80 83t29.5 100q0 50 -24 88t-65 59t-91 21q-54 0 -99.5 -25t-73 -69t-27.5 -102h-512q2 220 100 357.5t260 202t356 64.5q214 0 382 -62.5t265 -188t97 -313.5q0 -121 -41.5 -212.5t-115 -161
t-171.5 -126.5q-72 -42 -121 -86.5t-74 -101t-25 -136.5v-48h-472zM1930 -32q-116 0 -198.5 81.5t-81.5 198.5q-1 114 81.5 195t198.5 81q110 0 194.5 -81t85.5 -195q-1 -78 -40.5 -141.5t-102.5 -101t-137 -37.5zM444 -832q-168 0 -256 88t-88 256v3024q0 168 88 256
t256 88h3024q168 0 256 -88t88 -256v-3024q0 -168 -88 -256t-256 -88h-3024zM436 -512h3040q8 0 12 4.5t4 11.5v3040q0 8 -4 12t-12 4h-3040q-7 0 -11.5 -4t-4.5 -12v-3040q0 -7 4.5 -11.5t11.5 -4.5z" />
    <glyph glyph-name="uniE150" unicode="&#x23;&#x20de;" horiz-adv-x="3912" 
d="M1948 0l336 2048h400l-336 -2048h-400zM1040 468l68 400h1648l-68 -400h-1648zM1228 0l336 2048h400l-336 -2048h-400zM1156 1180l68 400h1648l-68 -400h-1648zM444 -832q-168 0 -256 88t-88 256v3024q0 168 88 256t256 88h3024q168 0 256 -88t88 -256v-3024
q0 -168 -88 -256t-256 -88h-3024zM436 -512h3040q8 0 12 4.5t4 11.5v3040q0 8 -4 12t-12 4h-3040q-7 0 -11.5 -4t-4.5 -12v-3040q0 -7 4.5 -11.5t11.5 -4.5z" />
    <glyph glyph-name="uniE151" unicode="&#x2d;&#x20de;" horiz-adv-x="3912" 
d="M2436 1232v-416h-960v416h960zM444 -832q-168 0 -256 88t-88 256v3024q0 168 88 256t256 88h3024q168 0 256 -88t88 -256v-3024q0 -168 -88 -256t-256 -88h-3024zM436 -512h3040q8 0 12 4.5t4 11.5v3040q0 8 -4 12t-12 4h-3040q-7 0 -11.5 -4t-4.5 -12v-3040
q0 -7 4.5 -11.5t11.5 -4.5z" />
    <glyph glyph-name="uniE152" unicode="&#x3c;&#x20de;" horiz-adv-x="3912" 
d="M1172 784v480l1488 596v-504l-948 -328l16 24v-56l-16 24l948 -328v-504zM444 -832q-168 0 -256 88t-88 256v3024q0 168 88 256t256 88h3024q168 0 256 -88t88 -256v-3024q0 -168 -88 -256t-256 -88h-3024zM436 -512h3040q8 0 12 4.5t4 11.5v3040q0 8 -4 12t-12 4h-3040
q-7 0 -11.5 -4t-4.5 -12v-3040q0 -7 4.5 -11.5t11.5 -4.5z" />
    <glyph glyph-name="uniE153" unicode="&#x3e;&#x20de;" horiz-adv-x="3912" 
d="M2740 784l-1488 -596v504l948 328l-16 -24v56l16 -24l-948 328v504l1488 -596v-480zM444 -832q-168 0 -256 88t-88 256v3024q0 168 88 256t256 88h3024q168 0 256 -88t88 -256v-3024q0 -168 -88 -256t-256 -88h-3024zM436 -512h3040q8 0 12 4.5t4 11.5v3040q0 8 -4 12
t-12 4h-3040q-7 0 -11.5 -4t-4.5 -12v-3040q0 -7 4.5 -11.5t11.5 -4.5z" />
    <glyph glyph-name="uniE154" unicode="&#x3d;&#x20de;" horiz-adv-x="3912" 
d="M1216 1156v448h1480v-448h-1480zM1216 444v448h1480v-448h-1480zM444 -832q-168 0 -256 88t-88 256v3024q0 168 88 256t256 88h3024q168 0 256 -88t88 -256v-3024q0 -168 -88 -256t-256 -88h-3024zM436 -512h3040q8 0 12 4.5t4 11.5v3040q0 8 -4 12t-12 4h-3040
q-7 0 -11.5 -4t-4.5 -12v-3040q0 -7 4.5 -11.5t11.5 -4.5z" />
    <glyph glyph-name="uniE155" unicode="&#x2b;&#x20de;" horiz-adv-x="3912" 
d="M1732 280v1480h448v-1480h-448zM1216 796v448h1480v-448h-1480zM444 -832q-168 0 -256 88t-88 256v3024q0 168 88 256t256 88h3024q168 0 256 -88t88 -256v-3024q0 -168 -88 -256t-256 -88h-3024zM436 -512h3040q8 0 12 4.5t4 11.5v3040q0 8 -4 12t-12 4h-3040
q-7 0 -11.5 -4t-4.5 -12v-3040q0 -7 4.5 -11.5t11.5 -4.5z" />
    <glyph glyph-name="uniE156" unicode="&#x2212;&#x20de;" horiz-adv-x="3912" 
d="M2696 1248v-448h-1480v448h1480zM444 -832q-168 0 -256 88t-88 256v3024q0 168 88 256t256 88h3024q168 0 256 -88t88 -256v-3024q0 -168 -88 -256t-256 -88h-3024zM436 -512h3040q8 0 12 4.5t4 11.5v3040q0 8 -4 12t-12 4h-3040q-7 0 -11.5 -4t-4.5 -12v-3040
q0 -7 4.5 -11.5t11.5 -4.5z" />
    <glyph glyph-name="uniE157" unicode="&#xd7;&#x20de;" horiz-adv-x="3912" 
d="M2408 228l-1240 1236l336 340l1240 -1240zM1504 228l-336 336l1240 1240l336 -340zM444 -832q-168 0 -256 88t-88 256v3024q0 168 88 256t256 88h3024q168 0 256 -88t88 -256v-3024q0 -168 -88 -256t-256 -88h-3024zM436 -512h3040q8 0 12 4.5t4 11.5v3040q0 8 -4 12
t-12 4h-3040q-7 0 -11.5 -4t-4.5 -12v-3040q0 -7 4.5 -11.5t11.5 -4.5z" />
    <glyph glyph-name="uniE158" unicode="&#xf7;&#x20de;" horiz-adv-x="3912" 
d="M2696 1232v-416h-1480v416h1480zM1956 160q-118 0 -201 83t-83 201q0 116 83 198t201 82q116 0 198 -82t82 -198q0 -118 -82 -201t-198 -83zM1956 1324q-78 0 -142.5 38.5t-103 103t-38.5 142.5q0 117 83.5 198.5t200.5 81.5t198.5 -81.5t81.5 -198.5t-81.5 -200.5
t-198.5 -83.5zM444 -832q-168 0 -256 88t-88 256v3024q0 168 88 256t256 88h3024q168 0 256 -88t88 -256v-3024q0 -168 -88 -256t-256 -88h-3024zM436 -512h3040q8 0 12 4.5t4 11.5v3040q0 8 -4 12t-12 4h-3040q-7 0 -11.5 -4t-4.5 -12v-3040q0 -7 4.5 -11.5t11.5 -4.5z" />
    <glyph glyph-name="uniE159" unicode="&#x2191;&#x20de;" horiz-adv-x="3912" 
d="M1750 0v1286l-468 -470l-286 284l962 960l960 -960l-282 -284l-470 470v-1286h-416zM444 -832q-168 0 -256 88t-88 256v3024q0 168 88 256t256 88h3024q168 0 256 -88t88 -256v-3024q0 -168 -88 -256t-256 -88h-3024zM436 -512h3040q8 0 12 4.5t4 11.5v3040q0 8 -4 12
t-12 4h-3040q-7 0 -11.5 -4t-4.5 -12v-3040q0 -7 4.5 -11.5t11.5 -4.5z" />
    <glyph glyph-name="uniE15A" unicode="&#x2193;&#x20de;" horiz-adv-x="3912" 
d="M2164 2048v-1286l468 470l286 -284l-962 -960l-960 960l282 284l470 -470v1286h416zM444 -832q-168 0 -256 88t-88 256v3024q0 168 88 256t256 88h3024q168 0 256 -88t88 -256v-3024q0 -168 -88 -256t-256 -88h-3024zM436 -512h3040q8 0 12 4.5t4 11.5v3040q0 8 -4 12
t-12 4h-3040q-7 0 -11.5 -4t-4.5 -12v-3040q0 -7 4.5 -11.5t11.5 -4.5z" />
    <glyph glyph-name="uniE15B" unicode="&#x2190;&#x20de;" horiz-adv-x="3912" 
d="M2010 -58l-1082 1082l1082 1082l284 -282l-592 -592h1284v-416h-1284l592 -592zM444 -832q-168 0 -256 88t-88 256v3024q0 168 88 256t256 88h3024q168 0 256 -88t88 -256v-3024q0 -168 -88 -256t-256 -88h-3024zM436 -512h3040q8 0 12 4.5t4 11.5v3040q0 8 -4 12t-12 4
h-3040q-7 0 -11.5 -4t-4.5 -12v-3040q0 -7 4.5 -11.5t11.5 -4.5z" />
    <glyph glyph-name="uniE15C" unicode="&#x2192;&#x20de;" horiz-adv-x="3912" 
d="M1904 -58l-284 282l592 592h-1284v416h1284l-592 592l284 282l1082 -1082zM444 -832q-168 0 -256 88t-88 256v3024q0 168 88 256t256 88h3024q168 0 256 -88t88 -256v-3024q0 -168 -88 -256t-256 -88h-3024zM436 -512h3040q8 0 12 4.5t4 11.5v3040q0 8 -4 12t-12 4h-3040
q-7 0 -11.5 -4t-4.5 -12v-3040q0 -7 4.5 -11.5t11.5 -4.5z" />
    <glyph glyph-name="uniE15D" unicode="&#x2713;&#x20de;" horiz-adv-x="3912" 
d="M912 936l368 368l420 -412l984 980l368 -368l-1352 -1344zM444 -832q-168 0 -256 88t-88 256v3024q0 168 88 256t256 88h3024q168 0 256 -88t88 -256v-3024q0 -168 -88 -256t-256 -88h-3024zM436 -512h3040q8 0 12 4.5t4 11.5v3040q0 8 -4 12t-12 4h-3040q-7 0 -11.5 -4
t-4.5 -12v-3040q0 -7 4.5 -11.5t11.5 -4.5z" />
    <glyph glyph-name="uniE15E" unicode="&#x2717;&#x20de;" horiz-adv-x="3912" 
d="M1472 174l-368 368l1340 1332l368 -368zM2440 174l-1340 1332l368 368l1340 -1332zM444 -832q-168 0 -256 88t-88 256v3024q0 168 88 256t256 88h3024q168 0 256 -88t88 -256v-3024q0 -168 -88 -256t-256 -88h-3024zM436 -512h3040q8 0 12 4.5t4 11.5v3040q0 8 -4 12
t-12 4h-3040q-7 0 -11.5 -4t-4.5 -12v-3040q0 -7 4.5 -11.5t11.5 -4.5z" />
    <glyph glyph-name=".notdef" horiz-adv-x="3060" 
d="M320 -640v512h2420v-512h-2420zM320 1472v512h2420v-512h-2420zM320 2176v512h2420v-512h-2420zM320 64v512h2420v-512h-2420zM320 768v512h2420v-512h-2420z" />
    <glyph glyph-name=".null" 
 />
    <glyph glyph-name="uni0041" unicode="A" horiz-adv-x="2240" 
d="M664 0h-600l676 2048h760l676 -2048h-600l-448 1484h-16zM552 808h1128v-416h-1128v416z" />
    <glyph glyph-name="uni00C4" unicode="&#xc4;" horiz-adv-x="2240" 
d="M664 0h-600l676 2048h760l676 -2048h-600l-448 1484h-16zM552 808h1128v-416h-1128v416zM804 2228q-102 0 -173 68t-71 164t71 164t173 68q99 0 169.5 -68t70.5 -164t-70.5 -164t-169.5 -68zM1440 2228q-102 0 -173 68t-71 164t71 164t173 68q99 0 169.5 -68t70.5 -164
t-70.5 -164t-169.5 -68z" />
    <glyph glyph-name="uni00C3" unicode="&#xc3;" horiz-adv-x="2240" 
d="M664 0h-600l676 2048h760l676 -2048h-600l-448 1484h-16zM552 808h1128v-416h-1128v416zM848 2248h-272q0 216 99 321.5t241 106.5q78 0 132.5 -24.5t95.5 -57.5t74.5 -57.5t69.5 -24.5q58 1 82.5 42t25.5 114h268q-3 -212 -101.5 -321t-238.5 -111q-78 -1 -132.5 24
t-94 57.5t-73.5 57.5t-72 25q-48 0 -76 -38.5t-28 -113.5z" />
    <glyph glyph-name="uni00C0" unicode="&#xc0;" horiz-adv-x="2240" 
d="M664 0h-600l676 2048h760l676 -2048h-600l-448 1484h-16zM552 808h1128v-416h-1128v416zM940 2240l-300 448h472l192 -448h-364z" />
    <glyph glyph-name="uni00C1" unicode="&#xc1;" horiz-adv-x="2240" 
d="M664 0h-600l676 2048h760l676 -2048h-600l-448 1484h-16zM552 808h1128v-416h-1128v416zM936 2240l192 448h472l-300 -448h-364z" />
    <glyph glyph-name="uni00C2" unicode="&#xc2;" horiz-adv-x="2240" 
d="M664 0h-600l676 2048h760l676 -2048h-600l-448 1484h-16zM552 808h1128v-416h-1128v416zM924 2230h-456v12l460 456h384l460 -456v-12h-456l-196 220z" />
    <glyph glyph-name="uni00C5" unicode="&#xc5;" horiz-adv-x="2240" 
d="M664 0h-600l676 2048h760l676 -2048h-600l-448 1484h-16zM552 808h1128v-416h-1128v416zM1120 2140q-88 0 -161 41.5t-116 111.5t-43 155t43 155t116 111.5t161 41.5q89 0 161.5 -41.5t115.5 -111.5t43 -155t-43 -155t-115.5 -111.5t-161.5 -41.5zM1120 2328q52 1 90 36
t38 85q0 49 -37.5 84.5t-90.5 34.5q-52 -1 -90 -35.5t-38 -84.5q0 -49 37.5 -85t90.5 -35z" />
    <glyph glyph-name="uni0100" unicode="&#x100;" horiz-adv-x="2240" 
d="M664 0h-600l676 2048h760l676 -2048h-600l-448 1484h-16zM552 808h1128v-416h-1128v416zM1620 2560v-252h-1000v252h1000z" />
    <glyph glyph-name="uni0102" unicode="&#x102;" horiz-adv-x="2240" 
d="M664 0h-600l676 2048h760l676 -2048h-600l-448 1484h-16zM552 808h1128v-416h-1128v416zM1320 2600h348q-1 -195 -149 -311.5t-399 -116.5q-253 0 -401 116.5t-147 311.5h344q-1 -63 45.5 -115.5t158.5 -52.5q107 0 153 51t47 117z" />
    <glyph glyph-name="uni0104" unicode="&#x104;" horiz-adv-x="2240" 
d="M664 0h-600l676 2048h760l676 -2048h-600l-448 1484h-16zM552 808h1128v-416h-1128v416zM1976 -556q-139 0 -234.5 69t-133.5 195q-26 86 -20.5 175t40 158t92.5 95l456 -136q-97 -30 -149 -65t-51 -95q-1 -51 25.5 -77.5t66.5 -26.5q26 0 45.5 6.5t38.5 9.5l64 -248
q-40 -21 -100 -40.5t-140 -19.5z" />
    <glyph glyph-name="uni01CD" unicode="&#x1cd;" horiz-adv-x="2240" 
d="M664 0h-600l676 2048h760l676 -2048h-600l-448 1484h-16zM552 808h1128v-416h-1128v416zM924 2700l196 -220l196 220h456v-12l-460 -456h-384l-460 456v12h456z" />
    <glyph glyph-name="uni01DE" unicode="&#x1de;" horiz-adv-x="2240" 
d="M664 0h-600l676 2048h760l676 -2048h-600l-448 1484h-16zM552 808h1128v-416h-1128v416zM804 2228q-102 0 -173 68t-71 164t71 164t173 68q99 0 169.5 -68t70.5 -164t-70.5 -164t-169.5 -68zM1440 2228q-102 0 -173 68t-71 164t71 164t173 68q99 0 169.5 -68t70.5 -164
t-70.5 -164t-169.5 -68zM1620 3072v-252h-1000v252h1000z" />
    <glyph glyph-name="uni01E0" unicode="&#x1e0;" horiz-adv-x="2240" 
d="M664 0h-600l676 2048h760l676 -2048h-600l-448 1484h-16zM552 808h1128v-416h-1128v416zM1121 2652q-113 0 -193 74t-80 178t80 178t192 74q113 0 192.5 -74t79.5 -178t-79.5 -178t-191.5 -74zM1678 3480v-252h-1000v252h1000z" />
    <glyph glyph-name="uni01FA" unicode="&#x1fa;" horiz-adv-x="2240" 
d="M664 0h-600l676 2048h760l676 -2048h-600l-448 1484h-16zM552 808h1128v-416h-1128v416zM1120 2148q-108 0 -186 73t-78 175t78 175t186 73q111 0 187.5 -73t76.5 -175t-76.5 -175t-187.5 -73zM1120 2300q42 0 71 28.5t29 67.5q0 36 -29 64t-71 28t-71 -28t-29 -64
q0 -39 29 -67.5t71 -28.5zM944 2760l320 316h444l-440 -316h-324z" />
    <glyph glyph-name="uni0200" unicode="&#x200;" horiz-adv-x="2240" 
d="M664 0h-600l676 2048h760l676 -2048h-600l-448 1484h-16zM552 808h1128v-416h-1128v416zM1050 2240h-364l-300 448h472zM1582 2240h-354l-194 448h446z" />
    <glyph glyph-name="uni0202" unicode="&#x202;" horiz-adv-x="2240" 
d="M664 0h-600l676 2048h760l676 -2048h-600l-448 1484h-16zM552 808h1128v-416h-1128v416zM568 2288q-1 195 147 319.5t401 124.5q251 0 401 -124.5t151 -319.5h-348q-1 63 -47.5 113.5t-156.5 50.5q-109 0 -155 -50.5t-45 -113.5h-348z" />
    <glyph glyph-name="uni0226" unicode="&#x226;" horiz-adv-x="2240" 
d="M664 0h-600l676 2048h760l676 -2048h-600l-448 1484h-16zM552 808h1128v-416h-1128v416zM1121 2208q-113 0 -193 74t-80 178t80 178t192 74q113 0 192.5 -74t79.5 -178t-79.5 -178t-191.5 -74z" />
    <glyph glyph-name="uni1E00" unicode="&#x1e00;" horiz-adv-x="2240" 
d="M664 0h-600l676 2048h760l676 -2048h-600l-448 1484h-16zM552 808h1128v-416h-1128v416zM840 -296q0 96 80.5 166t203.5 70q117 0 196.5 -70t79.5 -166q0 -105 -79.5 -172.5t-196.5 -67.5q-123 0 -203.5 69t-80.5 171zM1024 -296q0 -42 27.5 -67t72.5 -25q39 0 63.5 25
t24.5 67q0 36 -24.5 60t-63.5 24q-45 0 -72.5 -24t-27.5 -60z" />
    <glyph glyph-name="uni1EA0" unicode="&#x1ea0;" horiz-adv-x="2240" 
d="M664 0h-600l676 2048h760l676 -2048h-600l-448 1484h-16zM552 808h1128v-416h-1128v416zM1121 -620q-113 0 -193 74t-80 178t80 178t192 74q113 0 192.5 -74t79.5 -178t-79.5 -178t-191.5 -74z" />
    <glyph glyph-name="uni1EA2" unicode="&#x1ea2;" horiz-adv-x="2240" 
d="M664 0h-600l676 2048h760l676 -2048h-600l-448 1484h-16zM552 808h1128v-416h-1128v416zM1312 2276h-396l-36 156q107 3 152.5 27t43.5 57q2 54 -51.5 69t-136.5 15l12 220q308 0 469 -72t159 -204q2 -84 -65.5 -130t-150.5 -58v-80z" />
    <glyph glyph-name="uni1EA4" unicode="&#x1ea4;" horiz-adv-x="2240" 
d="M664 0h-600l676 2048h760l676 -2048h-600l-448 1484h-16zM552 808h1128v-416h-1128v416zM596 2200l400 276h236l404 -276h-320l-200 140l-204 -140h-316zM1532 2332l260 384h356l-352 -384h-264z" />
    <glyph glyph-name="uni1EA6" unicode="&#x1ea6;" horiz-adv-x="2240" 
d="M664 0h-600l676 2048h760l676 -2048h-600l-448 1484h-16zM552 808h1128v-416h-1128v416zM1236 2468l404 -276h-320l-200 140l-204 -140h-316l400 276h236zM440 2704l264 -380h-260l-352 380h348z" />
    <glyph glyph-name="uni1EA8" unicode="&#x1ea8;" horiz-adv-x="2240" 
d="M664 0h-600l676 2048h760l676 -2048h-600l-448 1484h-16zM552 808h1128v-416h-1128v416zM1228 2476l404 -276h-324l-188 124l-196 -124h-324l404 276h224zM1756 2364h-256l-32 128q87 3 125.5 22t38.5 46q0 45 -45.5 58.5t-114.5 13.5l12 180q219 0 335.5 -58.5
t116.5 -169.5q0 -66 -57 -105t-123 -51v-64z" />
    <glyph glyph-name="uni1EAA" unicode="&#x1eaa;" horiz-adv-x="2240" 
d="M664 0h-600l676 2048h760l676 -2048h-600l-448 1484h-16zM552 808h1128v-416h-1128v416zM1248 2500l392 -288h-324l-196 140l-188 -140h-332l396 288h252zM1320 2832l172 -64q-1 -81 -42.5 -148.5t-121.5 -67.5q-45 0 -87 12.5t-81 29.5t-75.5 29.5t-72.5 12.5
q-28 0 -36.5 -26.5t-7.5 -65.5l-168 48q-1 75 40.5 141.5t123.5 66.5q36 0 76.5 -12t82.5 -28t82 -28t75 -12q23 0 31 36.5t9 75.5z" />
    <glyph glyph-name="uni1EAC" unicode="&#x1eac;" horiz-adv-x="2240" 
d="M664 0h-600l676 2048h760l676 -2048h-600l-448 1484h-16zM552 808h1128v-416h-1128v416zM924 2230h-456v12l460 456h384l460 -456v-12h-456l-196 220zM1121 -620q-113 0 -193 74t-80 178t80 178t192 74q113 0 192.5 -74t79.5 -178t-79.5 -178t-191.5 -74z" />
    <glyph glyph-name="uni1EAE" unicode="&#x1eae;" horiz-adv-x="2240" 
d="M664 0h-600l676 2048h760l676 -2048h-600l-448 1484h-16zM552 808h1128v-416h-1128v416zM1356 2548h312q-1 -159 -151 -257.5t-401 -98.5q-250 0 -397.5 98.5t-146.5 257.5h304q-1 -57 54.5 -106.5t185.5 -49.5q131 0 185 49.5t55 106.5zM976 2524l196 244h340l-264 -244
h-272z" />
    <glyph glyph-name="uni1EB0" unicode="&#x1eb0;" horiz-adv-x="2240" 
d="M664 0h-600l676 2048h760l676 -2048h-600l-448 1484h-16zM552 808h1128v-416h-1128v416zM1356 2552h312q-1 -153 -149.5 -252.5t-402.5 -99.5q-250 0 -397.5 99.5t-146.5 252.5h304q-1 -57 54.5 -106.5t185.5 -49.5q128 0 183.5 49.5t56.5 106.5zM1000 2524l-268 244h340
l192 -244h-264z" />
    <glyph glyph-name="uni1EB2" unicode="&#x1eb2;" horiz-adv-x="2240" 
d="M664 0h-600l676 2048h760l676 -2048h-600l-448 1484h-16zM552 808h1128v-416h-1128v416zM1360 2504h316q2 -159 -151 -253.5t-413 -94.5q-259 0 -408.5 94.5t-151.5 253.5h312q2 -60 60 -100t188 -40q134 0 192 41.5t56 98.5zM1248 2560h-308l-40 120q104 3 151 19.5
t45 40.5q2 48 -51.5 60t-136.5 12l12 172q269 0 407.5 -56t136.5 -164q2 -69 -65.5 -104t-150.5 -44v-56z" />
    <glyph glyph-name="uni1EB4" unicode="&#x1eb4;" horiz-adv-x="2240" 
d="M664 0h-600l676 2048h760l676 -2048h-600l-448 1484h-16zM552 808h1128v-416h-1128v416zM1352 2504h312q-1 -159 -151 -255.5t-401 -96.5q-250 0 -399.5 96.5t-148.5 255.5h308q-1 -57 53 -96.5t187 -39.5q125 0 182 38t58 98zM1324 2948l212 -64q-1 -96 -67.5 -172
t-164.5 -76q-76 0 -133 21t-108 42t-111 21q-34 0 -61.5 -32.5t-26.5 -83.5l-204 60q-1 99 64 173.5t168 74.5q45 0 88 -12.5t86 -29.5t87 -29.5t91 -12.5q29 0 54 34.5t26 85.5z" />
    <glyph glyph-name="uni1EB6" unicode="&#x1eb6;" horiz-adv-x="2240" 
d="M664 0h-600l676 2048h760l676 -2048h-600l-448 1484h-16zM552 808h1128v-416h-1128v416zM1320 2600h348q-1 -195 -149 -311.5t-399 -116.5q-253 0 -401 116.5t-147 311.5h344q-1 -63 45.5 -115.5t158.5 -52.5q107 0 153 51t47 117zM1121 -620q-113 0 -193 74t-80 178
t80 178t192 74q113 0 192.5 -74t79.5 -178t-79.5 -178t-191.5 -74z" />
    <glyph glyph-name="uni0391" unicode="&#x391;" horiz-adv-x="2240" 
d="M664 0h-600l676 2048h760l676 -2048h-600l-448 1484h-16zM552 808h1128v-416h-1128v416z" />
    <glyph glyph-name="uni0386" unicode="&#x386;" horiz-adv-x="2240" 
d="M664 0h-600l676 2048h760l676 -2048h-600l-448 1484h-16zM552 808h1128v-416h-1128v416zM76 1728l132 480h464l-288 -480h-308z" />
    <glyph glyph-name="uni1F08" unicode="&#x1f08;" horiz-adv-x="2240" 
d="M664 0h-600l676 2048h760l676 -2048h-600l-448 1484h-16zM552 808h1128v-416h-1128v416zM520 2048v-144q0 -90 -31 -160.5t-81 -119t-108 -72.5l-124 152q44 20 67.5 51t32 71t8.5 86v136h236z" />
    <glyph glyph-name="uni1F09" unicode="&#x1f09;" horiz-adv-x="2240" 
d="M664 0h-600l676 2048h760l676 -2048h-600l-448 1484h-16zM552 808h1128v-416h-1128v416zM240 1904v144h240v-136q1 -36 8 -76t29 -75t67 -57l-124 -152q-85 36 -151.5 126.5t-68.5 225.5z" />
    <glyph glyph-name="uni1F0A" unicode="&#x1f0a;" horiz-adv-x="2240" 
d="M664 0h-600l676 2048h760l676 -2048h-600l-448 1484h-16zM552 808h1128v-416h-1128v416zM632 1604v-20h-136l-332 436v28h304zM100 2048v-112q1 -80 -31 -151t-92 -130t-145 -103l-112 84q58 63 87.5 137.5t28.5 170.5v104h264z" />
    <glyph glyph-name="uni1F0B" unicode="&#x1f0b;" horiz-adv-x="2240" 
d="M664 0h-600l676 2048h760l676 -2048h-600l-448 1484h-16zM552 808h1128v-416h-1128v416zM616 1620v-40h-136l-332 440v28h308zM-220 1904v144h244v-136q-1 -54 15.5 -114.5t92.5 -93.5l-124 -152q-94 36 -161.5 126.5t-66.5 225.5z" />
    <glyph glyph-name="uni1F0C" unicode="&#x1f0c;" horiz-adv-x="2240" 
d="M664 0h-600l676 2048h760l676 -2048h-600l-448 1484h-16zM552 808h1128v-416h-1128v416zM144 1580v40l164 428h304v-28l-332 -440h-136zM88 2048v-144q-1 -88 -32.5 -158.5t-83 -120t-112.5 -73.5l-124 152q74 33 90.5 93.5t17.5 114.5v136h244z" />
    <glyph glyph-name="uni1F0D" unicode="&#x1f0d;" horiz-adv-x="2240" 
d="M664 0h-600l676 2048h760l676 -2048h-600l-448 1484h-16zM552 808h1128v-416h-1128v416zM140 1580v40l156 428h308v-28l-336 -440h-128zM-300 1904v144h240v-136q1 -69 20 -123.5t84 -84.5l-124 -152q-80 33 -149.5 122t-70.5 230z" />
    <glyph glyph-name="uni1F0E" unicode="&#x1f0e;" horiz-adv-x="2240" 
d="M664 0h-600l676 2048h760l676 -2048h-600l-448 1484h-16zM552 808h1128v-416h-1128v416zM600 2400l208 -64q0 -99 -65 -173.5t-167 -74.5q-55 0 -99.5 13.5t-83.5 30.5t-78.5 30.5t-86.5 13.5q-39 0 -61.5 -36t-22.5 -84l-208 60q0 99 65 175.5t167 76.5q45 0 88.5 -12.5
t87 -29.5t86.5 -29.5t86 -12.5q36 0 60 34t24 82zM512 2016v-120q0 -120 -69.5 -190.5t-162.5 -97.5l-108 124q72 21 88 74.5t16 101.5v108h236z" />
    <glyph glyph-name="uni1F0F" unicode="&#x1f0f;" horiz-adv-x="2240" 
d="M664 0h-600l676 2048h760l676 -2048h-600l-448 1484h-16zM552 808h1128v-416h-1128v416zM224 1896v120h236v-108q0 -48 16 -101.5t88 -74.5l-112 -124q-81 24 -154.5 93t-73.5 195zM544 2400l208 -64q0 -99 -65 -173.5t-167 -74.5q-55 0 -99.5 13.5t-83.5 30.5
t-78.5 30.5t-86.5 13.5q-39 0 -61.5 -36t-22.5 -84l-208 60q0 99 65 175.5t167 76.5q45 0 88.5 -12.5t87 -29.5t86.5 -29.5t86 -12.5q36 0 60 34t24 82z" />
    <glyph glyph-name="uni1FB8" unicode="&#x1fb8;" horiz-adv-x="2240" 
d="M664 0h-600l676 2048h760l676 -2048h-600l-448 1484h-16zM552 808h1128v-416h-1128v416zM1320 2600h348q-1 -195 -149 -311.5t-399 -116.5q-253 0 -401 116.5t-147 311.5h344q-1 -63 45.5 -115.5t158.5 -52.5q107 0 153 51t47 117z" />
    <glyph glyph-name="uni1FB9" unicode="&#x1fb9;" horiz-adv-x="2240" 
d="M664 0h-600l676 2048h760l676 -2048h-600l-448 1484h-16zM552 808h1128v-416h-1128v416zM1620 2560v-252h-1000v252h1000z" />
    <glyph glyph-name="uni1FBA" unicode="&#x1fba;" horiz-adv-x="2240" 
d="M664 0h-600l676 2048h760l676 -2048h-600l-448 1484h-16zM552 808h1128v-416h-1128v416zM608 1580h-128l-332 440v28h304l156 -420v-48z" />
    <glyph glyph-name="uni023A" unicode="&#x23a;" horiz-adv-x="2240" 
d="M1816 2308l-776 -2568h-284l776 2568h284zM664 0h-600l676 2048h760l676 -2048h-600l-448 1484h-16zM552 808h1128v-416h-1128v416z" />
    <glyph glyph-name="uni1FBB" unicode="&#x1fbb;" horiz-adv-x="2240" 
d="M664 0h-600l676 2048h760l676 -2048h-600l-448 1484h-16zM552 808h1128v-416h-1128v416zM88 1728v48l160 420h440v-28l-332 -440h-268z" />
    <glyph glyph-name="uni0410" unicode="&#x410;" horiz-adv-x="2240" 
d="M664 0h-600l676 2048h760l676 -2048h-600l-448 1484h-16zM552 808h1128v-416h-1128v416z" />
    <glyph glyph-name="uni04D0" unicode="&#x4d0;" horiz-adv-x="2240" 
d="M664 0h-600l676 2048h760l676 -2048h-600l-448 1484h-16zM552 808h1128v-416h-1128v416zM1320 2600h348q-1 -195 -149 -311.5t-399 -116.5q-253 0 -401 116.5t-147 311.5h344q-1 -63 45.5 -115.5t158.5 -52.5q107 0 153 51t47 117z" />
    <glyph glyph-name="uni04D2" unicode="&#x4d2;" horiz-adv-x="2240" 
d="M664 0h-600l676 2048h760l676 -2048h-600l-448 1484h-16zM552 808h1128v-416h-1128v416zM804 2228q-102 0 -173 68t-71 164t71 164t173 68q99 0 169.5 -68t70.5 -164t-70.5 -164t-169.5 -68zM1440 2228q-102 0 -173 68t-71 164t71 164t173 68q99 0 169.5 -68t70.5 -164
t-70.5 -164t-169.5 -68z" />
    <glyph glyph-name="uni1F88" unicode="&#x1f88;" horiz-adv-x="2240" 
d="M664 0h-600l676 2048h760l676 -2048h-600l-448 1484h-16zM552 808h1128v-416h-1128v416zM1264 -680q-113 0 -196.5 61t-83.5 199v280h284v-280q0 -30 15 -47t65 -17q25 0 39 2t25 2v-180q-35 -9 -70 -14.5t-78 -5.5zM520 2048v-144q0 -90 -31 -160.5t-81 -119t-108 -72.5
l-124 152q44 20 67.5 51t32 71t8.5 86v136h236z" />
    <glyph glyph-name="uni1F89" unicode="&#x1f89;" horiz-adv-x="2240" 
d="M664 0h-600l676 2048h760l676 -2048h-600l-448 1484h-16zM552 808h1128v-416h-1128v416zM1264 -680q-113 0 -196.5 61t-83.5 199v280h284v-280q0 -30 15 -47t65 -17q25 0 39 2t25 2v-180q-35 -9 -70 -14.5t-78 -5.5zM240 1904v144h240v-136q1 -36 8 -76t29 -75t67 -57
l-124 -152q-85 36 -151.5 126.5t-68.5 225.5z" />
    <glyph glyph-name="uni1F8A" unicode="&#x1f8a;" horiz-adv-x="2240" 
d="M664 0h-600l676 2048h760l676 -2048h-600l-448 1484h-16zM552 808h1128v-416h-1128v416zM1264 -680q-113 0 -196.5 61t-83.5 199v280h284v-280q0 -30 15 -47t65 -17q25 0 39 2t25 2v-180q-35 -9 -70 -14.5t-78 -5.5zM632 1604v-20h-136l-332 436v28h304zM100 2048v-112
q1 -80 -31 -151t-92 -130t-145 -103l-112 84q58 63 87.5 137.5t28.5 170.5v104h264z" />
    <glyph glyph-name="uni1F8B" unicode="&#x1f8b;" horiz-adv-x="2240" 
d="M664 0h-600l676 2048h760l676 -2048h-600l-448 1484h-16zM552 808h1128v-416h-1128v416zM1264 -680q-113 0 -196.5 61t-83.5 199v280h284v-280q0 -30 15 -47t65 -17q25 0 39 2t25 2v-180q-35 -9 -70 -14.5t-78 -5.5zM616 1620v-40h-136l-332 440v28h308zM-220 1904v144
h244v-136q-1 -54 15.5 -114.5t92.5 -93.5l-124 -152q-94 36 -161.5 126.5t-66.5 225.5z" />
    <glyph glyph-name="uni1F8C" unicode="&#x1f8c;" horiz-adv-x="2240" 
d="M664 0h-600l676 2048h760l676 -2048h-600l-448 1484h-16zM552 808h1128v-416h-1128v416zM144 1580v40l164 428h304v-28l-332 -440h-136zM88 2048v-144q-1 -88 -32.5 -158.5t-83 -120t-112.5 -73.5l-124 152q74 33 90.5 93.5t17.5 114.5v136h244zM1264 -680
q-113 0 -196.5 61t-83.5 199v280h284v-280q0 -30 15 -47t65 -17q25 0 39 2t25 2v-180q-35 -9 -70 -14.5t-78 -5.5z" />
    <glyph glyph-name="uni1F8D" unicode="&#x1f8d;" horiz-adv-x="2240" 
d="M664 0h-600l676 2048h760l676 -2048h-600l-448 1484h-16zM552 808h1128v-416h-1128v416zM1264 -680q-113 0 -196.5 61t-83.5 199v280h284v-280q0 -30 15 -47t65 -17q25 0 39 2t25 2v-180q-35 -9 -70 -14.5t-78 -5.5zM140 1580v40l156 428h308v-28l-336 -440h-128z
M-300 1904v144h240v-136q1 -69 20 -123.5t84 -84.5l-124 -152q-80 33 -149.5 122t-70.5 230z" />
    <glyph glyph-name="uni1F8E" unicode="&#x1f8e;" horiz-adv-x="2240" 
d="M664 0h-600l676 2048h760l676 -2048h-600l-448 1484h-16zM552 808h1128v-416h-1128v416zM600 2400l208 -64q0 -99 -65 -173.5t-167 -74.5q-55 0 -99.5 13.5t-83.5 30.5t-78.5 30.5t-86.5 13.5q-39 0 -61.5 -36t-22.5 -84l-208 60q0 99 65 175.5t167 76.5q45 0 88.5 -12.5
t87 -29.5t86.5 -29.5t86 -12.5q36 0 60 34t24 82zM512 2016v-120q0 -120 -69.5 -190.5t-162.5 -97.5l-108 124q72 21 88 74.5t16 101.5v108h236zM1264 -680q-113 0 -196.5 61t-83.5 199v280h284v-280q0 -30 15 -47t65 -17q25 0 39 2t25 2v-180q-35 -9 -70 -14.5t-78 -5.5z
" />
    <glyph glyph-name="uni1F8F" unicode="&#x1f8f;" horiz-adv-x="2240" 
d="M664 0h-600l676 2048h760l676 -2048h-600l-448 1484h-16zM552 808h1128v-416h-1128v416zM1264 -680q-113 0 -196.5 61t-83.5 199v280h284v-280q0 -30 15 -47t65 -17q25 0 39 2t25 2v-180q-35 -9 -70 -14.5t-78 -5.5zM224 1896v120h236v-108q0 -48 16 -101.5t88 -74.5
l-112 -124q-81 24 -154.5 93t-73.5 195zM544 2400l208 -64q0 -99 -65 -173.5t-167 -74.5q-55 0 -99.5 13.5t-83.5 30.5t-78.5 30.5t-86.5 13.5q-39 0 -61.5 -36t-22.5 -84l-208 60q0 99 65 175.5t167 76.5q45 0 88.5 -12.5t87 -29.5t86.5 -29.5t86 -12.5q36 0 60 34t24 82z
" />
    <glyph glyph-name="uni1FBC" unicode="&#x1fbc;" horiz-adv-x="2240" 
d="M664 0h-600l676 2048h760l676 -2048h-600l-448 1484h-16zM552 808h1128v-416h-1128v416zM1264 -680q-113 0 -196.5 61t-83.5 199v280h284v-280q0 -30 15 -47t65 -17q25 0 39 2t25 2v-180q-35 -9 -70 -14.5t-78 -5.5z" />
    <glyph glyph-name="uni039B" unicode="&#x39b;" horiz-adv-x="2240" 
d="M664 0h-600l676 2048h760l676 -2048h-600l-448 1484h-16z" />
    <glyph glyph-name="uni00C6" unicode="&#xc6;" horiz-adv-x="2976" 
d="M64 0l800 2048h1968v-448h-920v-352h844v-448h-844v-352h916v-448h-1472v1484h-140l-540 -1484h-612zM556 392v416h1128v-416h-1128z" />
    <glyph glyph-name="uni01E2" unicode="&#x1e2;" horiz-adv-x="2976" 
d="M64 0l800 2048h1968v-448h-920v-352h844v-448h-844v-352h916v-448h-1472v1484h-140l-540 -1484h-612zM556 392v416h1128v-416h-1128zM2360 2560v-252h-1000v252h1000z" />
    <glyph glyph-name="uni01FC" unicode="&#x1fc;" horiz-adv-x="2976" 
d="M64 0l800 2048h1968v-448h-920v-352h844v-448h-844v-352h916v-448h-1472v1484h-140l-540 -1484h-612zM556 392v416h1128v-416h-1128zM1676 2240l192 448h472l-300 -448h-364z" />
    <glyph glyph-name="uni04D4" unicode="&#x4d4;" horiz-adv-x="2976" 
d="M64 0l800 2048h1968v-448h-920v-352h844v-448h-844v-352h916v-448h-1472v1484h-140l-540 -1484h-612zM556 392v416h1128v-416h-1128z" />
    <glyph glyph-name="uni0042" unicode="B" horiz-adv-x="1880" 
d="M132 0v2048h888q234 0 393.5 -63t241 -178t81.5 -271q0 -113 -49.5 -206t-138.5 -155.5t-208 -86.5v-20q132 -5 240 -66.5t172 -169t64 -252.5q0 -168 -87.5 -299t-248.5 -206t-384 -75h-964zM688 444h260q140 0 210 52.5t70 155.5q0 72 -33 122t-93.5 76t-145.5 26h-268
v-432zM688 1220h228q73 0 129 23t87.5 66.5t31.5 106.5q0 95 -68 145.5t-172 50.5h-236v-392z" />
    <glyph glyph-name="uni1E02" unicode="&#x1e02;" horiz-adv-x="1880" 
d="M132 0v2048h888q234 0 393.5 -63t241 -178t81.5 -271q0 -113 -49.5 -206t-138.5 -155.5t-208 -86.5v-20q132 -5 240 -66.5t172 -169t64 -252.5q0 -168 -87.5 -299t-248.5 -206t-384 -75h-964zM688 444h260q140 0 210 52.5t70 155.5q0 72 -33 122t-93.5 76t-145.5 26h-268
v-432zM688 1220h228q73 0 129 23t87.5 66.5t31.5 106.5q0 95 -68 145.5t-172 50.5h-236v-392zM917 2208q-113 0 -193 74t-80 178t80 178t192 74q113 0 192.5 -74t79.5 -178t-79.5 -178t-191.5 -74z" />
    <glyph glyph-name="uni1E04" unicode="&#x1e04;" horiz-adv-x="1880" 
d="M132 0v2048h888q234 0 393.5 -63t241 -178t81.5 -271q0 -113 -49.5 -206t-138.5 -155.5t-208 -86.5v-20q132 -5 240 -66.5t172 -169t64 -252.5q0 -168 -87.5 -299t-248.5 -206t-384 -75h-964zM688 444h260q140 0 210 52.5t70 155.5q0 72 -33 122t-93.5 76t-145.5 26h-268
v-432zM688 1220h228q73 0 129 23t87.5 66.5t31.5 106.5q0 95 -68 145.5t-172 50.5h-236v-392zM913 -620q-113 0 -193 74t-80 178t80 178t192 74q113 0 192.5 -74t79.5 -178t-79.5 -178t-191.5 -74z" />
    <glyph glyph-name="uni1E06" unicode="&#x1e06;" horiz-adv-x="1880" 
d="M132 0v2048h888q234 0 393.5 -63t241 -178t81.5 -271q0 -113 -49.5 -206t-138.5 -155.5t-208 -86.5v-20q132 -5 240 -66.5t172 -169t64 -252.5q0 -168 -87.5 -299t-248.5 -206t-384 -75h-964zM688 444h260q140 0 210 52.5t70 155.5q0 72 -33 122t-93.5 76t-145.5 26h-268
v-432zM688 1220h228q73 0 129 23t87.5 66.5t31.5 106.5q0 95 -68 145.5t-172 50.5h-236v-392zM1412 -258v-252h-1000v252h1000z" />
    <glyph glyph-name="uni0243" unicode="&#x243;" horiz-adv-x="2072" 
d="M324 0v2048h888q234 0 393.5 -63t241 -178t81.5 -271q0 -113 -49.5 -206t-138.5 -155.5t-208 -86.5v-20q132 -5 240 -66.5t172 -169t64 -252.5q0 -168 -87.5 -299t-248.5 -206t-384 -75h-964zM880 444h260q140 0 210 52.5t70 155.5q0 72 -33 122t-93.5 76t-145.5 26h-268
v-432zM880 1220h228q73 0 129 23t87.5 66.5t31.5 106.5q0 95 -68 145.5t-172 50.5h-236v-392zM44 512v296h1076v-296h-1076z" />
    <glyph glyph-name="uni0181" unicode="&#x181;" horiz-adv-x="2560" 
d="M1144 1604h-364q-85 0 -132.5 -40t-66 -100t-17.5 -120v-148h-488v244q-1 194 85.5 330t245 207t373.5 71h364v-444zM812 0v2048h888q234 0 393.5 -63t241 -178t81.5 -271q0 -113 -49.5 -206t-138.5 -155.5t-208 -86.5v-20q132 -5 240 -66.5t172 -169t64 -252.5
q0 -168 -87.5 -299t-248.5 -206t-384 -75h-964zM1368 444h260q140 0 210 52.5t70 155.5q0 72 -33 122t-93.5 76t-145.5 26h-268v-432zM1368 1220h228q73 0 129 23t87.5 66.5t31.5 106.5q0 95 -68 145.5t-172 50.5h-236v-392z" />
    <glyph glyph-name="uni0412" unicode="&#x412;" horiz-adv-x="1880" 
d="M132 0v2048h888q234 0 393.5 -63t241 -178t81.5 -271q0 -113 -49.5 -206t-138.5 -155.5t-208 -86.5v-20q132 -5 240 -66.5t172 -169t64 -252.5q0 -168 -87.5 -299t-248.5 -206t-384 -75h-964zM688 444h260q140 0 210 52.5t70 155.5q0 72 -33 122t-93.5 76t-145.5 26h-268
v-432zM688 1220h228q73 0 129 23t87.5 66.5t31.5 106.5q0 95 -68 145.5t-172 50.5h-236v-392z" />
    <glyph glyph-name="uni0392" unicode="&#x392;" horiz-adv-x="1880" 
d="M132 0v2048h888q234 0 393.5 -63t241 -178t81.5 -271q0 -113 -49.5 -206t-138.5 -155.5t-208 -86.5v-20q132 -5 240 -66.5t172 -169t64 -252.5q0 -168 -87.5 -299t-248.5 -206t-384 -75h-964zM688 444h260q140 0 210 52.5t70 155.5q0 72 -33 122t-93.5 76t-145.5 26h-268
v-432zM688 1220h228q73 0 129 23t87.5 66.5t31.5 106.5q0 95 -68 145.5t-172 50.5h-236v-392z" />
    <glyph glyph-name="uni0043" unicode="C" horiz-adv-x="2164" 
d="M2044 1280h-564q-6 70 -31.5 127t-70 98.5t-107.5 64t-143 22.5q-140 0 -236.5 -68t-146 -195t-49.5 -305q0 -188 50.5 -314.5t146.5 -190t231 -63.5q77 0 138 19.5t106 56.5t73.5 89.5t38.5 118.5l564 -4q-10 -130 -73 -264.5t-178.5 -248t-285.5 -182.5t-395 -69
q-282 0 -505.5 121t-353 356t-129.5 575q0 342 132 576.5t356 355t500 120.5q194 0 357 -53t286 -154.5t198 -249.5t91 -339z" />
    <glyph glyph-name="uni0187" unicode="&#x187;" horiz-adv-x="2484" 
d="M2044 1280h-536v208q0 210 105.5 353.5t277 217t369.5 73.5q63 0 119.5 -1.5t128.5 -10.5v-440q-30 0 -77.5 2t-74.5 2q-64 0 -136.5 -27t-124 -90t-51.5 -171v-116zM2044 1280h-564q-6 70 -31.5 127t-70 98.5t-107.5 64t-143 22.5q-140 0 -236.5 -68t-146 -195
t-49.5 -305q0 -188 50.5 -314.5t146.5 -190t231 -63.5q77 0 138 19.5t106 56.5t73.5 89.5t38.5 118.5l564 -4q-10 -130 -73 -264.5t-178.5 -248t-285.5 -182.5t-395 -69q-282 0 -505.5 121t-353 356t-129.5 575q0 342 132 576.5t356 355t500 120.5q194 0 357 -53t286 -154.5
t198 -249.5t91 -339z" />
    <glyph glyph-name="uni00C7" unicode="&#xc7;" horiz-adv-x="2164" 
d="M2044 1280h-564q-6 70 -31.5 127t-70 98.5t-107.5 64t-143 22.5q-140 0 -236.5 -68t-146 -195t-49.5 -305q0 -188 50.5 -314.5t146.5 -190t231 -63.5q77 0 138 19.5t106 56.5t73.5 89.5t38.5 118.5l564 -4q-10 -130 -73 -264.5t-178.5 -248t-285.5 -182.5t-395 -69
q-282 0 -505.5 121t-353 356t-129.5 575q0 342 132 576.5t356 355t500 120.5q194 0 357 -53t286 -154.5t198 -249.5t91 -339zM1004 16h196l-16 -92q119 -18 185 -84t67 -164q2 -162 -158.5 -255t-441.5 -93v212q148 0 226 31.5t82 92.5q4 56 -43.5 92.5t-144.5 51.5z" />
    <glyph glyph-name="uni0106" unicode="&#x106;" horiz-adv-x="2164" 
d="M2044 1280h-564q-6 70 -31.5 127t-70 98.5t-107.5 64t-143 22.5q-140 0 -236.5 -68t-146 -195t-49.5 -305q0 -188 50.5 -314.5t146.5 -190t231 -63.5q77 0 138 19.5t106 56.5t73.5 89.5t38.5 118.5l564 -4q-10 -130 -73 -264.5t-178.5 -248t-285.5 -182.5t-395 -69
q-282 0 -505.5 121t-353 356t-129.5 575q0 342 132 576.5t356 355t500 120.5q194 0 357 -53t286 -154.5t198 -249.5t91 -339zM928 2240l192 448h472l-300 -448h-364z" />
    <glyph glyph-name="uni0108" unicode="&#x108;" horiz-adv-x="2164" 
d="M2044 1280h-564q-6 70 -31.5 127t-70 98.5t-107.5 64t-143 22.5q-140 0 -236.5 -68t-146 -195t-49.5 -305q0 -188 50.5 -314.5t146.5 -190t231 -63.5q77 0 138 19.5t106 56.5t73.5 89.5t38.5 118.5l564 -4q-10 -130 -73 -264.5t-178.5 -248t-285.5 -182.5t-395 -69
q-282 0 -505.5 121t-353 356t-129.5 575q0 342 132 576.5t356 355t500 120.5q194 0 357 -53t286 -154.5t198 -249.5t91 -339zM916 2230h-456v12l460 456h384l460 -456v-12h-456l-196 220z" />
    <glyph glyph-name="uni010A" unicode="&#x10a;" horiz-adv-x="2164" 
d="M2044 1280h-564q-6 70 -31.5 127t-70 98.5t-107.5 64t-143 22.5q-140 0 -236.5 -68t-146 -195t-49.5 -305q0 -188 50.5 -314.5t146.5 -190t231 -63.5q77 0 138 19.5t106 56.5t73.5 89.5t38.5 118.5l564 -4q-10 -130 -73 -264.5t-178.5 -248t-285.5 -182.5t-395 -69
q-282 0 -505.5 121t-353 356t-129.5 575q0 342 132 576.5t356 355t500 120.5q194 0 357 -53t286 -154.5t198 -249.5t91 -339zM1113 2208q-113 0 -193 74t-80 178t80 178t192 74q113 0 192.5 -74t79.5 -178t-79.5 -178t-191.5 -74z" />
    <glyph glyph-name="uni010C" unicode="&#x10c;" horiz-adv-x="2164" 
d="M2044 1280h-564q-6 70 -31.5 127t-70 98.5t-107.5 64t-143 22.5q-140 0 -236.5 -68t-146 -195t-49.5 -305q0 -188 50.5 -314.5t146.5 -190t231 -63.5q77 0 138 19.5t106 56.5t73.5 89.5t38.5 118.5l564 -4q-10 -130 -73 -264.5t-178.5 -248t-285.5 -182.5t-395 -69
q-282 0 -505.5 121t-353 356t-129.5 575q0 342 132 576.5t356 355t500 120.5q194 0 357 -53t286 -154.5t198 -249.5t91 -339zM916 2700l196 -220l196 220h456v-12l-460 -456h-384l-460 456v12h456z" />
    <glyph glyph-name="uni1E08" unicode="&#x1e08;" horiz-adv-x="2164" 
d="M2044 1280h-564q-6 70 -31.5 127t-70 98.5t-107.5 64t-143 22.5q-140 0 -236.5 -68t-146 -195t-49.5 -305q0 -188 50.5 -314.5t146.5 -190t231 -63.5q77 0 138 19.5t106 56.5t73.5 89.5t38.5 118.5l564 -4q-10 -130 -73 -264.5t-178.5 -248t-285.5 -182.5t-395 -69
q-282 0 -505.5 121t-353 356t-129.5 575q0 342 132 576.5t356 355t500 120.5q194 0 357 -53t286 -154.5t198 -249.5t91 -339zM1004 16h196l-16 -92q119 -18 185 -84t67 -164q2 -162 -158.5 -255t-441.5 -93v212q148 0 226 31.5t82 92.5q4 56 -43.5 92.5t-144.5 51.5z
M928 2240l192 448h472l-300 -448h-364z" />
    <glyph glyph-name="uni023B" unicode="&#x23b;" horiz-adv-x="2164" 
d="M556 -260l776 2568h284l-776 -2568h-284zM2044 1280h-564q-6 70 -31.5 127t-70 98.5t-107.5 64t-143 22.5q-140 0 -236.5 -68t-146 -195t-49.5 -305q0 -188 50.5 -314.5t146.5 -190t231 -63.5q77 0 138 19.5t106 56.5t73.5 89.5t38.5 118.5l564 -4q-10 -130 -73 -264.5
t-178.5 -248t-285.5 -182.5t-395 -69q-282 0 -505.5 121t-353 356t-129.5 575q0 342 132 576.5t356 355t500 120.5q194 0 357 -53t286 -154.5t198 -249.5t91 -339z" />
    <glyph glyph-name="uni0186" unicode="&#x186;" horiz-adv-x="2164" 
d="M120 1280q17 191 91.5 339t197.5 249.5t286.5 154.5t356.5 53q276 0 500 -120.5t356 -355t132 -576.5q0 -340 -129.5 -575t-353 -356t-505.5 -121q-225 0 -395 69t-285.5 182.5t-178 248t-73.5 264.5l564 4q11 -66 39 -118.5t73 -89.5t106.5 -56.5t137.5 -19.5
q136 0 231.5 63.5t146 190t50.5 314.5q0 178 -49.5 305t-146 195t-236.5 68q-80 0 -143 -22.5t-107.5 -64t-70 -98.5t-31.5 -127h-564z" />
    <glyph glyph-name="uni03F9" unicode="&#x3f9;" horiz-adv-x="2164" 
d="M2044 1280h-564q-6 70 -31.5 127t-70 98.5t-107.5 64t-143 22.5q-140 0 -236.5 -68t-146 -195t-49.5 -305q0 -188 50.5 -314.5t146.5 -190t231 -63.5q77 0 138 19.5t106 56.5t73.5 89.5t38.5 118.5l564 -4q-10 -130 -73 -264.5t-178.5 -248t-285.5 -182.5t-395 -69
q-282 0 -505.5 121t-353 356t-129.5 575q0 342 132 576.5t356 355t500 120.5q194 0 357 -53t286 -154.5t198 -249.5t91 -339z" />
    <glyph glyph-name="uni0044" unicode="D" horiz-adv-x="2064" 
d="M920 0h-788v2048h780q316 0 546.5 -122.5t356 -352t125.5 -549.5t-125 -549.5t-354 -352t-541 -122.5zM688 472h212q152 0 259.5 49t164 169t56.5 334t-57.5 334t-168 169t-270.5 49h-196v-1104z" />
    <glyph glyph-name="uni018A" unicode="&#x18a;" horiz-adv-x="2748" 
d="M76 1196v244q-1 194 85.5 330t245 207t373.5 71h364v-472h-364q-85 0 -132.5 -33t-66 -86t-17.5 -113v-148h-488zM1604 0h-788v2048h780q316 0 546.5 -122.5t356 -352t125.5 -549.5t-125 -549.5t-354 -352t-541 -122.5zM1372 472h212q152 0 259.5 49t164 169t56.5 334
t-57.5 334t-168 169t-270.5 49h-196v-1104z" />
    <glyph glyph-name="uni010E" unicode="&#x10e;" horiz-adv-x="2064" 
d="M920 0h-788v2048h780q316 0 546.5 -122.5t356 -352t125.5 -549.5t-125 -549.5t-354 -352t-541 -122.5zM688 472h212q152 0 259.5 49t164 169t56.5 334t-57.5 334t-168 169t-270.5 49h-196v-1104zM620 2700l196 -220l196 220h456v-12l-460 -456h-384l-460 456v12h456z" />
    <glyph glyph-name="uni1E0A" unicode="&#x1e0a;" horiz-adv-x="2064" 
d="M920 0h-788v2048h780q316 0 546.5 -122.5t356 -352t125.5 -549.5t-125 -549.5t-354 -352t-541 -122.5zM688 472h212q152 0 259.5 49t164 169t56.5 334t-57.5 334t-168 169t-270.5 49h-196v-1104zM817 2208q-113 0 -193 74t-80 178t80 178t192 74q113 0 192.5 -74
t79.5 -178t-79.5 -178t-191.5 -74z" />
    <glyph glyph-name="uni1E0C" unicode="&#x1e0c;" horiz-adv-x="2064" 
d="M920 0h-788v2048h780q316 0 546.5 -122.5t356 -352t125.5 -549.5t-125 -549.5t-354 -352t-541 -122.5zM688 472h212q152 0 259.5 49t164 169t56.5 334t-57.5 334t-168 169t-270.5 49h-196v-1104zM929 -620q-113 0 -193 74t-80 178t80 178t192 74q113 0 192.5 -74
t79.5 -178t-79.5 -178t-191.5 -74z" />
    <glyph glyph-name="uni1E0E" unicode="&#x1e0e;" horiz-adv-x="2064" 
d="M920 0h-788v2048h780q316 0 546.5 -122.5t356 -352t125.5 -549.5t-125 -549.5t-354 -352t-541 -122.5zM688 472h212q152 0 259.5 49t164 169t56.5 334t-57.5 334t-168 169t-270.5 49h-196v-1104zM1428 -258v-252h-1000v252h1000z" />
    <glyph glyph-name="uni1E10" unicode="&#x1e10;" horiz-adv-x="2064" 
d="M920 0h-788v2048h780q316 0 546.5 -122.5t356 -352t125.5 -549.5t-125 -549.5t-354 -352t-541 -122.5zM688 472h212q152 0 259.5 49t164 169t56.5 334t-57.5 334t-168 169t-270.5 49h-196v-1104zM554 -640l132 478h496l-252 -478h-376z" />
    <glyph glyph-name="uni1E12" unicode="&#x1e12;" horiz-adv-x="2064" 
d="M920 0h-788v2048h780q316 0 546.5 -122.5t356 -352t125.5 -549.5t-125 -549.5t-354 -352t-541 -122.5zM688 472h212q152 0 259.5 49t164 169t56.5 334t-57.5 334t-168 169t-270.5 49h-196v-1104zM732 -598h-456v12l460 456h384l460 -456v-12h-456l-196 220z" />
    <glyph glyph-name="uni0189" unicode="&#x189;" horiz-adv-x="2064" 
d="M920 0h-788v2048h780q316 0 546.5 -122.5t356 -352t125.5 -549.5t-125 -549.5t-354 -352t-541 -122.5zM688 472h212q152 0 259.5 49t164 169t56.5 334t-57.5 334t-168 169t-270.5 49h-196v-1104zM-132 948v296h1076v-296h-1076z" />
    <glyph glyph-name="uni01F2" unicode="&#x1f2;" horiz-adv-x="3732" 
d="M920 0h-788v2048h780q316 0 546.5 -122.5t356 -352t125.5 -549.5t-125 -549.5t-354 -352t-541 -122.5zM688 472h212q152 0 259.5 49t164 169t56.5 334t-57.5 334t-168 169t-270.5 49h-196v-1104zM2220 0v304l672 804v8h-648v420h1300v-336l-612 -772v-8h636v-420h-1348z
" />
    <glyph glyph-name="uni01C5" unicode="&#x1c5;" horiz-adv-x="3732" 
d="M920 0h-788v2048h780q316 0 546.5 -122.5t356 -352t125.5 -549.5t-125 -549.5t-354 -352t-541 -122.5zM688 472h212q152 0 259.5 49t164 169t56.5 334t-57.5 334t-168 169t-270.5 49h-196v-1104zM2220 0v304l672 804v8h-648v420h1300v-336l-612 -772v-8h636v-420h-1348z
M2700 2188l196 -220l196 220h456v-12l-460 -456h-384l-460 456v12h456z" />
    <glyph glyph-name="uni0045" unicode="E" horiz-adv-x="1752" 
d="M132 0v2048h1476v-448h-920v-352h844v-448h-844v-352h916v-448h-1472z" />
    <glyph glyph-name="uni00C8" unicode="&#xc8;" horiz-adv-x="1752" 
d="M132 0v2048h1476v-448h-920v-352h844v-448h-844v-352h916v-448h-1472zM696 2240l-300 448h472l192 -448h-364z" />
    <glyph glyph-name="uni00C9" unicode="&#xc9;" horiz-adv-x="1752" 
d="M132 0v2048h1476v-448h-920v-352h844v-448h-844v-352h916v-448h-1472zM692 2240l192 448h472l-300 -448h-364z" />
    <glyph glyph-name="uni00CA" unicode="&#xca;" horiz-adv-x="1752" 
d="M132 0v2048h1476v-448h-920v-352h844v-448h-844v-352h916v-448h-1472zM680 2230h-456v12l460 456h384l460 -456v-12h-456l-196 220z" />
    <glyph glyph-name="uni00CB" unicode="&#xcb;" horiz-adv-x="1752" 
d="M132 0v2048h1476v-448h-920v-352h844v-448h-844v-352h916v-448h-1472zM560 2228q-102 0 -173 68t-71 164t71 164t173 68q99 0 169.5 -68t70.5 -164t-70.5 -164t-169.5 -68zM1196 2228q-102 0 -173 68t-71 164t71 164t173 68q99 0 169.5 -68t70.5 -164t-70.5 -164
t-169.5 -68z" />
    <glyph glyph-name="uni0112" unicode="&#x112;" horiz-adv-x="1752" 
d="M132 0v2048h1476v-448h-920v-352h844v-448h-844v-352h916v-448h-1472zM1376 2560v-252h-1000v252h1000z" />
    <glyph glyph-name="uni0114" unicode="&#x114;" horiz-adv-x="1752" 
d="M132 0v2048h1476v-448h-920v-352h844v-448h-844v-352h916v-448h-1472zM1076 2600h348q-1 -195 -149 -311.5t-399 -116.5q-253 0 -401 116.5t-147 311.5h344q-1 -63 45.5 -115.5t158.5 -52.5q107 0 153 51t47 117z" />
    <glyph glyph-name="uni0116" unicode="&#x116;" horiz-adv-x="1752" 
d="M132 0v2048h1476v-448h-920v-352h844v-448h-844v-352h916v-448h-1472zM877 2208q-113 0 -193 74t-80 178t80 178t192 74q113 0 192.5 -74t79.5 -178t-79.5 -178t-191.5 -74z" />
    <glyph glyph-name="uni0118" unicode="&#x118;" horiz-adv-x="1752" 
d="M132 0v2048h1476v-448h-920v-352h844v-448h-844v-352h916v-448h-1472zM1404 -556q-139 0 -234.5 69t-133.5 195q-26 86 -20.5 175t40 158t92.5 95l456 -136q-97 -30 -149 -65t-51 -95q-1 -51 25.5 -77.5t66.5 -26.5q26 0 45.5 6.5t38.5 9.5l64 -248q-40 -21 -100 -40.5
t-140 -19.5z" />
    <glyph glyph-name="uni011A" unicode="&#x11a;" horiz-adv-x="1752" 
d="M132 0v2048h1476v-448h-920v-352h844v-448h-844v-352h916v-448h-1472zM680 2700l196 -220l196 220h456v-12l-460 -456h-384l-460 456v12h456z" />
    <glyph glyph-name="uni0204" unicode="&#x204;" horiz-adv-x="1752" 
d="M132 0v2048h1476v-448h-920v-352h844v-448h-844v-352h916v-448h-1472zM806 2240h-364l-300 448h472zM1338 2240h-354l-194 448h446z" />
    <glyph glyph-name="uni0206" unicode="&#x206;" horiz-adv-x="1752" 
d="M132 0v2048h1476v-448h-920v-352h844v-448h-844v-352h916v-448h-1472zM324 2288q-1 195 147 319.5t401 124.5q251 0 401 -124.5t151 -319.5h-348q-1 63 -47.5 113.5t-156.5 50.5q-109 0 -155 -50.5t-45 -113.5h-348z" />
    <glyph glyph-name="uni0228" unicode="&#x228;" horiz-adv-x="1752" 
d="M132 0v2048h1476v-448h-920v-352h844v-448h-844v-352h916v-448h-1472zM784 8h196l-16 -92q119 -18 185 -84t67 -164q2 -162 -158.5 -255t-441.5 -93v212q148 0 226 31.5t82 92.5q4 56 -43.5 92.5t-144.5 51.5z" />
    <glyph glyph-name="uni1E14" unicode="&#x1e14;" horiz-adv-x="1752" 
d="M132 0v2048h1476v-448h-920v-352h844v-448h-844v-352h916v-448h-1472zM708 2712l-346 386h452l266 -386h-372zM1376 2520v-252h-1000v252h1000z" />
    <glyph glyph-name="uni1E16" unicode="&#x1e16;" horiz-adv-x="1752" 
d="M132 0v2048h1476v-448h-920v-352h844v-448h-844v-352h916v-448h-1472zM672 2712l266 386h452l-346 -386h-372zM1376 2520v-252h-1000v252h1000z" />
    <glyph glyph-name="uni1E18" unicode="&#x1e18;" horiz-adv-x="1752" 
d="M132 0v2048h1476v-448h-920v-352h844v-448h-844v-352h916v-448h-1472zM680 -598h-456v12l460 456h384l460 -456v-12h-456l-196 220z" />
    <glyph glyph-name="uni1E1A" unicode="&#x1e1a;" horiz-adv-x="1752" 
d="M132 0v2048h1476v-448h-920v-352h844v-448h-844v-352h916v-448h-1472zM640 -576h-272q0 216 99 321.5t241 106.5q78 0 132.5 -24.5t95.5 -57.5t74.5 -57.5t69.5 -24.5q58 1 82.5 42t25.5 114h268q-3 -212 -101.5 -321t-238.5 -111q-78 -1 -132.5 24t-94 57.5t-73.5 57.5
t-72 25q-48 0 -76 -38.5t-28 -113.5z" />
    <glyph glyph-name="uni1E1C" unicode="&#x1e1c;" horiz-adv-x="1752" 
d="M132 0v2048h1476v-448h-920v-352h844v-448h-844v-352h916v-448h-1472zM784 8h196l-16 -92q119 -18 185 -84t67 -164q2 -162 -158.5 -255t-441.5 -93v212q148 0 226 31.5t82 92.5q4 56 -43.5 92.5t-144.5 51.5zM1076 2600h348q-1 -195 -149 -311.5t-399 -116.5
q-253 0 -401 116.5t-147 311.5h344q-1 -63 45.5 -115.5t158.5 -52.5q107 0 153 51t47 117z" />
    <glyph glyph-name="uni1EB8" unicode="&#x1eb8;" horiz-adv-x="1752" 
d="M132 0v2048h1476v-448h-920v-352h844v-448h-844v-352h916v-448h-1472zM877 -620q-113 0 -193 74t-80 178t80 178t192 74q113 0 192.5 -74t79.5 -178t-79.5 -178t-191.5 -74z" />
    <glyph glyph-name="uni1EBA" unicode="&#x1eba;" horiz-adv-x="1752" 
d="M132 0v2048h1476v-448h-920v-352h844v-448h-844v-352h916v-448h-1472zM1068 2276h-396l-36 156q107 3 152.5 27t43.5 57q2 54 -51.5 69t-136.5 15l12 220q308 0 469 -72t159 -204q2 -84 -65.5 -130t-150.5 -58v-80z" />
    <glyph glyph-name="uni1EBC" unicode="&#x1ebc;" horiz-adv-x="1752" 
d="M132 0v2048h1476v-448h-920v-352h844v-448h-844v-352h916v-448h-1472zM604 2240h-272q0 216 99 321.5t241 106.5q78 0 132.5 -24.5t95.5 -57.5t74.5 -57.5t69.5 -24.5q58 1 82.5 42t25.5 114h268q-3 -212 -101.5 -321t-238.5 -111q-78 -1 -132.5 24t-94 57.5t-73.5 57.5
t-72 25q-48 0 -76 -38.5t-28 -113.5z" />
    <glyph glyph-name="uni1EBE" unicode="&#x1ebe;" horiz-adv-x="1752" 
d="M132 0v2048h1476v-448h-920v-352h844v-448h-844v-352h916v-448h-1472zM352 2200l400 276h236l404 -276h-320l-200 140l-204 -140h-316zM1288 2332l260 384h356l-352 -384h-264z" />
    <glyph glyph-name="uni1EC0" unicode="&#x1ec0;" horiz-adv-x="1752" 
d="M132 0v2048h1476v-448h-920v-352h844v-448h-844v-352h916v-448h-1472zM992 2468l404 -276h-320l-200 140l-204 -140h-316l400 276h236zM196 2704l264 -380h-260l-352 380h348z" />
    <glyph glyph-name="uni1EC2" unicode="&#x1ec2;" horiz-adv-x="1752" 
d="M132 0v2048h1476v-448h-920v-352h844v-448h-844v-352h916v-448h-1472zM984 2476l404 -276h-324l-188 124l-196 -124h-324l404 276h224zM1512 2364h-256l-32 128q87 3 125.5 22t38.5 46q0 45 -45.5 58.5t-114.5 13.5l12 180q219 0 335.5 -58.5t116.5 -169.5
q0 -66 -57 -105t-123 -51v-64z" />
    <glyph glyph-name="uni1EC4" unicode="&#x1ec4;" horiz-adv-x="1752" 
d="M132 0v2048h1476v-448h-920v-352h844v-448h-844v-352h916v-448h-1472zM1004 2500l392 -288h-324l-196 140l-188 -140h-332l396 288h252zM1076 2832l172 -64q-1 -81 -42.5 -148.5t-121.5 -67.5q-45 0 -87 12.5t-81 29.5t-75.5 29.5t-72.5 12.5q-28 0 -36.5 -26.5
t-7.5 -65.5l-168 48q-1 75 40.5 141.5t123.5 66.5q36 0 76.5 -12t82.5 -28t82 -28t75 -12q23 0 31 36.5t9 75.5z" />
    <glyph glyph-name="uni1EC6" unicode="&#x1ec6;" horiz-adv-x="1752" 
d="M132 0v2048h1476v-448h-920v-352h844v-448h-844v-352h916v-448h-1472zM680 2230h-456v12l460 456h384l460 -456v-12h-456l-196 220zM877 -620q-113 0 -193 74t-80 178t80 178t192 74q113 0 192.5 -74t79.5 -178t-79.5 -178t-191.5 -74z" />
    <glyph glyph-name="uni0246" unicode="&#x246;" horiz-adv-x="1752" 
d="M1412 2308l-740 -2568h-228l740 2568h228zM132 0v2048h1476v-448h-920v-352h844v-448h-844v-352h916v-448h-1472z" />
    <glyph glyph-name="uni018E" unicode="&#x18e;" horiz-adv-x="1764" 
d="M1564 2048v-2048h-1476v448h920v352h-844v448h844v352h-916v448h1472z" />
    <glyph glyph-name="uni0395" unicode="&#x395;" horiz-adv-x="1752" 
d="M132 0v2048h1476v-448h-920v-352h844v-448h-844v-352h916v-448h-1472z" />
    <glyph glyph-name="uni0388" unicode="&#x388;" horiz-adv-x="2388" 
d="M768 0v2048h1476v-448h-920v-352h844v-448h-844v-352h916v-448h-1472zM156 1728l132 480h464l-288 -480h-308z" />
    <glyph glyph-name="uni1F18" unicode="&#x1f18;" horiz-adv-x="2196" 
d="M576 0v2048h1476v-448h-920v-352h844v-448h-844v-352h916v-448h-1472zM408 2048v-144q0 -90 -31 -160.5t-81 -119t-108 -72.5l-124 152q44 20 67.5 51t32 71t8.5 86v136h236z" />
    <glyph glyph-name="uni1F19" unicode="&#x1f19;" horiz-adv-x="2216" 
d="M596 0v2048h1476v-448h-920v-352h844v-448h-844v-352h916v-448h-1472zM148 1904v144h240v-136q1 -36 8 -76t29 -75t67 -57l-124 -152q-85 36 -151.5 126.5t-68.5 225.5z" />
    <glyph glyph-name="uni1F1A" unicode="&#x1f1a;" horiz-adv-x="2732" 
d="M1112 0v2048h1476v-448h-920v-352h844v-448h-844v-352h916v-448h-1472zM1056 1604v-20h-136l-332 436v28h304zM524 2048v-112q1 -80 -31 -151t-92 -130t-145 -103l-112 84q58 63 87.5 137.5t28.5 170.5v104h264z" />
    <glyph glyph-name="uni1F1B" unicode="&#x1f1b;" horiz-adv-x="2664" 
d="M1044 0v2048h1476v-448h-920v-352h844v-448h-844v-352h916v-448h-1472zM972 1620v-40h-136l-332 440v28h308zM136 1904v144h244v-136q-1 -54 15.5 -114.5t92.5 -93.5l-124 -152q-94 36 -161.5 126.5t-66.5 225.5z" />
    <glyph glyph-name="uni1F1C" unicode="&#x1f1c;" horiz-adv-x="2724" 
d="M1104 0v2048h1476v-448h-920v-352h844v-448h-844v-352h916v-448h-1472zM560 1580v40l164 428h304v-28l-332 -440h-136zM504 2048v-144q-1 -88 -32.5 -158.5t-83 -120t-112.5 -73.5l-124 152q74 33 90.5 93.5t17.5 114.5v136h244z" />
    <glyph glyph-name="uni1F1D" unicode="&#x1f1d;" horiz-adv-x="2756" 
d="M1136 0v2048h1476v-448h-920v-352h844v-448h-844v-352h916v-448h-1472zM588 1580v40l156 428h308v-28l-336 -440h-128zM148 1904v144h240v-136q1 -69 20 -123.5t84 -84.5l-124 -152q-80 33 -149.5 122t-70.5 230z" />
    <glyph glyph-name="uni1FC8" unicode="&#x1fc8;" horiz-adv-x="2304" 
d="M684 0v2048h1476v-448h-920v-352h844v-448h-844v-352h916v-448h-1472zM604 1580h-128l-332 440v28h304l156 -420v-48z" />
    <glyph glyph-name="uni1FC9" unicode="&#x1fc9;" horiz-adv-x="2304" 
d="M684 0v2048h1476v-448h-920v-352h844v-448h-844v-352h916v-448h-1472zM84 1728v48l160 420h440v-28l-332 -440h-268z" />
    <glyph glyph-name="uni0415" unicode="&#x415;" horiz-adv-x="1752" 
d="M132 0v2048h1476v-448h-920v-352h844v-448h-844v-352h916v-448h-1472z" />
    <glyph glyph-name="uni0400" unicode="&#x400;" horiz-adv-x="1752" 
d="M132 0v2048h1476v-448h-920v-352h844v-448h-844v-352h916v-448h-1472zM696 2240l-300 448h472l192 -448h-364z" />
    <glyph glyph-name="uni0401" unicode="&#x401;" horiz-adv-x="1752" 
d="M132 0v2048h1476v-448h-920v-352h844v-448h-844v-352h916v-448h-1472zM560 2228q-102 0 -173 68t-71 164t71 164t173 68q99 0 169.5 -68t70.5 -164t-70.5 -164t-169.5 -68zM1196 2228q-102 0 -173 68t-71 164t71 164t173 68q99 0 169.5 -68t70.5 -164t-70.5 -164
t-169.5 -68z" />
    <glyph glyph-name="uni04D6" unicode="&#x4d6;" horiz-adv-x="1752" 
d="M132 0v2048h1476v-448h-920v-352h844v-448h-844v-352h916v-448h-1472zM1076 2600h348q-1 -195 -149 -311.5t-399 -116.5q-253 0 -401 116.5t-147 311.5h344q-1 -63 45.5 -115.5t158.5 -52.5q107 0 153 51t47 117z" />
    <glyph glyph-name="uni0046" unicode="F" horiz-adv-x="1644" 
d="M132 0v2048h1440v-448h-884v-352h796v-448h-796v-800h-556z" />
    <glyph glyph-name="uni0191" unicode="&#x191;" horiz-adv-x="1748" 
d="M236 0h556v-48q0 -181 -54.5 -287.5t-144.5 -158t-199 -67t-218 -15.5q-40 0 -118 1t-122 7v408q23 -3 49.5 -1.5t42.5 1.5q77 0 142.5 21.5t65.5 90.5v48zM236 0v2048h1440v-448h-884v-352h796v-448h-796v-800h-556z" />
    <glyph glyph-name="uni1E1E" unicode="&#x1e1e;" horiz-adv-x="1644" 
d="M132 0v2048h1440v-448h-884v-352h796v-448h-796v-800h-556zM857 2208q-113 0 -193 74t-80 178t80 178t192 74q113 0 192.5 -74t79.5 -178t-79.5 -178t-191.5 -74z" />
    <glyph glyph-name="uni2132" unicode="&#x2132;" horiz-adv-x="1644" 
d="M1512 2048v-2048h-1440v448h884v352h-796v448h796v800h556z" />
    <glyph glyph-name="uni0047" unicode="G" horiz-adv-x="2176" 
d="M1462 1372q-13 53 -41 93.5t-69.5 69t-96 43t-119.5 14.5q-140 0 -238.5 -67t-150 -193t-51.5 -304q0 -180 49 -308t146 -196t241 -68q127 0 211.5 37t126.5 105t42 160l96 -10h-468v396h908v-284q0 -280 -118.5 -478.5t-326 -304t-475.5 -105.5q-299 0 -525 127
t-352.5 362t-126.5 559q0 254 77.5 450t215.5 331.5t319 205t388 69.5q182 0 338.5 -51.5t277 -146t194.5 -223.5t90 -283h-562z" />
    <glyph glyph-name="uni01E4" unicode="&#x1e4;" horiz-adv-x="2176" 
d="M2112 688v-124h-972v124h972zM1462 1372q-13 53 -41 93.5t-69.5 69t-96 43t-119.5 14.5q-140 0 -238.5 -67t-150 -193t-51.5 -304q0 -180 49 -308t146 -196t241 -68q127 0 211.5 37t126.5 105t42 160l96 -10h-468v396h908v-284q0 -280 -118.5 -478.5t-326 -304
t-475.5 -105.5q-299 0 -525 127t-352.5 362t-126.5 559q0 254 77.5 450t215.5 331.5t319 205t388 69.5q182 0 338.5 -51.5t277 -146t194.5 -223.5t90 -283h-562z" />
    <glyph glyph-name="uni0193" unicode="&#x193;" horiz-adv-x="2464" 
d="M2024 1372h-568l-4 376q-1 158 63 278.5t174 203t248 124.5t283 42q60 0 117.5 -8.5t126.5 -23.5v-432q-39 3 -75.5 7.5t-72.5 4.5q-74 0 -141 -13t-109 -55t-42 -128v-376zM1462 1372q-13 53 -41 93.5t-69.5 69t-96 43t-119.5 14.5q-140 0 -238.5 -67t-150 -193
t-51.5 -304q0 -180 49 -308t146 -196t241 -68q127 0 211.5 37t126.5 105t42 160l96 -10h-468v396h908v-284q0 -280 -118.5 -478.5t-326 -304t-475.5 -105.5q-299 0 -525 127t-352.5 362t-126.5 559q0 254 77.5 450t215.5 331.5t319 205t388 69.5q182 0 338.5 -51.5t277 -146
t194.5 -223.5t90 -283h-562z" />
    <glyph glyph-name="uni011C" unicode="&#x11c;" horiz-adv-x="2176" 
d="M1462 1372q-13 53 -41 93.5t-69.5 69t-96 43t-119.5 14.5q-140 0 -238.5 -67t-150 -193t-51.5 -304q0 -180 49 -308t146 -196t241 -68q127 0 211.5 37t126.5 105t42 160l96 -10h-468v396h908v-284q0 -280 -118.5 -478.5t-326 -304t-475.5 -105.5q-299 0 -525 127
t-352.5 362t-126.5 559q0 254 77.5 450t215.5 331.5t319 205t388 69.5q182 0 338.5 -51.5t277 -146t194.5 -223.5t90 -283h-562zM912 2230h-456v12l460 456h384l460 -456v-12h-456l-196 220z" />
    <glyph glyph-name="uni011E" unicode="&#x11e;" horiz-adv-x="2176" 
d="M1462 1372q-13 53 -41 93.5t-69.5 69t-96 43t-119.5 14.5q-140 0 -238.5 -67t-150 -193t-51.5 -304q0 -180 49 -308t146 -196t241 -68q127 0 211.5 37t126.5 105t42 160l96 -10h-468v396h908v-284q0 -280 -118.5 -478.5t-326 -304t-475.5 -105.5q-299 0 -525 127
t-352.5 362t-126.5 559q0 254 77.5 450t215.5 331.5t319 205t388 69.5q182 0 338.5 -51.5t277 -146t194.5 -223.5t90 -283h-562zM1308 2600h348q-1 -195 -149 -311.5t-399 -116.5q-253 0 -401 116.5t-147 311.5h344q-1 -63 45.5 -115.5t158.5 -52.5q107 0 153 51t47 117z
" />
    <glyph glyph-name="uni0120" unicode="&#x120;" horiz-adv-x="2176" 
d="M1462 1372q-13 53 -41 93.5t-69.5 69t-96 43t-119.5 14.5q-140 0 -238.5 -67t-150 -193t-51.5 -304q0 -180 49 -308t146 -196t241 -68q127 0 211.5 37t126.5 105t42 160l96 -10h-468v396h908v-284q0 -280 -118.5 -478.5t-326 -304t-475.5 -105.5q-299 0 -525 127
t-352.5 362t-126.5 559q0 254 77.5 450t215.5 331.5t319 205t388 69.5q182 0 338.5 -51.5t277 -146t194.5 -223.5t90 -283h-562zM1109 2208q-113 0 -193 74t-80 178t80 178t192 74q113 0 192.5 -74t79.5 -178t-79.5 -178t-191.5 -74z" />
    <glyph glyph-name="uni0122" unicode="&#x122;" horiz-adv-x="2176" 
d="M1462 1372q-13 53 -41 93.5t-69.5 69t-96 43t-119.5 14.5q-140 0 -238.5 -67t-150 -193t-51.5 -304q0 -180 49 -308t146 -196t241 -68q127 0 211.5 37t126.5 105t42 160l96 -10h-468v396h908v-284q0 -280 -118.5 -478.5t-326 -304t-475.5 -105.5q-299 0 -525 127
t-352.5 362t-126.5 559q0 254 77.5 450t215.5 331.5t319 205t388 69.5q182 0 338.5 -51.5t277 -146t194.5 -223.5t90 -283h-562zM730 -632l132 478h496l-252 -478h-376z" />
    <glyph glyph-name="uni01E6" unicode="&#x1e6;" horiz-adv-x="2176" 
d="M1462 1372q-13 53 -41 93.5t-69.5 69t-96 43t-119.5 14.5q-140 0 -238.5 -67t-150 -193t-51.5 -304q0 -180 49 -308t146 -196t241 -68q127 0 211.5 37t126.5 105t42 160l96 -10h-468v396h908v-284q0 -280 -118.5 -478.5t-326 -304t-475.5 -105.5q-299 0 -525 127
t-352.5 362t-126.5 559q0 254 77.5 450t215.5 331.5t319 205t388 69.5q182 0 338.5 -51.5t277 -146t194.5 -223.5t90 -283h-562zM912 2700l196 -220l196 220h456v-12l-460 -456h-384l-460 456v12h456z" />
    <glyph glyph-name="uni01F4" unicode="&#x1f4;" horiz-adv-x="2176" 
d="M1462 1372q-13 53 -41 93.5t-69.5 69t-96 43t-119.5 14.5q-140 0 -238.5 -67t-150 -193t-51.5 -304q0 -180 49 -308t146 -196t241 -68q127 0 211.5 37t126.5 105t42 160l96 -10h-468v396h908v-284q0 -280 -118.5 -478.5t-326 -304t-475.5 -105.5q-299 0 -525 127
t-352.5 362t-126.5 559q0 254 77.5 450t215.5 331.5t319 205t388 69.5q182 0 338.5 -51.5t277 -146t194.5 -223.5t90 -283h-562zM924 2240l192 448h472l-300 -448h-364z" />
    <glyph glyph-name="uni1E20" unicode="&#x1e20;" horiz-adv-x="2176" 
d="M1462 1372q-13 53 -41 93.5t-69.5 69t-96 43t-119.5 14.5q-140 0 -238.5 -67t-150 -193t-51.5 -304q0 -180 49 -308t146 -196t241 -68q127 0 211.5 37t126.5 105t42 160l96 -10h-468v396h908v-284q0 -280 -118.5 -478.5t-326 -304t-475.5 -105.5q-299 0 -525 127
t-352.5 362t-126.5 559q0 254 77.5 450t215.5 331.5t319 205t388 69.5q182 0 338.5 -51.5t277 -146t194.5 -223.5t90 -283h-562zM1608 2560v-252h-1000v252h1000z" />
    <glyph glyph-name="uniE002" unicode="&#xe002;" horiz-adv-x="2192" 
d="M1128 -28q-297 0 -523 127t-353.5 362t-127.5 559q0 254 79 450t219 331.5t322.5 205t389.5 69.5q182 0 340 -51.5t280.5 -145.5t198 -223t91.5 -284h-560q-13 53 -42.5 94t-74 69t-100.5 42.5t-121 14.5q-140 0 -241 -67t-155 -193t-54 -304q0 -180 50 -308t147 -196
t239 -68q127 0 211.5 37t126.5 105t42 160l116 -10h-488v396h924v-1144h-354l-22 224h-12q-94 -120 -231.5 -186t-316.5 -66z" />
    <glyph glyph-name="uniE003" unicode="&#xe003;" horiz-adv-x="2196" 
d="M2132 688v-124h-992v124h992zM1128 -28q-297 0 -523 127t-353.5 362t-127.5 559q0 254 79 450t219 331.5t322.5 205t389.5 69.5q182 0 340 -51.5t280.5 -145.5t198 -223t91.5 -284h-560q-13 53 -42.5 94t-74 69t-100.5 42.5t-121 14.5q-140 0 -241 -67t-155 -193
t-54 -304q0 -180 50 -308t147 -196t239 -68q127 0 211.5 37t126.5 105t42 160l116 -10h-488v396h924v-1144h-354l-22 224h-12q-94 -120 -231.5 -186t-316.5 -66z" />
    <glyph glyph-name="uniE004" unicode="&#xe004;" horiz-adv-x="2464" 
d="M2044 1372h-568l-4 376q-1 158 63 278.5t174 203t248 124.5t283 42q60 0 117.5 -8.5t126.5 -23.5v-432q-39 3 -75.5 7.5t-72.5 4.5q-74 0 -141 -13t-109 -55t-42 -128v-376zM1128 -28q-297 0 -523 127t-353.5 362t-127.5 559q0 254 79 450t219 331.5t322.5 205
t389.5 69.5q182 0 340 -51.5t280.5 -145.5t198 -223t91.5 -284h-560q-13 53 -42.5 94t-74 69t-100.5 42.5t-121 14.5q-140 0 -241 -67t-155 -193t-54 -304q0 -180 50 -308t147 -196t239 -68q127 0 211.5 37t126.5 105t42 160l116 -10h-488v396h924v-1144h-354l-22 224h-12
q-94 -120 -231.5 -186t-316.5 -66z" />
    <glyph glyph-name="uniE005" unicode="&#xe005;" horiz-adv-x="2192" 
d="M1128 -28q-297 0 -523 127t-353.5 362t-127.5 559q0 254 79 450t219 331.5t322.5 205t389.5 69.5q182 0 340 -51.5t280.5 -145.5t198 -223t91.5 -284h-560q-13 53 -42.5 94t-74 69t-100.5 42.5t-121 14.5q-140 0 -241 -67t-155 -193t-54 -304q0 -180 50 -308t147 -196
t239 -68q127 0 211.5 37t126.5 105t42 160l116 -10h-488v396h924v-1144h-354l-22 224h-12q-94 -120 -231.5 -186t-316.5 -66zM912 2230h-456v12l460 456h384l460 -456v-12h-456l-196 220z" />
    <glyph glyph-name="uniE006" unicode="&#xe006;" horiz-adv-x="2192" 
d="M1128 -28q-297 0 -523 127t-353.5 362t-127.5 559q0 254 79 450t219 331.5t322.5 205t389.5 69.5q182 0 340 -51.5t280.5 -145.5t198 -223t91.5 -284h-560q-13 53 -42.5 94t-74 69t-100.5 42.5t-121 14.5q-140 0 -241 -67t-155 -193t-54 -304q0 -180 50 -308t147 -196
t239 -68q127 0 211.5 37t126.5 105t42 160l116 -10h-488v396h924v-1144h-354l-22 224h-12q-94 -120 -231.5 -186t-316.5 -66zM1308 2600h348q-1 -195 -149 -311.5t-399 -116.5q-253 0 -401 116.5t-147 311.5h344q-1 -63 45.5 -115.5t158.5 -52.5q107 0 153 51t47 117z" />
    <glyph glyph-name="uniE007" unicode="&#xe007;" horiz-adv-x="2192" 
d="M1128 -28q-297 0 -523 127t-353.5 362t-127.5 559q0 254 79 450t219 331.5t322.5 205t389.5 69.5q182 0 340 -51.5t280.5 -145.5t198 -223t91.5 -284h-560q-13 53 -42.5 94t-74 69t-100.5 42.5t-121 14.5q-140 0 -241 -67t-155 -193t-54 -304q0 -180 50 -308t147 -196
t239 -68q127 0 211.5 37t126.5 105t42 160l116 -10h-488v396h924v-1144h-354l-22 224h-12q-94 -120 -231.5 -186t-316.5 -66zM1109 2208q-113 0 -193 74t-80 178t80 178t192 74q113 0 192.5 -74t79.5 -178t-79.5 -178t-191.5 -74z" />
    <glyph glyph-name="uniE008" unicode="&#xe008;" horiz-adv-x="2192" 
d="M1128 -28q-297 0 -523 127t-353.5 362t-127.5 559q0 254 79 450t219 331.5t322.5 205t389.5 69.5q182 0 340 -51.5t280.5 -145.5t198 -223t91.5 -284h-560q-13 53 -42.5 94t-74 69t-100.5 42.5t-121 14.5q-140 0 -241 -67t-155 -193t-54 -304q0 -180 50 -308t147 -196
t239 -68q127 0 211.5 37t126.5 105t42 160l116 -10h-488v396h924v-1144h-354l-22 224h-12q-94 -120 -231.5 -186t-316.5 -66zM730 -632l132 478h496l-252 -478h-376z" />
    <glyph glyph-name="uniE009" unicode="&#xe009;" horiz-adv-x="2192" 
d="M1128 -28q-297 0 -523 127t-353.5 362t-127.5 559q0 254 79 450t219 331.5t322.5 205t389.5 69.5q182 0 340 -51.5t280.5 -145.5t198 -223t91.5 -284h-560q-13 53 -42.5 94t-74 69t-100.5 42.5t-121 14.5q-140 0 -241 -67t-155 -193t-54 -304q0 -180 50 -308t147 -196
t239 -68q127 0 211.5 37t126.5 105t42 160l116 -10h-488v396h924v-1144h-354l-22 224h-12q-94 -120 -231.5 -186t-316.5 -66zM912 2700l196 -220l196 220h456v-12l-460 -456h-384l-460 456v12h456z" />
    <glyph glyph-name="uniE00A" unicode="&#xe00a;" horiz-adv-x="2192" 
d="M1128 -28q-297 0 -523 127t-353.5 362t-127.5 559q0 254 79 450t219 331.5t322.5 205t389.5 69.5q182 0 340 -51.5t280.5 -145.5t198 -223t91.5 -284h-560q-13 53 -42.5 94t-74 69t-100.5 42.5t-121 14.5q-140 0 -241 -67t-155 -193t-54 -304q0 -180 50 -308t147 -196
t239 -68q127 0 211.5 37t126.5 105t42 160l116 -10h-488v396h924v-1144h-354l-22 224h-12q-94 -120 -231.5 -186t-316.5 -66zM924 2240l192 448h472l-300 -448h-364z" />
    <glyph glyph-name="uniE00B" unicode="&#xe00b;" horiz-adv-x="2192" 
d="M1128 -28q-297 0 -523 127t-353.5 362t-127.5 559q0 254 79 450t219 331.5t322.5 205t389.5 69.5q182 0 340 -51.5t280.5 -145.5t198 -223t91.5 -284h-560q-13 53 -42.5 94t-74 69t-100.5 42.5t-121 14.5q-140 0 -241 -67t-155 -193t-54 -304q0 -180 50 -308t147 -196
t239 -68q127 0 211.5 37t126.5 105t42 160l116 -10h-488v396h924v-1144h-354l-22 224h-12q-94 -120 -231.5 -186t-316.5 -66zM1608 2560v-252h-1000v252h1000z" />
    <glyph glyph-name="uni0048" unicode="H" horiz-adv-x="2112" 
d="M132 0v2048h556v-800h736v800h556v-2048h-556v800h-736v-800h-556z" />
    <glyph glyph-name="uni1E28" unicode="&#x1e28;" horiz-adv-x="2112" 
d="M132 0v2048h556v-800h736v800h556v-2048h-556v800h-736v-800h-556zM300 8h196l-16 -92q119 -18 185 -84t67 -164q2 -162 -158.5 -255t-441.5 -93v212q148 0 226 31.5t82 92.5q4 56 -43.5 92.5t-144.5 51.5z" />
    <glyph glyph-name="uni0124" unicode="&#x124;" horiz-adv-x="2112" 
d="M132 0v2048h556v-800h736v800h556v-2048h-556v800h-736v-800h-556zM860 2230h-456v12l460 456h384l460 -456v-12h-456l-196 220z" />
    <glyph glyph-name="uni021E" unicode="&#x21e;" horiz-adv-x="2112" 
d="M132 0v2048h556v-800h736v800h556v-2048h-556v800h-736v-800h-556zM860 2700l196 -220l196 220h456v-12l-460 -456h-384l-460 456v12h456z" />
    <glyph glyph-name="uni1E22" unicode="&#x1e22;" horiz-adv-x="2112" 
d="M132 0v2048h556v-800h736v800h556v-2048h-556v800h-736v-800h-556zM1057 2208q-113 0 -193 74t-80 178t80 178t192 74q113 0 192.5 -74t79.5 -178t-79.5 -178t-191.5 -74z" />
    <glyph glyph-name="uni1E24" unicode="&#x1e24;" horiz-adv-x="2112" 
d="M132 0v2048h556v-800h736v800h556v-2048h-556v800h-736v-800h-556zM1057 -620q-113 0 -193 74t-80 178t80 178t192 74q113 0 192.5 -74t79.5 -178t-79.5 -178t-191.5 -74z" />
    <glyph glyph-name="uni1E26" unicode="&#x1e26;" horiz-adv-x="2112" 
d="M132 0v2048h556v-800h736v800h556v-2048h-556v800h-736v-800h-556zM740 2228q-102 0 -173 68t-71 164t71 164t173 68q99 0 169.5 -68t70.5 -164t-70.5 -164t-169.5 -68zM1376 2228q-102 0 -173 68t-71 164t71 164t173 68q99 0 169.5 -68t70.5 -164t-70.5 -164t-169.5 -68
z" />
    <glyph glyph-name="uni1E2A" unicode="&#x1e2a;" horiz-adv-x="2112" 
d="M132 0v2048h556v-800h736v800h556v-2048h-556v800h-736v-800h-556zM1264 -100h344q-1 -126 -67.5 -226.5t-190 -159t-294.5 -58.5q-244 0 -394.5 121.5t-149.5 322.5h344q-1 -63 45.5 -115.5t158.5 -52.5q107 0 155 54t49 114z" />
    <glyph glyph-name="uni0126" unicode="&#x126;" horiz-adv-x="2344" 
d="M2268 1744v-264h-2192v264h2192zM248 0v2048h556v-800h736v800h556v-2048h-556v800h-736v-800h-556z" />
    <glyph glyph-name="uni04C7" unicode="&#x4c7;" horiz-adv-x="2112" 
d="M1424 0h556v-56q0 -43 -7.5 -113.5t-44 -149.5t-122 -149.5t-238.5 -115t-396 -44.5q-56 0 -110.5 6t-61.5 6v440q28 -1 75.5 -4.5t76.5 -3.5q62 0 125 12t105 48t42 108v16zM132 0v2048h556v-800h736v800h556v-2048h-556v800h-736v-800h-556z" />
    <glyph glyph-name="uni04A2" unicode="&#x4a2;" horiz-adv-x="2568" 
d="M132 0v2048h556v-800h736v800h556v-2048h-556v800h-736v-800h-556zM2512 344v-836h-532v836h532z" />
    <glyph glyph-name="uni04C9" unicode="&#x4c9;" horiz-adv-x="2444" 
d="M132 0v2048h556v-800h736v800h556v-2048h-556v800h-736v-800h-556zM2388 284v-272q3 -124 -40 -246t-117 -224t-167 -166l-244 140q31 54 68.5 113.5t65 141t26.5 201.5v312h408z" />
    <glyph glyph-name="uni04A4" unicode="&#x4a4;" horiz-adv-x="2872" 
d="M2796 2048v-448h-816v-1600h-556v800h-736v-800h-556v2048h556v-800h736v800h1372z" />
    <glyph glyph-name="uni01F6" unicode="&#x1f6;" horiz-adv-x="3180" 
d="M2232 -28q-250 0 -431 90t-279 257t-98 397v84h-736v-800h-556v2048h556v-800h736v800h556v-1332q0 -135 67.5 -211.5t184.5 -76.5t184.5 76.5t67.5 211.5v752h556v-752q0 -230 -97 -397t-278 -257t-433 -90z" />
    <glyph glyph-name="uni0397" unicode="&#x397;" horiz-adv-x="2112" 
d="M132 0v2048h556v-800h736v800h556v-2048h-556v800h-736v-800h-556z" />
    <glyph glyph-name="uni0389" unicode="&#x389;" horiz-adv-x="2740" 
d="M760 0v2048h556v-800h736v800h556v-2048h-556v800h-736v-800h-556zM156 1728l132 480h464l-288 -480h-308z" />
    <glyph glyph-name="uni1F28" unicode="&#x1f28;" horiz-adv-x="2616" 
d="M636 0v2048h556v-800h736v800h556v-2048h-556v800h-736v-800h-556zM476 2048v-144q0 -90 -31 -160.5t-81 -119t-108 -72.5l-124 152q44 20 67.5 51t32 71t8.5 86v136h236z" />
    <glyph glyph-name="uni1F29" unicode="&#x1f29;" horiz-adv-x="2568" 
d="M588 0v2048h556v-800h736v800h556v-2048h-556v800h-736v-800h-556zM148 1904v144h240v-136q1 -36 8 -76t29 -75t67 -57l-124 -152q-85 36 -151.5 126.5t-68.5 225.5z" />
    <glyph glyph-name="uni1F2A" unicode="&#x1f2a;" horiz-adv-x="3084" 
d="M1104 0v2048h556v-800h736v800h556v-2048h-556v800h-736v-800h-556zM1056 1604v-20h-136l-332 436v28h304zM524 2048v-112q1 -80 -31 -151t-92 -130t-145 -103l-112 84q58 63 87.5 137.5t28.5 170.5v104h264z" />
    <glyph glyph-name="uni1F2B" unicode="&#x1f2b;" horiz-adv-x="3016" 
d="M1036 0v2048h556v-800h736v800h556v-2048h-556v800h-736v-800h-556zM972 1620v-40h-136l-332 440v28h308zM136 1904v144h244v-136q-1 -54 15.5 -114.5t92.5 -93.5l-124 -152q-94 36 -161.5 126.5t-66.5 225.5z" />
    <glyph glyph-name="uni1F2C" unicode="&#x1f2c;" horiz-adv-x="3076" 
d="M1096 0v2048h556v-800h736v800h556v-2048h-556v800h-736v-800h-556zM560 1580v40l164 428h304v-28l-332 -440h-136zM504 2048v-144q-1 -88 -32.5 -158.5t-83 -120t-112.5 -73.5l-124 152q74 33 90.5 93.5t17.5 114.5v136h244z" />
    <glyph glyph-name="uni1F2D" unicode="&#x1f2d;" horiz-adv-x="3108" 
d="M1128 0v2048h556v-800h736v800h556v-2048h-556v800h-736v-800h-556zM588 1580v40l156 428h308v-28l-336 -440h-128zM148 1904v144h240v-136q1 -69 20 -123.5t84 -84.5l-124 -152q-80 33 -149.5 122t-70.5 230z" />
    <glyph glyph-name="uni1F2E" unicode="&#x1f2e;" horiz-adv-x="2860" 
d="M880 0v2048h556v-800h736v800h556v-2048h-556v800h-736v-800h-556zM800 2400l208 -64q0 -99 -65 -173.5t-167 -74.5q-55 0 -99.5 13.5t-83.5 30.5t-78.5 30.5t-86.5 13.5q-39 0 -61.5 -36t-22.5 -84l-208 60q0 99 65 175.5t167 76.5q45 0 88.5 -12.5t87 -29.5t86.5 -29.5
t86 -12.5q36 0 60 34t24 82zM712 2016v-120q0 -120 -69.5 -190.5t-162.5 -97.5l-108 124q72 21 88 74.5t16 101.5v108h236z" />
    <glyph glyph-name="uni1F2F" unicode="&#x1f2f;" horiz-adv-x="2916" 
d="M936 0v2048h556v-800h736v800h556v-2048h-556v800h-736v-800h-556zM480 1896v120h236v-108q0 -48 16 -101.5t88 -74.5l-112 -124q-81 24 -154.5 93t-73.5 195zM800 2400l208 -64q0 -99 -65 -173.5t-167 -74.5q-55 0 -99.5 13.5t-83.5 30.5t-78.5 30.5t-86.5 13.5
q-39 0 -61.5 -36t-22.5 -84l-208 60q0 99 65 175.5t167 76.5q45 0 88.5 -12.5t87 -29.5t86.5 -29.5t86 -12.5q36 0 60 34t24 82z" />
    <glyph glyph-name="uni1FCA" unicode="&#x1fca;" horiz-adv-x="2656" 
d="M676 0v2048h556v-800h736v800h556v-2048h-556v800h-736v-800h-556zM604 1580h-128l-332 440v28h304l156 -420v-48z" />
    <glyph glyph-name="uni1FCB" unicode="&#x1fcb;" horiz-adv-x="2656" 
d="M676 0v2048h556v-800h736v800h556v-2048h-556v800h-736v-800h-556zM84 1728v48l160 420h440v-28l-332 -440h-268z" />
    <glyph glyph-name="uni041D" unicode="&#x41d;" horiz-adv-x="2112" 
d="M132 0v2048h556v-800h736v800h556v-2048h-556v800h-736v-800h-556z" />
    <glyph glyph-name="uni1F98" unicode="&#x1f98;" horiz-adv-x="2576" 
d="M596 0v2048h556v-800h736v800h556v-2048h-556v800h-736v-800h-556zM1664 -680q-113 0 -196.5 61t-83.5 199v280h284v-280q0 -30 15 -47t65 -17q25 0 39 2t25 2v-180q-35 -9 -70 -14.5t-78 -5.5zM436 2048v-144q0 -90 -31 -160.5t-81 -119t-108 -72.5l-124 152
q44 20 67.5 51t32 71t8.5 86v136h236z" />
    <glyph glyph-name="uni1F99" unicode="&#x1f99;" horiz-adv-x="2568" 
d="M588 0v2048h556v-800h736v800h556v-2048h-556v800h-736v-800h-556zM1656 -680q-113 0 -196.5 61t-83.5 199v280h284v-280q0 -30 15 -47t65 -17q25 0 39 2t25 2v-180q-35 -9 -70 -14.5t-78 -5.5zM148 1904v144h240v-136q1 -36 8 -76t29 -75t67 -57l-124 -152
q-85 36 -151.5 126.5t-68.5 225.5z" />
    <glyph glyph-name="uni1F9A" unicode="&#x1f9a;" horiz-adv-x="3084" 
d="M1104 0v2048h556v-800h736v800h556v-2048h-556v800h-736v-800h-556zM2172 -680q-113 0 -196.5 61t-83.5 199v280h284v-280q0 -30 15 -47t65 -17q25 0 39 2t25 2v-180q-35 -9 -70 -14.5t-78 -5.5zM1056 1604v-20h-136l-332 436v28h304zM524 2048v-112q1 -80 -31 -151
t-92 -130t-145 -103l-112 84q58 63 87.5 137.5t28.5 170.5v104h264z" />
    <glyph glyph-name="uni1F9B" unicode="&#x1f9b;" horiz-adv-x="3016" 
d="M1036 0v2048h556v-800h736v800h556v-2048h-556v800h-736v-800h-556zM2104 -680q-113 0 -196.5 61t-83.5 199v280h284v-280q0 -30 15 -47t65 -17q25 0 39 2t25 2v-180q-35 -9 -70 -14.5t-78 -5.5zM972 1620v-40h-136l-332 440v28h308zM136 1904v144h244v-136
q-1 -54 15.5 -114.5t92.5 -93.5l-124 -152q-94 36 -161.5 126.5t-66.5 225.5z" />
    <glyph glyph-name="uni1F9C" unicode="&#x1f9c;" horiz-adv-x="3076" 
d="M1096 0v2048h556v-800h736v800h556v-2048h-556v800h-736v-800h-556zM2164 -680q-113 0 -196.5 61t-83.5 199v280h284v-280q0 -30 15 -47t65 -17q25 0 39 2t25 2v-180q-35 -9 -70 -14.5t-78 -5.5zM560 1580v40l164 428h304v-28l-332 -440h-136zM504 2048v-144
q-1 -88 -32.5 -158.5t-83 -120t-112.5 -73.5l-124 152q74 33 90.5 93.5t17.5 114.5v136h244z" />
    <glyph glyph-name="uni1F9D" unicode="&#x1f9d;" horiz-adv-x="3108" 
d="M1128 0v2048h556v-800h736v800h556v-2048h-556v800h-736v-800h-556zM2196 -680q-113 0 -196.5 61t-83.5 199v280h284v-280q0 -30 15 -47t65 -17q25 0 39 2t25 2v-180q-35 -9 -70 -14.5t-78 -5.5zM588 1580v40l156 428h308v-28l-336 -440h-128zM148 1904v144h240v-136
q1 -69 20 -123.5t84 -84.5l-124 -152q-80 33 -149.5 122t-70.5 230z" />
    <glyph glyph-name="uni1F9E" unicode="&#x1f9e;" horiz-adv-x="2860" 
d="M880 0v2048h556v-800h736v800h556v-2048h-556v800h-736v-800h-556zM1948 -680q-113 0 -196.5 61t-83.5 199v280h284v-280q0 -30 15 -47t65 -17q25 0 39 2t25 2v-180q-35 -9 -70 -14.5t-78 -5.5zM800 2400l208 -64q0 -99 -65 -173.5t-167 -74.5q-55 0 -99.5 13.5
t-83.5 30.5t-78.5 30.5t-86.5 13.5q-39 0 -61.5 -36t-22.5 -84l-208 60q0 99 65 175.5t167 76.5q45 0 88.5 -12.5t87 -29.5t86.5 -29.5t86 -12.5q36 0 60 34t24 82zM712 2016v-120q0 -120 -69.5 -190.5t-162.5 -97.5l-108 124q72 21 88 74.5t16 101.5v108h236z" />
    <glyph glyph-name="uni1F9F" unicode="&#x1f9f;" horiz-adv-x="2916" 
d="M936 0v2048h556v-800h736v800h556v-2048h-556v800h-736v-800h-556zM2004 -680q-113 0 -196.5 61t-83.5 199v280h284v-280q0 -30 15 -47t65 -17q25 0 39 2t25 2v-180q-35 -9 -70 -14.5t-78 -5.5zM480 1896v120h236v-108q0 -48 16 -101.5t88 -74.5l-112 -124
q-81 24 -154.5 93t-73.5 195zM800 2400l208 -64q0 -99 -65 -173.5t-167 -74.5q-55 0 -99.5 13.5t-83.5 30.5t-78.5 30.5t-86.5 13.5q-39 0 -61.5 -36t-22.5 -84l-208 60q0 99 65 175.5t167 76.5q45 0 88.5 -12.5t87 -29.5t86.5 -29.5t86 -12.5q36 0 60 34t24 82z" />
    <glyph glyph-name="uni1FCC" unicode="&#x1fcc;" horiz-adv-x="2112" 
d="M132 0v2048h556v-800h736v800h556v-2048h-556v800h-736v-800h-556zM1200 -680q-113 0 -196.5 61t-83.5 199v280h284v-280q0 -30 15 -47t65 -17q25 0 39 2t25 2v-180q-35 -9 -70 -14.5t-78 -5.5z" />
    <glyph glyph-name="uni0049" unicode="I" horiz-adv-x="820" 
d="M688 2048v-2048h-556v2048h556z" />
    <glyph glyph-name="uni00CF" unicode="&#xcf;" horiz-adv-x="820" 
d="M688 2048v-2048h-556v2048h556zM96 2228q-102 0 -173 68t-71 164t71 164t173 68q99 0 169.5 -68t70.5 -164t-70.5 -164t-169.5 -68zM732 2228q-102 0 -173 68t-71 164t71 164t173 68q99 0 169.5 -68t70.5 -164t-70.5 -164t-169.5 -68z" />
    <glyph glyph-name="uni1E2E" unicode="&#x1e2e;" horiz-adv-x="820" 
d="M688 2048v-2048h-556v2048h556zM208 2712l266 386h452l-346 -386h-372zM117 2176q-95 0 -161.5 61t-66.5 148t66.5 148.5t161.5 61.5q92 0 158 -61.5t66 -148.5t-66 -148t-158 -61zM711 2176q-95 0 -161.5 61t-66.5 148t66.5 148.5t161.5 61.5q93 0 159 -61.5t66 -148.5
t-66 -148t-159 -61z" />
    <glyph glyph-name="uni0197" unicode="&#x197;" horiz-adv-x="820" 
d="M688 2048v-2048h-556v2048h556zM-132 948v296h1076v-296h-1076z" />
    <glyph glyph-name="uni1E2C" unicode="&#x1e2c;" horiz-adv-x="820" 
d="M688 2048v-2048h-556v2048h556zM172 -576h-272q0 216 99 321.5t241 106.5q78 0 132.5 -24.5t95.5 -57.5t74.5 -57.5t69.5 -24.5q58 1 82.5 42t25.5 114h268q-3 -212 -101.5 -321t-238.5 -111q-78 -1 -132.5 24t-94 57.5t-73.5 57.5t-72 25q-48 0 -76 -38.5t-28 -113.5z
" />
    <glyph glyph-name="uni00CC" unicode="&#xcc;" horiz-adv-x="820" 
d="M688 2048v-2048h-556v2048h556zM232 2240l-300 448h472l192 -448h-364z" />
    <glyph glyph-name="uni00CD" unicode="&#xcd;" horiz-adv-x="820" 
d="M688 2048v-2048h-556v2048h556zM228 2240l192 448h472l-300 -448h-364z" />
    <glyph glyph-name="uni00CE" unicode="&#xce;" horiz-adv-x="820" 
d="M688 2048v-2048h-556v2048h556zM216 2230h-456v12l460 456h384l460 -456v-12h-456l-196 220z" />
    <glyph glyph-name="uni0128" unicode="&#x128;" horiz-adv-x="1284" 
d="M916 2048v-2048h-556v2048h556zM368 2240h-272q0 216 99 321.5t241 106.5q78 0 132.5 -24.5t95.5 -57.5t74.5 -57.5t69.5 -24.5q58 1 82.5 42t25.5 114h268q-3 -212 -101.5 -321t-238.5 -111q-78 -1 -132.5 24t-94 57.5t-73.5 57.5t-72 25q-48 0 -76 -38.5t-28 -113.5z
" />
    <glyph glyph-name="uni012A" unicode="&#x12a;" horiz-adv-x="820" 
d="M688 2048v-2048h-556v2048h556zM912 2560v-252h-1000v252h1000z" />
    <glyph glyph-name="uni012C" unicode="&#x12c;" horiz-adv-x="820" 
d="M688 2048v-2048h-556v2048h556zM612 2600h348q-1 -195 -149 -311.5t-399 -116.5q-253 0 -401 116.5t-147 311.5h344q-1 -63 45.5 -115.5t158.5 -52.5q107 0 153 51t47 117z" />
    <glyph glyph-name="uni012E" unicode="&#x12e;" horiz-adv-x="820" 
d="M688 2048v-2048h-556v2048h556zM488 -556q-139 0 -234.5 69t-133.5 195q-26 86 -20.5 175t40 158t92.5 95l456 -136q-97 -30 -149 -65t-51 -95q-1 -51 25.5 -77.5t66.5 -26.5q26 0 45.5 6.5t38.5 9.5l64 -248q-40 -21 -100 -40.5t-140 -19.5z" />
    <glyph glyph-name="uni0130" unicode="&#x130;" horiz-adv-x="820" 
d="M688 2048v-2048h-556v2048h556zM413 2208q-113 0 -193 74t-80 178t80 178t192 74q113 0 192.5 -74t79.5 -178t-79.5 -178t-191.5 -74z" />
    <glyph glyph-name="uni01CF" unicode="&#x1cf;" horiz-adv-x="820" 
d="M688 2048v-2048h-556v2048h556zM216 2700l196 -220l196 220h456v-12l-460 -456h-384l-460 456v12h456z" />
    <glyph glyph-name="uni0208" unicode="&#x208;" horiz-adv-x="820" 
d="M688 2048v-2048h-556v2048h556zM342 2240h-364l-300 448h472zM874 2240h-354l-194 448h446z" />
    <glyph glyph-name="uni020A" unicode="&#x20a;" horiz-adv-x="820" 
d="M688 2048v-2048h-556v2048h556zM-140 2288q-1 195 147 319.5t401 124.5q251 0 401 -124.5t151 -319.5h-348q-1 63 -47.5 113.5t-156.5 50.5q-109 0 -155 -50.5t-45 -113.5h-348z" />
    <glyph glyph-name="uni1EC8" unicode="&#x1ec8;" horiz-adv-x="820" 
d="M688 2048v-2048h-556v2048h556zM604 2276h-396l-36 156q107 3 152.5 27t43.5 57q2 54 -51.5 69t-136.5 15l12 220q308 0 469 -72t159 -204q2 -84 -65.5 -130t-150.5 -58v-80z" />
    <glyph glyph-name="uni1ECA" unicode="&#x1eca;" horiz-adv-x="820" 
d="M688 2048v-2048h-556v2048h556zM409 -620q-113 0 -193 74t-80 178t80 178t192 74q113 0 192.5 -74t79.5 -178t-79.5 -178t-191.5 -74z" />
    <glyph glyph-name="uni0399" unicode="&#x399;" horiz-adv-x="820" 
d="M688 2048v-2048h-556v2048h556z" />
    <glyph glyph-name="uni038A" unicode="&#x38a;" horiz-adv-x="1244" 
d="M1112 2048v-2048h-556v2048h556zM0 1728l132 480h464l-288 -480h-308z" />
    <glyph glyph-name="uni03AA" unicode="&#x3aa;" horiz-adv-x="820" 
d="M688 2048v-2048h-556v2048h556zM96 2228q-102 0 -173 68t-71 164t71 164t173 68q99 0 169.5 -68t70.5 -164t-70.5 -164t-169.5 -68zM732 2228q-102 0 -173 68t-71 164t71 164t173 68q99 0 169.5 -68t70.5 -164t-70.5 -164t-169.5 -68z" />
    <glyph glyph-name="uni1F38" unicode="&#x1f38;" horiz-adv-x="1264" 
d="M1144 2048v-2048h-556v2048h556zM476 2048v-144q0 -90 -31 -160.5t-81 -119t-108 -72.5l-124 152q44 20 67.5 51t32 71t8.5 86v136h236z" />
    <glyph glyph-name="uni1F39" unicode="&#x1f39;" horiz-adv-x="1216" 
d="M1096 2048v-2048h-556v2048h556zM148 1904v144h240v-136q1 -36 8 -76t29 -75t67 -57l-124 -152q-85 36 -151.5 126.5t-68.5 225.5z" />
    <glyph glyph-name="uni1F3A" unicode="&#x1f3a;" horiz-adv-x="1732" 
d="M1612 2048v-2048h-556v2048h556zM1056 1604v-20h-136l-332 436v28h304zM524 2048v-112q1 -80 -31 -151t-92 -130t-145 -103l-112 84q58 63 87.5 137.5t28.5 170.5v104h264z" />
    <glyph glyph-name="uni1F3B" unicode="&#x1f3b;" horiz-adv-x="1664" 
d="M1544 2048v-2048h-556v2048h556zM972 1620v-40h-136l-332 440v28h308zM136 1904v144h244v-136q-1 -54 15.5 -114.5t92.5 -93.5l-124 -152q-94 36 -161.5 126.5t-66.5 225.5z" />
    <glyph glyph-name="uni1F3C" unicode="&#x1f3c;" horiz-adv-x="1724" 
d="M1604 2048v-2048h-556v2048h556zM560 1580v40l164 428h304v-28l-332 -440h-136zM504 2048v-144q-1 -88 -32.5 -158.5t-83 -120t-112.5 -73.5l-124 152q74 33 90.5 93.5t17.5 114.5v136h244z" />
    <glyph glyph-name="uni1F3D" unicode="&#x1f3d;" horiz-adv-x="1756" 
d="M1636 2048v-2048h-556v2048h556zM588 1580v40l156 428h308v-28l-336 -440h-128zM148 1904v144h240v-136q1 -69 20 -123.5t84 -84.5l-124 -152q-80 33 -149.5 122t-70.5 230z" />
    <glyph glyph-name="uni1F3E" unicode="&#x1f3e;" horiz-adv-x="1508" 
d="M1388 2048v-2048h-556v2048h556zM800 2400l208 -64q0 -99 -65 -173.5t-167 -74.5q-55 0 -99.5 13.5t-83.5 30.5t-78.5 30.5t-86.5 13.5q-39 0 -61.5 -36t-22.5 -84l-208 60q0 99 65 175.5t167 76.5q45 0 88.5 -12.5t87 -29.5t86.5 -29.5t86 -12.5q36 0 60 34t24 82z
M712 2016v-120q0 -120 -69.5 -190.5t-162.5 -97.5l-108 124q72 21 88 74.5t16 101.5v108h236z" />
    <glyph glyph-name="uni1F3F" unicode="&#x1f3f;" horiz-adv-x="1564" 
d="M1444 2048v-2048h-556v2048h556zM480 1896v120h236v-108q0 -48 16 -101.5t88 -74.5l-112 -124q-81 24 -154.5 93t-73.5 195zM800 2400l208 -64q0 -99 -65 -173.5t-167 -74.5q-55 0 -99.5 13.5t-83.5 30.5t-78.5 30.5t-86.5 13.5q-39 0 -61.5 -36t-22.5 -84l-208 60
q0 99 65 175.5t167 76.5q45 0 88.5 -12.5t87 -29.5t86.5 -29.5t86 -12.5q36 0 60 34t24 82z" />
    <glyph glyph-name="uni1FD8" unicode="&#x1fd8;" horiz-adv-x="820" 
d="M688 2048v-2048h-556v2048h556zM612 2600h348q-1 -195 -149 -311.5t-399 -116.5q-253 0 -401 116.5t-147 311.5h344q-1 -63 45.5 -115.5t158.5 -52.5q107 0 153 51t47 117z" />
    <glyph glyph-name="uni1FD9" unicode="&#x1fd9;" horiz-adv-x="820" 
d="M688 2048v-2048h-556v2048h556zM912 2560v-252h-1000v252h1000z" />
    <glyph glyph-name="uni1FDA" unicode="&#x1fda;" horiz-adv-x="1304" 
d="M1184 2048v-2048h-556v2048h556zM604 1580h-128l-332 440v28h304l156 -420v-48z" />
    <glyph glyph-name="uni1FDB" unicode="&#x1fdb;" horiz-adv-x="1304" 
d="M1184 2048v-2048h-556v2048h556zM84 1728v48l160 420h440v-28l-332 -440h-268z" />
    <glyph glyph-name="uni0406" unicode="&#x406;" horiz-adv-x="820" 
d="M688 2048v-2048h-556v2048h556z" />
    <glyph glyph-name="uni0407" unicode="&#x407;" horiz-adv-x="820" 
d="M688 2048v-2048h-556v2048h556zM96 2228q-102 0 -173 68t-71 164t71 164t173 68q99 0 169.5 -68t70.5 -164t-70.5 -164t-169.5 -68zM732 2228q-102 0 -173 68t-71 164t71 164t173 68q99 0 169.5 -68t70.5 -164t-70.5 -164t-169.5 -68z" />
    <glyph glyph-name="uniE00C" unicode="&#xe00c;" horiz-adv-x="1420" 
d="M76 1600v448h1268v-448h-1268zM76 0v448h1268v-448h-1268zM988 2048v-2048h-556v2048h556z" />
    <glyph glyph-name="uniE00D" unicode="&#xe00d;" horiz-adv-x="1420" 
d="M76 1600v448h1268v-448h-1268zM76 0v448h1268v-448h-1268zM988 2048v-2048h-556v2048h556zM396 2228q-102 0 -173 68t-71 164t71 164t173 68q99 0 169.5 -68t70.5 -164t-70.5 -164t-169.5 -68zM1032 2228q-102 0 -173 68t-71 164t71 164t173 68q99 0 169.5 -68t70.5 -164
t-70.5 -164t-169.5 -68z" />
    <glyph glyph-name="uniE00E" unicode="&#xe00e;" horiz-adv-x="1420" 
d="M76 1600v448h1268v-448h-1268zM76 0v448h1268v-448h-1268zM988 2048v-2048h-556v2048h556zM508 2712l266 386h452l-346 -386h-372zM417 2176q-95 0 -161.5 61t-66.5 148t66.5 148.5t161.5 61.5q92 0 158 -61.5t66 -148.5t-66 -148t-158 -61zM1011 2176q-95 0 -161.5 61
t-66.5 148t66.5 148.5t161.5 61.5q93 0 159 -61.5t66 -148.5t-66 -148t-159 -61z" />
    <glyph glyph-name="uniE00F" unicode="&#xe00f;" horiz-adv-x="1420" 
d="M76 1600v448h1268v-448h-1268zM76 0v448h1268v-448h-1268zM988 2048v-2048h-556v2048h556zM168 948v296h1076v-296h-1076z" />
    <glyph glyph-name="uniE010" unicode="&#xe010;" horiz-adv-x="1420" 
d="M76 1600v448h1268v-448h-1268zM76 0v448h1268v-448h-1268zM988 2048v-2048h-556v2048h556zM472 -576h-272q0 216 99 321.5t241 106.5q78 0 132.5 -24.5t95.5 -57.5t74.5 -57.5t69.5 -24.5q58 1 82.5 42t25.5 114h268q-3 -212 -101.5 -321t-238.5 -111q-78 -1 -132.5 24
t-94 57.5t-73.5 57.5t-72 25q-48 0 -76 -38.5t-28 -113.5z" />
    <glyph glyph-name="uniE011" unicode="&#xe011;" horiz-adv-x="1420" 
d="M76 1600v448h1268v-448h-1268zM76 0v448h1268v-448h-1268zM988 2048v-2048h-556v2048h556zM532 2240l-300 448h472l192 -448h-364z" />
    <glyph glyph-name="uniE012" unicode="&#xe012;" horiz-adv-x="1420" 
d="M76 1600v448h1268v-448h-1268zM76 0v448h1268v-448h-1268zM988 2048v-2048h-556v2048h556zM528 2240l192 448h472l-300 -448h-364z" />
    <glyph glyph-name="uniE013" unicode="&#xe013;" horiz-adv-x="1420" 
d="M76 1600v448h1268v-448h-1268zM76 0v448h1268v-448h-1268zM988 2048v-2048h-556v2048h556zM516 2230h-456v12l460 456h384l460 -456v-12h-456l-196 220z" />
    <glyph glyph-name="uniE014" unicode="&#xe014;" horiz-adv-x="1420" 
d="M76 1600v448h1268v-448h-1268zM76 0v448h1268v-448h-1268zM988 2048v-2048h-556v2048h556zM440 2240h-272q0 216 99 321.5t241 106.5q78 0 132.5 -24.5t95.5 -57.5t74.5 -57.5t69.5 -24.5q58 1 82.5 42t25.5 114h268q-3 -212 -101.5 -321t-238.5 -111q-78 -1 -132.5 24
t-94 57.5t-73.5 57.5t-72 25q-48 0 -76 -38.5t-28 -113.5z" />
    <glyph glyph-name="uniE015" unicode="&#xe015;" horiz-adv-x="1420" 
d="M76 1600v448h1268v-448h-1268zM76 0v448h1268v-448h-1268zM988 2048v-2048h-556v2048h556zM1212 2560v-252h-1000v252h1000z" />
    <glyph glyph-name="uniE016" unicode="&#xe016;" horiz-adv-x="1420" 
d="M76 1600v448h1268v-448h-1268zM76 0v448h1268v-448h-1268zM988 2048v-2048h-556v2048h556zM912 2600h348q-1 -195 -149 -311.5t-399 -116.5q-253 0 -401 116.5t-147 311.5h344q-1 -63 45.5 -115.5t158.5 -52.5q107 0 153 51t47 117z" />
    <glyph glyph-name="uniE017" unicode="&#xe017;" horiz-adv-x="1420" 
d="M76 1600v448h1268v-448h-1268zM76 0v448h1268v-448h-1268zM988 2048v-2048h-556v2048h556zM1144 -556q-139 0 -234.5 69t-133.5 195q-26 86 -20.5 175t40 158t92.5 95l456 -136q-97 -30 -149 -65t-51 -95q-1 -51 25.5 -77.5t66.5 -26.5q26 0 45.5 6.5t38.5 9.5l64 -248
q-40 -21 -100 -40.5t-140 -19.5z" />
    <glyph glyph-name="uniE018" unicode="&#xe018;" horiz-adv-x="1420" 
d="M76 1600v448h1268v-448h-1268zM76 0v448h1268v-448h-1268zM988 2048v-2048h-556v2048h556zM713 2208q-113 0 -193 74t-80 178t80 178t192 74q113 0 192.5 -74t79.5 -178t-79.5 -178t-191.5 -74z" />
    <glyph glyph-name="uniE019" unicode="&#xe019;" horiz-adv-x="1420" 
d="M76 1600v448h1268v-448h-1268zM76 0v448h1268v-448h-1268zM988 2048v-2048h-556v2048h556zM516 2700l196 -220l196 220h456v-12l-460 -456h-384l-460 456v12h456z" />
    <glyph glyph-name="uniE01A" unicode="&#xe01a;" horiz-adv-x="1420" 
d="M76 1600v448h1268v-448h-1268zM76 0v448h1268v-448h-1268zM988 2048v-2048h-556v2048h556zM642 2240h-364l-300 448h472zM1174 2240h-354l-194 448h446z" />
    <glyph glyph-name="uniE01B" unicode="&#xe01b;" horiz-adv-x="1420" 
d="M76 1600v448h1268v-448h-1268zM76 0v448h1268v-448h-1268zM988 2048v-2048h-556v2048h556zM160 2288q-1 195 147 319.5t401 124.5q251 0 401 -124.5t151 -319.5h-348q-1 63 -47.5 113.5t-156.5 50.5q-109 0 -155 -50.5t-45 -113.5h-348z" />
    <glyph glyph-name="uniE01C" unicode="&#xe01c;" horiz-adv-x="1420" 
d="M76 1600v448h1268v-448h-1268zM76 0v448h1268v-448h-1268zM988 2048v-2048h-556v2048h556zM904 2276h-396l-36 156q107 3 152.5 27t43.5 57q2 54 -51.5 69t-136.5 15l12 220q308 0 469 -72t159 -204q2 -84 -65.5 -130t-150.5 -58v-80z" />
    <glyph glyph-name="uniE01D" unicode="&#xe01d;" horiz-adv-x="1420" 
d="M76 1600v448h1268v-448h-1268zM76 0v448h1268v-448h-1268zM988 2048v-2048h-556v2048h556zM709 -620q-113 0 -193 74t-80 178t80 178t192 74q113 0 192.5 -74t79.5 -178t-79.5 -178t-191.5 -74z" />
    <glyph glyph-name="uniE01E" unicode="&#xe01e;" horiz-adv-x="1876" 
d="M532 1600v448h1268v-448h-1268zM532 0v448h1268v-448h-1268zM1444 2048v-2048h-556v2048h556zM420 2048v-144q0 -90 -31 -160.5t-81 -119t-108 -72.5l-124 152q44 20 67.5 51t32 71t8.5 86v136h236z" />
    <glyph glyph-name="uniE01F" unicode="&#xe01f;" horiz-adv-x="1812" 
d="M468 1600v448h1268v-448h-1268zM468 0v448h1268v-448h-1268zM1380 2048v-2048h-556v2048h556zM76 1904v144h240v-136q1 -36 8 -76t29 -75t67 -57l-124 -152q-85 36 -151.5 126.5t-68.5 225.5z" />
    <glyph glyph-name="uniE020" unicode="&#xe020;" horiz-adv-x="2332" 
d="M988 1600v448h1268v-448h-1268zM988 0v448h1268v-448h-1268zM1900 2048v-2048h-556v2048h556zM988 1604v-20h-136l-332 436v28h304zM456 2048v-112q1 -80 -31 -151t-92 -130t-145 -103l-112 84q58 63 87.5 137.5t28.5 170.5v104h264z" />
    <glyph glyph-name="uniE021" unicode="&#xe021;" horiz-adv-x="2272" 
d="M928 1600v448h1268v-448h-1268zM928 0v448h1268v-448h-1268zM1840 2048v-2048h-556v2048h556zM912 1620v-40h-136l-332 440v28h308zM76 1904v144h244v-136q-1 -54 15.5 -114.5t92.5 -93.5l-124 -152q-94 36 -161.5 126.5t-66.5 225.5z" />
    <glyph glyph-name="uniE022" unicode="&#xe022;" horiz-adv-x="2316" 
d="M972 1600v448h1268v-448h-1268zM972 0v448h1268v-448h-1268zM1884 2048v-2048h-556v2048h556zM484 1580v40l164 428h304v-28l-332 -440h-136zM428 2048v-144q-1 -88 -32.5 -158.5t-83 -120t-112.5 -73.5l-124 152q74 33 90.5 93.5t17.5 114.5v136h244z" />
    <glyph glyph-name="uniE023" unicode="&#xe023;" horiz-adv-x="2352" 
d="M1008 1600v448h1268v-448h-1268zM1008 0v448h1268v-448h-1268zM1920 2048v-2048h-556v2048h556zM516 1580v40l156 428h308v-28l-336 -440h-128zM76 1904v144h240v-136q1 -69 20 -123.5t84 -84.5l-124 -152q-80 33 -149.5 122t-70.5 230z" />
    <glyph glyph-name="uniE024" unicode="&#xe024;" horiz-adv-x="2116" 
d="M772 1600v448h1268v-448h-1268zM772 0v448h1268v-448h-1268zM1684 2048v-2048h-556v2048h556zM740 2400l208 -64q0 -99 -65 -173.5t-167 -74.5q-55 0 -99.5 13.5t-83.5 30.5t-78.5 30.5t-86.5 13.5q-39 0 -61.5 -36t-22.5 -84l-208 60q0 99 65 175.5t167 76.5
q45 0 88.5 -12.5t87 -29.5t86.5 -29.5t86 -12.5q36 0 60 34t24 82zM652 2016v-120q0 -120 -69.5 -190.5t-162.5 -97.5l-108 124q72 21 88 74.5t16 101.5v108h236z" />
    <glyph glyph-name="uniE025" unicode="&#xe025;" horiz-adv-x="2172" 
d="M828 1600v448h1268v-448h-1268zM828 0v448h1268v-448h-1268zM1740 2048v-2048h-556v2048h556zM420 1896v120h236v-108q0 -48 16 -101.5t88 -74.5l-112 -124q-81 24 -154.5 93t-73.5 195zM740 2400l208 -64q0 -99 -65 -173.5t-167 -74.5q-55 0 -99.5 13.5t-83.5 30.5
t-78.5 30.5t-86.5 13.5q-39 0 -61.5 -36t-22.5 -84l-208 60q0 99 65 175.5t167 76.5q45 0 88.5 -12.5t87 -29.5t86.5 -29.5t86 -12.5q36 0 60 34t24 82z" />
    <glyph glyph-name="uniE026" unicode="&#xe026;" horiz-adv-x="1420" 
d="M76 1600v448h1268v-448h-1268zM76 0v448h1268v-448h-1268zM988 2048v-2048h-556v2048h556zM912 2600h348q-1 -195 -149 -311.5t-399 -116.5q-253 0 -401 116.5t-147 311.5h344q-1 -63 45.5 -115.5t158.5 -52.5q107 0 153 51t47 117z" />
    <glyph glyph-name="uniE027" unicode="&#xe027;" horiz-adv-x="1420" 
d="M76 1600v448h1268v-448h-1268zM76 0v448h1268v-448h-1268zM988 2048v-2048h-556v2048h556zM1212 2560v-252h-1000v252h1000z" />
    <glyph glyph-name="uniE028" unicode="&#xe028;" horiz-adv-x="1904" 
d="M560 1600v448h1268v-448h-1268zM560 0v448h1268v-448h-1268zM1472 2048v-2048h-556v2048h556zM536 1580h-128l-332 440v28h304l156 -420v-48z" />
    <glyph glyph-name="uniE029" unicode="&#xe029;" horiz-adv-x="1904" 
d="M560 1600v448h1268v-448h-1268zM560 0v448h1268v-448h-1268zM1472 2048v-2048h-556v2048h556zM16 1728v48l160 420h440v-28l-332 -440h-268z" />
    <glyph glyph-name="uniE02A" unicode="&#xe02a;" horiz-adv-x="1420" 
d="M76 1600v448h1268v-448h-1268zM76 0v448h1268v-448h-1268zM988 2048v-2048h-556v2048h556z" />
    <glyph glyph-name="uniE02B" unicode="&#xe02b;" horiz-adv-x="1420" 
d="M76 1600v448h1268v-448h-1268zM76 0v448h1268v-448h-1268zM988 2048v-2048h-556v2048h556zM396 2228q-102 0 -173 68t-71 164t71 164t173 68q99 0 169.5 -68t70.5 -164t-70.5 -164t-169.5 -68zM1032 2228q-102 0 -173 68t-71 164t71 164t173 68q99 0 169.5 -68t70.5 -164
t-70.5 -164t-169.5 -68z" />
    <glyph glyph-name="uni004A" unicode="J" horiz-adv-x="1656" 
d="M976 2048h548v-1404q-1 -200 -100.5 -351.5t-274 -236t-401.5 -84.5q-197 0 -360 68.5t-260 216t-96 383.5h556q3 -77 26.5 -130t66 -79.5t103.5 -26.5q62 0 104.5 27t64.5 80.5t23 132.5v1404z" />
    <glyph glyph-name="uni0134" unicode="&#x134;" horiz-adv-x="1656" 
d="M976 2048h548v-1404q-1 -200 -100.5 -351.5t-274 -236t-401.5 -84.5q-197 0 -360 68.5t-260 216t-96 383.5h556q3 -77 26.5 -130t66 -79.5t103.5 -26.5q62 0 104.5 27t64.5 80.5t23 132.5v1404zM1052 2230h-456v12l460 456h384l460 -456v-12h-456l-196 220z" />
    <glyph glyph-name="uni0248" unicode="&#x248;" horiz-adv-x="1656" 
d="M976 2048h548v-1404q-1 -200 -100.5 -351.5t-274 -236t-401.5 -84.5q-197 0 -360 68.5t-260 216t-96 383.5h556q3 -77 26.5 -130t66 -79.5t103.5 -26.5q62 0 104.5 27t64.5 80.5t23 132.5v1404zM704 1080v296h1076v-296h-1076z" />
    <glyph glyph-name="uni037F" unicode="&#x37f;" horiz-adv-x="1656" 
d="M976 2048h548v-1404q-1 -200 -100.5 -351.5t-274 -236t-401.5 -84.5q-197 0 -360 68.5t-260 216t-96 383.5h556q3 -77 26.5 -130t66 -79.5t103.5 -26.5q62 0 104.5 27t64.5 80.5t23 132.5v1404z" />
    <glyph glyph-name="uni0408" unicode="&#x408;" horiz-adv-x="1656" 
d="M976 2048h548v-1404q-1 -200 -100.5 -351.5t-274 -236t-401.5 -84.5q-197 0 -360 68.5t-260 216t-96 383.5h556q3 -77 26.5 -130t66 -79.5t103.5 -26.5q62 0 104.5 27t64.5 80.5t23 132.5v1404z" />
    <glyph glyph-name="uni004B" unicode="K" horiz-adv-x="2012" 
d="M132 0v2048h556v-828h28l616 828h648l-692 -912l708 -1136h-664l-460 768l-184 -240v-528h-556z" />
    <glyph glyph-name="uni0136" unicode="&#x136;" horiz-adv-x="2012" 
d="M132 0v2048h556v-828h28l616 828h648l-692 -912l708 -1136h-664l-460 768l-184 -240v-528h-556zM618 -636l132 478h496l-252 -478h-376z" />
    <glyph glyph-name="uni01E8" unicode="&#x1e8;" horiz-adv-x="2012" 
d="M132 0v2048h556v-828h28l616 828h648l-692 -912l708 -1136h-664l-460 768l-184 -240v-528h-556zM800 2700l196 -220l196 220h456v-12l-460 -456h-384l-460 456v12h456z" />
    <glyph glyph-name="uni1E30" unicode="&#x1e30;" horiz-adv-x="2012" 
d="M132 0v2048h556v-828h28l616 828h648l-692 -912l708 -1136h-664l-460 768l-184 -240v-528h-556zM812 2240l192 448h472l-300 -448h-364z" />
    <glyph glyph-name="uni1E32" unicode="&#x1e32;" horiz-adv-x="2012" 
d="M132 0v2048h556v-828h28l616 828h648l-692 -912l708 -1136h-664l-460 768l-184 -240v-528h-556zM993 -616q-113 0 -193 74t-80 178t80 178t192 74q113 0 192.5 -74t79.5 -178t-79.5 -178t-191.5 -74z" />
    <glyph glyph-name="uni1E34" unicode="&#x1e34;" horiz-adv-x="2012" 
d="M132 0v2048h556v-828h28l616 828h648l-692 -912l708 -1136h-664l-460 768l-184 -240v-528h-556zM1492 -254v-252h-1000v252h1000z" />
    <glyph glyph-name="uni04A0" unicode="&#x4a0;" horiz-adv-x="2584" 
d="M1744 0l-640 828h-52v-828h-556v1632h-436v416h992v-772h96l704 772h732l-940 -1028l804 -1020h-704z" />
    <glyph glyph-name="uni049A" unicode="&#x49a;" horiz-adv-x="2392" 
d="M1392 0l-640 828h-52v-828h-556v2048h556v-772h96l704 772h732l-940 -1028l804 -1020h-704zM2292 208v-836h-532v836h532z" />
    <glyph glyph-name="uni0198" unicode="&#x198;" horiz-adv-x="2160" 
d="M132 0v2048h556v-792h28l580 588q122 124 257 182.5t283 46t308 -100.5l-164 -388q-96 45 -151.5 17t-120.5 -93l-416 -420l836 -1088h-664l-528 692l-248 -256v-436h-556z" />
    <glyph glyph-name="uni039A" unicode="&#x39a;" horiz-adv-x="2012" 
d="M132 0v2048h556v-828h28l616 828h648l-692 -912l708 -1136h-664l-460 768l-184 -240v-528h-556z" />
    <glyph glyph-name="uni004C" unicode="L" horiz-adv-x="1608" 
d="M132 0v2048h556v-1600h828v-448h-1384z" />
    <glyph glyph-name="uni0139" unicode="&#x139;" horiz-adv-x="1608" 
d="M132 0v2048h556v-1600h828v-448h-1384zM220 2240l192 448h472l-300 -448h-364z" />
    <glyph glyph-name="uni013B" unicode="&#x13b;" horiz-adv-x="1608" 
d="M132 0v2048h556v-1600h828v-448h-1384zM450 -640l132 478h496l-252 -478h-376z" />
    <glyph glyph-name="uni013D" unicode="&#x13d;" horiz-adv-x="1608" 
d="M132 0v2048h556v-1600h828v-448h-1384zM968 1626v534h372l-74 -534h-298z" />
    <glyph glyph-name="uni1E36" unicode="&#x1e36;" horiz-adv-x="1608" 
d="M132 0v2048h556v-1600h828v-448h-1384zM825 -620q-113 0 -193 74t-80 178t80 178t192 74q113 0 192.5 -74t79.5 -178t-79.5 -178t-191.5 -74z" />
    <glyph glyph-name="uni1E38" unicode="&#x1e38;" horiz-adv-x="1608" 
d="M132 0v2048h556v-1600h828v-448h-1384zM825 -620q-113 0 -193 74t-80 178t80 178t192 74q113 0 192.5 -74t79.5 -178t-79.5 -178t-191.5 -74zM904 2560v-252h-1000v252h1000z" />
    <glyph glyph-name="uni1E3A" unicode="&#x1e3a;" horiz-adv-x="1608" 
d="M132 0v2048h556v-1600h828v-448h-1384zM1324 -258v-252h-1000v252h1000z" />
    <glyph glyph-name="uni1E3C" unicode="&#x1e3c;" horiz-adv-x="1608" 
d="M132 0v2048h556v-1600h828v-448h-1384zM628 -598h-456v12l460 456h384l460 -456v-12h-456l-196 220z" />
    <glyph glyph-name="uni0141" unicode="&#x141;" horiz-adv-x="1692" 
d="M1032 1352v-276l-1004 -256v272zM276 0v2048h556v-1600h828v-448h-1384z" />
    <glyph glyph-name="uni023D" unicode="&#x23d;" horiz-adv-x="1608" 
d="M132 0v2048h556v-1600h828v-448h-1384zM-132 948v296h1076v-296h-1076z" />
    <glyph glyph-name="uni01C8" unicode="&#x1c8;" horiz-adv-x="2440" 
d="M132 0v2048h556v-1600h828v-448h-1384zM1748 1536h552v-1580q0 -202 -85 -319.5t-239.5 -165t-363.5 -39.5q-21 1 -44 1t-56 3v408q20 -2 34.5 -3t29.5 -1q99 0 135.5 30.5t36.5 97.5v1568zM2025 1696q-113 0 -193 74t-80 178t80 178t192 74q113 0 192.5 -74t79.5 -178
t-79.5 -178t-191.5 -74z" />
    <glyph glyph-name="uni004D" unicode="M" horiz-adv-x="2624" 
d="M132 2048h692l476 -1160h24l476 1160h692v-2048h-544v1184h-16l-456 -1168h-328l-456 1176h-16v-1192h-544v2048z" />
    <glyph glyph-name="uni1E3E" unicode="&#x1e3e;" horiz-adv-x="2624" 
d="M132 2048h692l476 -1160h24l476 1160h692v-2048h-544v1184h-16l-456 -1168h-328l-456 1176h-16v-1192h-544v2048zM1128 2240l192 448h472l-300 -448h-364z" />
    <glyph glyph-name="uni1E40" unicode="&#x1e40;" horiz-adv-x="2624" 
d="M132 2048h692l476 -1160h24l476 1160h692v-2048h-544v1184h-16l-456 -1168h-328l-456 1176h-16v-1192h-544v2048zM1313 2208q-113 0 -193 74t-80 178t80 178t192 74q113 0 192.5 -74t79.5 -178t-79.5 -178t-191.5 -74z" />
    <glyph glyph-name="uni1E42" unicode="&#x1e42;" horiz-adv-x="2624" 
d="M132 2048h692l476 -1160h24l476 1160h692v-2048h-544v1184h-16l-456 -1168h-328l-456 1176h-16v-1192h-544v2048zM1313 -620q-113 0 -193 74t-80 178t80 178t192 74q113 0 192.5 -74t79.5 -178t-79.5 -178t-191.5 -74z" />
    <glyph glyph-name="uni04CD" unicode="&#x4cd;" horiz-adv-x="2932" 
d="M132 2048h692l476 -1160h24l476 1160h692v-2048h-544v1184h-16l-456 -1168h-328l-456 1176h-16v-1192h-544v2048zM2900 284v-272q3 -124 -40 -246t-117 -224t-167 -166l-244 140q31 54 68.5 113.5t65 141t26.5 201.5v312h408z" />
    <glyph glyph-name="uni039C" unicode="&#x39c;" horiz-adv-x="2624" 
d="M132 2048h692l476 -1160h24l476 1160h692v-2048h-544v1184h-16l-456 -1168h-328l-456 1176h-16v-1192h-544v2048z" />
    <glyph glyph-name="uni03FA" unicode="&#x3fa;" horiz-adv-x="2624" 
d="M132 2048h692l476 -1160h24l476 1160h692v-2048h-544v1184h-16l-456 -1168h-328l-456 1176h-16v-1192h-544v2048z" />
    <glyph glyph-name="uni041C" unicode="&#x41c;" horiz-adv-x="2624" 
d="M132 2048h692l476 -1160h24l476 1160h692v-2048h-544v1184h-16l-456 -1168h-328l-456 1176h-16v-1192h-544v2048z" />
    <glyph glyph-name="uni004E" unicode="N" horiz-adv-x="2036" 
d="M1904 2048v-2048h-464l-740 1076h-12v-1076h-556v2048h472l728 -1072h16v1072h556z" />
    <glyph glyph-name="uni00D1" unicode="&#xd1;" horiz-adv-x="2036" 
d="M1904 2048v-2048h-464l-740 1076h-12v-1076h-556v2048h472l728 -1072h16v1072h556zM748 2240h-272q0 216 99 321.5t241 106.5q78 0 132.5 -24.5t95.5 -57.5t74.5 -57.5t69.5 -24.5q58 1 82.5 42t25.5 114h268q-3 -212 -101.5 -321t-238.5 -111q-78 -1 -132.5 24t-94 57.5
t-73.5 57.5t-72 25q-48 0 -76 -38.5t-28 -113.5z" />
    <glyph glyph-name="uni0143" unicode="&#x143;" horiz-adv-x="2036" 
d="M1904 2048v-2048h-464l-740 1076h-12v-1076h-556v2048h472l728 -1072h16v1072h556zM836 2240l192 448h472l-300 -448h-364z" />
    <glyph glyph-name="uni0145" unicode="&#x145;" horiz-adv-x="2036" 
d="M1904 2048v-2048h-464l-740 1076h-12v-1076h-556v2048h472l728 -1072h16v1072h556zM646 -640l132 478h496l-252 -478h-376z" />
    <glyph glyph-name="uni0147" unicode="&#x147;" horiz-adv-x="2036" 
d="M1904 2048v-2048h-464l-740 1076h-12v-1076h-556v2048h472l728 -1072h16v1072h556zM824 2700l196 -220l196 220h456v-12l-460 -456h-384l-460 456v12h456z" />
    <glyph glyph-name="uni01F8" unicode="&#x1f8;" horiz-adv-x="2036" 
d="M1904 2048v-2048h-464l-740 1076h-12v-1076h-556v2048h472l728 -1072h16v1072h556zM840 2240l-300 448h472l192 -448h-364z" />
    <glyph glyph-name="uni1E44" unicode="&#x1e44;" horiz-adv-x="2036" 
d="M1904 2048v-2048h-464l-740 1076h-12v-1076h-556v2048h472l728 -1072h16v1072h556zM1021 2208q-113 0 -193 74t-80 178t80 178t192 74q113 0 192.5 -74t79.5 -178t-79.5 -178t-191.5 -74z" />
    <glyph glyph-name="uni1E46" unicode="&#x1e46;" horiz-adv-x="2036" 
d="M1904 2048v-2048h-464l-740 1076h-12v-1076h-556v2048h472l728 -1072h16v1072h556zM1021 -620q-113 0 -193 74t-80 178t80 178t192 74q113 0 192.5 -74t79.5 -178t-79.5 -178t-191.5 -74z" />
    <glyph glyph-name="uni1E48" unicode="&#x1e48;" horiz-adv-x="2036" 
d="M1904 2048v-2048h-464l-740 1076h-12v-1076h-556v2048h472l728 -1072h16v1072h556zM1520 -258v-252h-1000v252h1000z" />
    <glyph glyph-name="uni1E4A" unicode="&#x1e4a;" horiz-adv-x="2036" 
d="M1904 2048v-2048h-464l-740 1076h-12v-1076h-556v2048h472l728 -1072h16v1072h556zM824 -598h-456v12l460 456h384l460 -456v-12h-456l-196 220z" />
    <glyph glyph-name="uni019D" unicode="&#x19d;" horiz-adv-x="2108" 
d="M204 0h556v-48q0 -181 -54.5 -287.5t-144.5 -158t-199 -67t-218 -15.5q-40 0 -118 1t-122 7v408q23 -3 49.5 -1.5t42.5 1.5q77 0 142.5 21.5t65.5 90.5v48zM1976 2048v-2048h-464l-740 1076h-12v-1076h-556v2048h472l728 -1072h16v1072h556z" />
    <glyph glyph-name="uni014A" unicode="&#x14a;" horiz-adv-x="2036" 
d="M1440 0h464v-28q0 -236 -88 -366.5t-252 -182t-392 -51.5q-37 0 -82 7.5t-86 20.5v400q40 -9 92 -14.5t104 -5.5q112 0 176 48t64 132v40zM1904 2048v-2048h-464l-740 1076h-12v-1076h-556v2048h472l728 -1072h16v1072h556z" />
    <glyph glyph-name="uni0418" unicode="&#x418;" horiz-adv-x="2036" 
d="M132 2048h556v-1072h16l728 1072h472v-2048h-556v1076h-12l-740 -1076h-464v2048z" />
    <glyph glyph-name="uni040D" unicode="&#x40d;" horiz-adv-x="2036" 
d="M132 2048h556v-1072h16l728 1072h472v-2048h-556v1076h-12l-740 -1076h-464v2048zM836 2240l-300 448h472l192 -448h-364z" />
    <glyph glyph-name="uni0419" unicode="&#x419;" horiz-adv-x="2036" 
d="M132 2048h556v-1072h16l728 1072h472v-2048h-556v1076h-12l-740 -1076h-464v2048zM1216 2600h348q-1 -195 -149 -311.5t-399 -116.5q-253 0 -401 116.5t-147 311.5h344q-1 -63 45.5 -115.5t158.5 -52.5q107 0 153 51t47 117z" />
    <glyph glyph-name="uni04E2" unicode="&#x4e2;" horiz-adv-x="2036" 
d="M132 2048h556v-1072h16l728 1072h472v-2048h-556v1076h-12l-740 -1076h-464v2048zM1516 2560v-252h-1000v252h1000z" />
    <glyph glyph-name="uni04E4" unicode="&#x4e4;" horiz-adv-x="2036" 
d="M132 2048h556v-1072h16l728 1072h472v-2048h-556v1076h-12l-740 -1076h-464v2048zM700 2228q-102 0 -173 68t-71 164t71 164t173 68q99 0 169.5 -68t70.5 -164t-70.5 -164t-169.5 -68zM1336 2228q-102 0 -173 68t-71 164t71 164t173 68q99 0 169.5 -68t70.5 -164
t-70.5 -164t-169.5 -68z" />
    <glyph glyph-name="uni048A" unicode="&#x48a;" horiz-adv-x="2036" 
d="M132 2048h556v-1072h16l728 1072h472v-2048h-556v1076h-12l-740 -1076h-464v2048zM1216 2600h348q-1 -195 -149 -311.5t-399 -116.5q-253 0 -401 116.5t-147 311.5h344q-1 -63 45.5 -115.5t158.5 -52.5q107 0 153 51t47 117zM2300 284v-272q3 -124 -40 -246t-117 -224
t-167 -166l-244 140q31 54 68.5 113.5t65 141t26.5 201.5v312h408z" />
    <glyph glyph-name="uni0376" unicode="&#x376;" horiz-adv-x="2224" 
d="M224 2048h556v-1072h16l728 1072h472v-2048h-556v1076h-12l-740 -1076h-464v2048z" />
    <glyph glyph-name="uni039D" unicode="&#x39d;" horiz-adv-x="2036" 
d="M1904 2048v-2048h-464l-740 1076h-12v-1076h-556v2048h472l728 -1072h16v1072h556z" />
    <glyph glyph-name="uni01CB" unicode="&#x1cb;" horiz-adv-x="2772" 
d="M1904 2048v-2048h-464l-740 1076h-12v-1076h-556v2048h472l728 -1072h16v1072h556zM2080 1536h552v-1580q0 -202 -85 -319.5t-239.5 -165t-363.5 -39.5q-21 1 -44 1t-56 3v408q20 -2 34.5 -3t29.5 -1q99 0 135.5 30.5t36.5 97.5v1568zM2357 1696q-113 0 -193 74t-80 178
t80 178t192 74q113 0 192.5 -74t79.5 -178t-79.5 -178t-191.5 -74z" />
    <glyph glyph-name="uni004F" unicode="O" horiz-adv-x="2240" 
d="M2116 1024q0 -342 -133 -576.5t-359 -355t-504 -120.5q-280 0 -505.5 121.5t-358 356t-132.5 574.5q0 342 132.5 576.5t358 355t505.5 120.5q278 0 504 -120.5t359 -355t133 -576.5zM1544 1024q0 184 -48.5 310.5t-143 192t-232.5 65.5t-232.5 -65.5t-143 -192
t-48.5 -310.5t48.5 -310.5t143 -192t232.5 -65.5t232.5 65.5t143 192t48.5 310.5z" />
    <glyph glyph-name="uni00D6" unicode="&#xd6;" horiz-adv-x="2240" 
d="M2116 1024q0 -342 -133 -576.5t-359 -355t-504 -120.5q-280 0 -505.5 121.5t-358 356t-132.5 574.5q0 342 132.5 576.5t358 355t505.5 120.5q278 0 504 -120.5t359 -355t133 -576.5zM1544 1024q0 184 -48.5 310.5t-143 192t-232.5 65.5t-232.5 -65.5t-143 -192
t-48.5 -310.5t48.5 -310.5t143 -192t232.5 -65.5t232.5 65.5t143 192t48.5 310.5zM804 2228q-102 0 -173 68t-71 164t71 164t173 68q99 0 169.5 -68t70.5 -164t-70.5 -164t-169.5 -68zM1440 2228q-102 0 -173 68t-71 164t71 164t173 68q99 0 169.5 -68t70.5 -164t-70.5 -164
t-169.5 -68z" />
    <glyph glyph-name="uni00D5" unicode="&#xd5;" horiz-adv-x="2240" 
d="M2116 1024q0 -342 -133 -576.5t-359 -355t-504 -120.5q-280 0 -505.5 121.5t-358 356t-132.5 574.5q0 342 132.5 576.5t358 355t505.5 120.5q278 0 504 -120.5t359 -355t133 -576.5zM1544 1024q0 184 -48.5 310.5t-143 192t-232.5 65.5t-232.5 -65.5t-143 -192
t-48.5 -310.5t48.5 -310.5t143 -192t232.5 -65.5t232.5 65.5t143 192t48.5 310.5zM848 2248h-272q0 216 99 321.5t241 106.5q78 0 132.5 -24.5t95.5 -57.5t74.5 -57.5t69.5 -24.5q58 1 82.5 42t25.5 114h268q-3 -212 -101.5 -321t-238.5 -111q-78 -1 -132.5 24t-94 57.5
t-73.5 57.5t-72 25q-48 0 -76 -38.5t-28 -113.5z" />
    <glyph glyph-name="uni00D8" unicode="&#xd8;" horiz-adv-x="2240" 
d="M484 -108l-224 152l1496 2108l224 -152zM2116 1024q0 -342 -133 -576.5t-359 -355t-504 -120.5q-280 0 -505.5 121.5t-358 356t-132.5 574.5q0 342 132.5 576.5t358 355t505.5 120.5q278 0 504 -120.5t359 -355t133 -576.5zM1544 1024q0 184 -48.5 310.5t-143 192
t-232.5 65.5t-232.5 -65.5t-143 -192t-48.5 -310.5t48.5 -310.5t143 -192t232.5 -65.5t232.5 65.5t143 192t48.5 310.5z" />
    <glyph glyph-name="uni01A0" unicode="&#x1a0;" horiz-adv-x="2364" 
d="M2032 2116h300q0 -306 -122.5 -477t-401.5 -171v236q138 0 181 108.5t43 303.5zM2116 1024q0 -342 -133 -576.5t-359 -355t-504 -120.5q-280 0 -505.5 121.5t-358 356t-132.5 574.5q0 342 132.5 576.5t358 355t505.5 120.5q278 0 504 -120.5t359 -355t133 -576.5z
M1544 1024q0 184 -48.5 310.5t-143 192t-232.5 65.5t-232.5 -65.5t-143 -192t-48.5 -310.5t48.5 -310.5t143 -192t232.5 -65.5t232.5 65.5t143 192t48.5 310.5z" />
    <glyph glyph-name="uni00D2" unicode="&#xd2;" horiz-adv-x="2240" 
d="M2116 1024q0 -342 -133 -576.5t-359 -355t-504 -120.5q-280 0 -505.5 121.5t-358 356t-132.5 574.5q0 342 132.5 576.5t358 355t505.5 120.5q278 0 504 -120.5t359 -355t133 -576.5zM1544 1024q0 184 -48.5 310.5t-143 192t-232.5 65.5t-232.5 -65.5t-143 -192
t-48.5 -310.5t48.5 -310.5t143 -192t232.5 -65.5t232.5 65.5t143 192t48.5 310.5zM940 2240l-300 448h472l192 -448h-364z" />
    <glyph glyph-name="uni00D3" unicode="&#xd3;" horiz-adv-x="2240" 
d="M2116 1024q0 -342 -133 -576.5t-359 -355t-504 -120.5q-280 0 -505.5 121.5t-358 356t-132.5 574.5q0 342 132.5 576.5t358 355t505.5 120.5q278 0 504 -120.5t359 -355t133 -576.5zM1544 1024q0 184 -48.5 310.5t-143 192t-232.5 65.5t-232.5 -65.5t-143 -192
t-48.5 -310.5t48.5 -310.5t143 -192t232.5 -65.5t232.5 65.5t143 192t48.5 310.5zM936 2240l192 448h472l-300 -448h-364z" />
    <glyph glyph-name="uni00D4" unicode="&#xd4;" horiz-adv-x="2240" 
d="M2116 1024q0 -342 -133 -576.5t-359 -355t-504 -120.5q-280 0 -505.5 121.5t-358 356t-132.5 574.5q0 342 132.5 576.5t358 355t505.5 120.5q278 0 504 -120.5t359 -355t133 -576.5zM1544 1024q0 184 -48.5 310.5t-143 192t-232.5 65.5t-232.5 -65.5t-143 -192
t-48.5 -310.5t48.5 -310.5t143 -192t232.5 -65.5t232.5 65.5t143 192t48.5 310.5zM924 2230h-456v12l460 456h384l460 -456v-12h-456l-196 220z" />
    <glyph glyph-name="uni014C" unicode="&#x14c;" horiz-adv-x="2240" 
d="M2116 1024q0 -342 -133 -576.5t-359 -355t-504 -120.5q-280 0 -505.5 121.5t-358 356t-132.5 574.5q0 342 132.5 576.5t358 355t505.5 120.5q278 0 504 -120.5t359 -355t133 -576.5zM1544 1024q0 184 -48.5 310.5t-143 192t-232.5 65.5t-232.5 -65.5t-143 -192
t-48.5 -310.5t48.5 -310.5t143 -192t232.5 -65.5t232.5 65.5t143 192t48.5 310.5zM1620 2560v-252h-1000v252h1000z" />
    <glyph glyph-name="uni014E" unicode="&#x14e;" horiz-adv-x="2240" 
d="M2116 1024q0 -342 -133 -576.5t-359 -355t-504 -120.5q-280 0 -505.5 121.5t-358 356t-132.5 574.5q0 342 132.5 576.5t358 355t505.5 120.5q278 0 504 -120.5t359 -355t133 -576.5zM1544 1024q0 184 -48.5 310.5t-143 192t-232.5 65.5t-232.5 -65.5t-143 -192
t-48.5 -310.5t48.5 -310.5t143 -192t232.5 -65.5t232.5 65.5t143 192t48.5 310.5zM1320 2600h348q-1 -195 -149 -311.5t-399 -116.5q-253 0 -401 116.5t-147 311.5h344q-1 -63 45.5 -115.5t158.5 -52.5q107 0 153 51t47 117z" />
    <glyph glyph-name="uni0150" unicode="&#x150;" horiz-adv-x="2240" 
d="M2116 1024q0 -342 -133 -576.5t-359 -355t-504 -120.5q-280 0 -505.5 121.5t-358 356t-132.5 574.5q0 342 132.5 576.5t358 355t505.5 120.5q278 0 504 -120.5t359 -355t133 -576.5zM1544 1024q0 184 -48.5 310.5t-143 192t-232.5 65.5t-232.5 -65.5t-143 -192
t-48.5 -310.5t48.5 -310.5t143 -192t232.5 -65.5t232.5 65.5t143 192t48.5 310.5zM1204 2232l324 408h424l-384 -408h-364zM624 2232l296 408h424l-348 -408h-372z" />
    <glyph glyph-name="uni01D1" unicode="&#x1d1;" horiz-adv-x="2240" 
d="M2116 1024q0 -342 -133 -576.5t-359 -355t-504 -120.5q-280 0 -505.5 121.5t-358 356t-132.5 574.5q0 342 132.5 576.5t358 355t505.5 120.5q278 0 504 -120.5t359 -355t133 -576.5zM1544 1024q0 184 -48.5 310.5t-143 192t-232.5 65.5t-232.5 -65.5t-143 -192
t-48.5 -310.5t48.5 -310.5t143 -192t232.5 -65.5t232.5 65.5t143 192t48.5 310.5zM924 2700l196 -220l196 220h456v-12l-460 -456h-384l-460 456v12h456z" />
    <glyph glyph-name="uni01EA" unicode="&#x1ea;" horiz-adv-x="2240" 
d="M2116 1024q0 -342 -133 -576.5t-359 -355t-504 -120.5q-280 0 -505.5 121.5t-358 356t-132.5 574.5q0 342 132.5 576.5t358 355t505.5 120.5q278 0 504 -120.5t359 -355t133 -576.5zM1544 1024q0 184 -48.5 310.5t-143 192t-232.5 65.5t-232.5 -65.5t-143 -192
t-48.5 -310.5t48.5 -310.5t143 -192t232.5 -65.5t232.5 65.5t143 192t48.5 310.5zM1204 -548q-139 0 -234.5 69t-133.5 195q-26 86 -20.5 175t40 158t92.5 95l456 -136q-97 -30 -149 -65t-51 -95q-1 -51 25.5 -77.5t66.5 -26.5q26 0 45.5 6.5t38.5 9.5l64 -248
q-40 -21 -100 -40.5t-140 -19.5z" />
    <glyph glyph-name="uni01EC" unicode="&#x1ec;" horiz-adv-x="2240" 
d="M2116 1024q0 -342 -133 -576.5t-359 -355t-504 -120.5q-280 0 -505.5 121.5t-358 356t-132.5 574.5q0 342 132.5 576.5t358 355t505.5 120.5q278 0 504 -120.5t359 -355t133 -576.5zM1544 1024q0 184 -48.5 310.5t-143 192t-232.5 65.5t-232.5 -65.5t-143 -192
t-48.5 -310.5t48.5 -310.5t143 -192t232.5 -65.5t232.5 65.5t143 192t48.5 310.5zM1204 -548q-139 0 -234.5 69t-133.5 195q-26 86 -20.5 175t40 158t92.5 95l456 -136q-97 -30 -149 -65t-51 -95q-1 -51 25.5 -77.5t66.5 -26.5q26 0 45.5 6.5t38.5 9.5l64 -248
q-40 -21 -100 -40.5t-140 -19.5zM1620 2560v-252h-1000v252h1000z" />
    <glyph glyph-name="uni020C" unicode="&#x20c;" horiz-adv-x="2240" 
d="M2116 1024q0 -342 -133 -576.5t-359 -355t-504 -120.5q-280 0 -505.5 121.5t-358 356t-132.5 574.5q0 342 132.5 576.5t358 355t505.5 120.5q278 0 504 -120.5t359 -355t133 -576.5zM1544 1024q0 184 -48.5 310.5t-143 192t-232.5 65.5t-232.5 -65.5t-143 -192
t-48.5 -310.5t48.5 -310.5t143 -192t232.5 -65.5t232.5 65.5t143 192t48.5 310.5zM1050 2240h-364l-300 448h472zM1582 2240h-354l-194 448h446z" />
    <glyph glyph-name="uni020E" unicode="&#x20e;" horiz-adv-x="2240" 
d="M2116 1024q0 -342 -133 -576.5t-359 -355t-504 -120.5q-280 0 -505.5 121.5t-358 356t-132.5 574.5q0 342 132.5 576.5t358 355t505.5 120.5q278 0 504 -120.5t359 -355t133 -576.5zM1544 1024q0 184 -48.5 310.5t-143 192t-232.5 65.5t-232.5 -65.5t-143 -192
t-48.5 -310.5t48.5 -310.5t143 -192t232.5 -65.5t232.5 65.5t143 192t48.5 310.5zM568 2288q-1 195 147 319.5t401 124.5q251 0 401 -124.5t151 -319.5h-348q-1 63 -47.5 113.5t-156.5 50.5q-109 0 -155 -50.5t-45 -113.5h-348z" />
    <glyph glyph-name="uni022A" unicode="&#x22a;" horiz-adv-x="2240" 
d="M2116 1024q0 -342 -133 -576.5t-359 -355t-504 -120.5q-280 0 -505.5 121.5t-358 356t-132.5 574.5q0 342 132.5 576.5t358 355t505.5 120.5q278 0 504 -120.5t359 -355t133 -576.5zM1544 1024q0 184 -48.5 310.5t-143 192t-232.5 65.5t-232.5 -65.5t-143 -192
t-48.5 -310.5t48.5 -310.5t143 -192t232.5 -65.5t232.5 65.5t143 192t48.5 310.5zM804 2228q-102 0 -173 68t-71 164t71 164t173 68q99 0 169.5 -68t70.5 -164t-70.5 -164t-169.5 -68zM1440 2228q-102 0 -173 68t-71 164t71 164t173 68q99 0 169.5 -68t70.5 -164t-70.5 -164
t-169.5 -68zM1620 3072v-252h-1000v252h1000z" />
    <glyph glyph-name="uni022C" unicode="&#x22c;" horiz-adv-x="2240" 
d="M2116 1024q0 -342 -133 -576.5t-359 -355t-504 -120.5q-280 0 -505.5 121.5t-358 356t-132.5 574.5q0 342 132.5 576.5t358 355t505.5 120.5q278 0 504 -120.5t359 -355t133 -576.5zM1544 1024q0 184 -48.5 310.5t-143 192t-232.5 65.5t-232.5 -65.5t-143 -192
t-48.5 -310.5t48.5 -310.5t143 -192t232.5 -65.5t232.5 65.5t143 192t48.5 310.5zM1348 2592l212 -60q-1 -96 -68 -172t-168 -76q-76 0 -132 21t-107 42t-113 21q-34 0 -57.5 -34t-22.5 -82l-208 60q-1 96 62 172t166 76q62 0 120.5 -21t116 -42t115.5 -21q32 0 57.5 34
t26.5 82zM1620 2972v-252h-1004v252h1004z" />
    <glyph glyph-name="uni022E" unicode="&#x22e;" horiz-adv-x="2240" 
d="M2116 1024q0 -342 -133 -576.5t-359 -355t-504 -120.5q-280 0 -505.5 121.5t-358 356t-132.5 574.5q0 342 132.5 576.5t358 355t505.5 120.5q278 0 504 -120.5t359 -355t133 -576.5zM1544 1024q0 184 -48.5 310.5t-143 192t-232.5 65.5t-232.5 -65.5t-143 -192
t-48.5 -310.5t48.5 -310.5t143 -192t232.5 -65.5t232.5 65.5t143 192t48.5 310.5zM1121 2208q-113 0 -193 74t-80 178t80 178t192 74q113 0 192.5 -74t79.5 -178t-79.5 -178t-191.5 -74z" />
    <glyph glyph-name="uni0230" unicode="&#x230;" horiz-adv-x="2240" 
d="M2116 1024q0 -342 -133 -576.5t-359 -355t-504 -120.5q-280 0 -505.5 121.5t-358 356t-132.5 574.5q0 342 132.5 576.5t358 355t505.5 120.5q278 0 504 -120.5t359 -355t133 -576.5zM1544 1024q0 184 -48.5 310.5t-143 192t-232.5 65.5t-232.5 -65.5t-143 -192
t-48.5 -310.5t48.5 -310.5t143 -192t232.5 -65.5t232.5 65.5t143 192t48.5 310.5zM1121 2652q-113 0 -193 74t-80 178t80 178t192 74q113 0 192.5 -74t79.5 -178t-79.5 -178t-191.5 -74zM1678 3480v-252h-1000v252h1000z" />
    <glyph glyph-name="uni1E4C" unicode="&#x1e4c;" horiz-adv-x="2240" 
d="M2116 1024q0 -342 -133 -576.5t-359 -355t-504 -120.5q-280 0 -505.5 121.5t-358 356t-132.5 574.5q0 342 132.5 576.5t358 355t505.5 120.5q278 0 504 -120.5t359 -355t133 -576.5zM1544 1024q0 184 -48.5 310.5t-143 192t-232.5 65.5t-232.5 -65.5t-143 -192
t-48.5 -310.5t48.5 -310.5t143 -192t232.5 -65.5t232.5 65.5t143 192t48.5 310.5zM900 2712l266 386h452l-346 -386h-372zM866 2213h-254q0 191 92.5 285t224.5 94q73 1 124 -21t89 -51t70 -51.5t65 -21.5q54 0 76.5 37t24.5 101h250q-2 -188 -94 -285t-223 -98
q-74 -1 -124.5 21t-87.5 51t-68.5 51t-67.5 22q-45 0 -71 -34t-26 -100z" />
    <glyph glyph-name="uni1E4E" unicode="&#x1e4e;" horiz-adv-x="2240" 
d="M2116 1024q0 -342 -133 -576.5t-359 -355t-504 -120.5q-280 0 -505.5 121.5t-358 356t-132.5 574.5q0 342 132.5 576.5t358 355t505.5 120.5q278 0 504 -120.5t359 -355t133 -576.5zM1544 1024q0 184 -48.5 310.5t-143 192t-232.5 65.5t-232.5 -65.5t-143 -192
t-48.5 -310.5t48.5 -310.5t143 -192t232.5 -65.5t232.5 65.5t143 192t48.5 310.5zM1344 2552l212 -60q-1 -99 -67.5 -173.5t-164.5 -74.5q-77 0 -133 21t-107 42t-112 21q-34 0 -57.5 -34t-22.5 -82l-208 60q-1 96 62 172t166 76q61 0 119.5 -21t116 -42t116.5 -21
q32 0 55.5 34t24.5 82zM608 2804q-1 72 60 122t152 50q92 0 155.5 -50t64.5 -122q-1 -72 -63 -120t-157 -48q-91 0 -152 48t-60 120zM1196 2804q-1 72 60.5 122t155.5 50q92 0 153.5 -50t62.5 -122q-1 -72 -62.5 -120t-153.5 -48q-94 0 -155.5 48t-60.5 120z" />
    <glyph glyph-name="uni1E50" unicode="&#x1e50;" horiz-adv-x="2240" 
d="M2116 1024q0 -342 -133 -576.5t-359 -355t-504 -120.5q-280 0 -505.5 121.5t-358 356t-132.5 574.5q0 342 132.5 576.5t358 355t505.5 120.5q278 0 504 -120.5t359 -355t133 -576.5zM1544 1024q0 184 -48.5 310.5t-143 192t-232.5 65.5t-232.5 -65.5t-143 -192
t-48.5 -310.5t48.5 -310.5t143 -192t232.5 -65.5t232.5 65.5t143 192t48.5 310.5zM952 2712l-346 386h452l266 -386h-372zM1620 2520v-252h-1000v252h1000z" />
    <glyph glyph-name="uni1E52" unicode="&#x1e52;" horiz-adv-x="2240" 
d="M2116 1024q0 -342 -133 -576.5t-359 -355t-504 -120.5q-280 0 -505.5 121.5t-358 356t-132.5 574.5q0 342 132.5 576.5t358 355t505.5 120.5q278 0 504 -120.5t359 -355t133 -576.5zM1544 1024q0 184 -48.5 310.5t-143 192t-232.5 65.5t-232.5 -65.5t-143 -192
t-48.5 -310.5t48.5 -310.5t143 -192t232.5 -65.5t232.5 65.5t143 192t48.5 310.5zM916 2712l266 386h452l-346 -386h-372zM1620 2520v-252h-1000v252h1000z" />
    <glyph glyph-name="uni1ECC" unicode="&#x1ecc;" horiz-adv-x="2240" 
d="M2116 1024q0 -342 -133 -576.5t-359 -355t-504 -120.5q-280 0 -505.5 121.5t-358 356t-132.5 574.5q0 342 132.5 576.5t358 355t505.5 120.5q278 0 504 -120.5t359 -355t133 -576.5zM1544 1024q0 184 -48.5 310.5t-143 192t-232.5 65.5t-232.5 -65.5t-143 -192
t-48.5 -310.5t48.5 -310.5t143 -192t232.5 -65.5t232.5 65.5t143 192t48.5 310.5zM1121 -620q-113 0 -193 74t-80 178t80 178t192 74q113 0 192.5 -74t79.5 -178t-79.5 -178t-191.5 -74z" />
    <glyph glyph-name="uni1ECE" unicode="&#x1ece;" horiz-adv-x="2240" 
d="M2116 1024q0 -342 -133 -576.5t-359 -355t-504 -120.5q-280 0 -505.5 121.5t-358 356t-132.5 574.5q0 342 132.5 576.5t358 355t505.5 120.5q278 0 504 -120.5t359 -355t133 -576.5zM1544 1024q0 184 -48.5 310.5t-143 192t-232.5 65.5t-232.5 -65.5t-143 -192
t-48.5 -310.5t48.5 -310.5t143 -192t232.5 -65.5t232.5 65.5t143 192t48.5 310.5zM1312 2276h-396l-36 156q107 3 152.5 27t43.5 57q2 54 -51.5 69t-136.5 15l12 220q308 0 469 -72t159 -204q2 -84 -65.5 -130t-150.5 -58v-80z" />
    <glyph glyph-name="uni1ED0" unicode="&#x1ed0;" horiz-adv-x="2240" 
d="M2116 1024q0 -342 -133 -576.5t-359 -355t-504 -120.5q-280 0 -505.5 121.5t-358 356t-132.5 574.5q0 342 132.5 576.5t358 355t505.5 120.5q278 0 504 -120.5t359 -355t133 -576.5zM1544 1024q0 184 -48.5 310.5t-143 192t-232.5 65.5t-232.5 -65.5t-143 -192
t-48.5 -310.5t48.5 -310.5t143 -192t232.5 -65.5t232.5 65.5t143 192t48.5 310.5zM596 2200l400 276h236l404 -276h-320l-200 140l-204 -140h-316zM1532 2332l260 384h356l-352 -384h-264z" />
    <glyph glyph-name="uni1ED2" unicode="&#x1ed2;" horiz-adv-x="2240" 
d="M2116 1024q0 -342 -133 -576.5t-359 -355t-504 -120.5q-280 0 -505.5 121.5t-358 356t-132.5 574.5q0 342 132.5 576.5t358 355t505.5 120.5q278 0 504 -120.5t359 -355t133 -576.5zM1544 1024q0 184 -48.5 310.5t-143 192t-232.5 65.5t-232.5 -65.5t-143 -192
t-48.5 -310.5t48.5 -310.5t143 -192t232.5 -65.5t232.5 65.5t143 192t48.5 310.5zM1236 2468l404 -276h-320l-200 140l-204 -140h-316l400 276h236zM440 2704l264 -380h-260l-352 380h348z" />
    <glyph glyph-name="uni1ED4" unicode="&#x1ed4;" horiz-adv-x="2240" 
d="M2116 1024q0 -342 -133 -576.5t-359 -355t-504 -120.5q-280 0 -505.5 121.5t-358 356t-132.5 574.5q0 342 132.5 576.5t358 355t505.5 120.5q278 0 504 -120.5t359 -355t133 -576.5zM1544 1024q0 184 -48.5 310.5t-143 192t-232.5 65.5t-232.5 -65.5t-143 -192
t-48.5 -310.5t48.5 -310.5t143 -192t232.5 -65.5t232.5 65.5t143 192t48.5 310.5zM1228 2476l404 -276h-324l-188 124l-196 -124h-324l404 276h224zM1756 2364h-256l-32 128q87 3 125.5 22t38.5 46q0 45 -45.5 58.5t-114.5 13.5l12 180q219 0 335.5 -58.5t116.5 -169.5
q0 -66 -57 -105t-123 -51v-64z" />
    <glyph glyph-name="uni1ED6" unicode="&#x1ed6;" horiz-adv-x="2240" 
d="M2116 1024q0 -342 -133 -576.5t-359 -355t-504 -120.5q-280 0 -505.5 121.5t-358 356t-132.5 574.5q0 342 132.5 576.5t358 355t505.5 120.5q278 0 504 -120.5t359 -355t133 -576.5zM1544 1024q0 184 -48.5 310.5t-143 192t-232.5 65.5t-232.5 -65.5t-143 -192
t-48.5 -310.5t48.5 -310.5t143 -192t232.5 -65.5t232.5 65.5t143 192t48.5 310.5zM1248 2500l392 -288h-324l-196 140l-188 -140h-332l396 288h252zM1320 2832l172 -64q-1 -81 -42.5 -148.5t-121.5 -67.5q-45 0 -87 12.5t-81 29.5t-75.5 29.5t-72.5 12.5q-28 0 -36.5 -26.5
t-7.5 -65.5l-168 48q-1 75 40.5 141.5t123.5 66.5q36 0 76.5 -12t82.5 -28t82 -28t75 -12q23 0 31 36.5t9 75.5z" />
    <glyph glyph-name="uni1ED8" unicode="&#x1ed8;" horiz-adv-x="2240" 
d="M2116 1024q0 -342 -133 -576.5t-359 -355t-504 -120.5q-280 0 -505.5 121.5t-358 356t-132.5 574.5q0 342 132.5 576.5t358 355t505.5 120.5q278 0 504 -120.5t359 -355t133 -576.5zM1544 1024q0 184 -48.5 310.5t-143 192t-232.5 65.5t-232.5 -65.5t-143 -192
t-48.5 -310.5t48.5 -310.5t143 -192t232.5 -65.5t232.5 65.5t143 192t48.5 310.5zM924 2230h-456v12l460 456h384l460 -456v-12h-456l-196 220zM1121 -620q-113 0 -193 74t-80 178t80 178t192 74q113 0 192.5 -74t79.5 -178t-79.5 -178t-191.5 -74z" />
    <glyph glyph-name="uni1EDA" unicode="&#x1eda;" horiz-adv-x="2364" 
d="M2032 2116h300q0 -306 -122.5 -477t-401.5 -171v236q138 0 181 108.5t43 303.5zM2116 1024q0 -342 -133 -576.5t-359 -355t-504 -120.5q-280 0 -505.5 121.5t-358 356t-132.5 574.5q0 342 132.5 576.5t358 355t505.5 120.5q278 0 504 -120.5t359 -355t133 -576.5z
M1544 1024q0 184 -48.5 310.5t-143 192t-232.5 65.5t-232.5 -65.5t-143 -192t-48.5 -310.5t48.5 -310.5t143 -192t232.5 -65.5t232.5 65.5t143 192t48.5 310.5zM936 2240l192 448h472l-300 -448h-364z" />
    <glyph glyph-name="uni1EDC" unicode="&#x1edc;" horiz-adv-x="2364" 
d="M2032 2116h300q0 -306 -122.5 -477t-401.5 -171v236q138 0 181 108.5t43 303.5zM2116 1024q0 -342 -133 -576.5t-359 -355t-504 -120.5q-280 0 -505.5 121.5t-358 356t-132.5 574.5q0 342 132.5 576.5t358 355t505.5 120.5q278 0 504 -120.5t359 -355t133 -576.5z
M1544 1024q0 184 -48.5 310.5t-143 192t-232.5 65.5t-232.5 -65.5t-143 -192t-48.5 -310.5t48.5 -310.5t143 -192t232.5 -65.5t232.5 65.5t143 192t48.5 310.5zM940 2240l-300 448h472l192 -448h-364z" />
    <glyph glyph-name="uni1EDE" unicode="&#x1ede;" horiz-adv-x="2364" 
d="M2032 2116h300q0 -306 -122.5 -477t-401.5 -171v236q138 0 181 108.5t43 303.5zM2116 1024q0 -342 -133 -576.5t-359 -355t-504 -120.5q-280 0 -505.5 121.5t-358 356t-132.5 574.5q0 342 132.5 576.5t358 355t505.5 120.5q278 0 504 -120.5t359 -355t133 -576.5z
M1544 1024q0 184 -48.5 310.5t-143 192t-232.5 65.5t-232.5 -65.5t-143 -192t-48.5 -310.5t48.5 -310.5t143 -192t232.5 -65.5t232.5 65.5t143 192t48.5 310.5zM1312 2276h-396l-36 156q107 3 152.5 27t43.5 57q2 54 -51.5 69t-136.5 15l12 220q308 0 469 -72t159 -204
q2 -84 -65.5 -130t-150.5 -58v-80z" />
    <glyph glyph-name="uni1EE0" unicode="&#x1ee0;" horiz-adv-x="2364" 
d="M2032 2116h300q0 -306 -122.5 -477t-401.5 -171v236q138 0 181 108.5t43 303.5zM2116 1024q0 -342 -133 -576.5t-359 -355t-504 -120.5q-280 0 -505.5 121.5t-358 356t-132.5 574.5q0 342 132.5 576.5t358 355t505.5 120.5q278 0 504 -120.5t359 -355t133 -576.5z
M1544 1024q0 184 -48.5 310.5t-143 192t-232.5 65.5t-232.5 -65.5t-143 -192t-48.5 -310.5t48.5 -310.5t143 -192t232.5 -65.5t232.5 65.5t143 192t48.5 310.5zM848 2240h-272q0 216 99 321.5t241 106.5q78 0 132.5 -24.5t95.5 -57.5t74.5 -57.5t69.5 -24.5q58 1 82.5 42
t25.5 114h268q-3 -212 -101.5 -321t-238.5 -111q-78 -1 -132.5 24t-94 57.5t-73.5 57.5t-72 25q-48 0 -76 -38.5t-28 -113.5z" />
    <glyph glyph-name="uni1EE2" unicode="&#x1ee2;" horiz-adv-x="2364" 
d="M2032 2116h300q0 -306 -122.5 -477t-401.5 -171v236q138 0 181 108.5t43 303.5zM2116 1024q0 -342 -133 -576.5t-359 -355t-504 -120.5q-280 0 -505.5 121.5t-358 356t-132.5 574.5q0 342 132.5 576.5t358 355t505.5 120.5q278 0 504 -120.5t359 -355t133 -576.5z
M1544 1024q0 184 -48.5 310.5t-143 192t-232.5 65.5t-232.5 -65.5t-143 -192t-48.5 -310.5t48.5 -310.5t143 -192t232.5 -65.5t232.5 65.5t143 192t48.5 310.5zM1121 -620q-113 0 -193 74t-80 178t80 178t192 74q113 0 192.5 -74t79.5 -178t-79.5 -178t-191.5 -74z" />
    <glyph glyph-name="uni01FE" unicode="&#x1fe;" horiz-adv-x="2240" 
d="M484 -108l-224 152l1496 2108l224 -152zM2116 1024q0 -342 -133 -576.5t-359 -355t-504 -120.5q-280 0 -505.5 121.5t-358 356t-132.5 574.5q0 342 132.5 576.5t358 355t505.5 120.5q278 0 504 -120.5t359 -355t133 -576.5zM1544 1024q0 184 -48.5 310.5t-143 192
t-232.5 65.5t-232.5 -65.5t-143 -192t-48.5 -310.5t48.5 -310.5t143 -192t232.5 -65.5t232.5 65.5t143 192t48.5 310.5zM936 2240l192 448h472l-300 -448h-364z" />
    <glyph glyph-name="uni039F" unicode="&#x39f;" horiz-adv-x="2240" 
d="M2116 1024q0 -342 -133 -576.5t-359 -355t-504 -120.5q-280 0 -505.5 121.5t-358 356t-132.5 574.5q0 342 132.5 576.5t358 355t505.5 120.5q278 0 504 -120.5t359 -355t133 -576.5zM1544 1024q0 184 -48.5 310.5t-143 192t-232.5 65.5t-232.5 -65.5t-143 -192
t-48.5 -310.5t48.5 -310.5t143 -192t232.5 -65.5t232.5 65.5t143 192t48.5 310.5z" />
    <glyph glyph-name="uni038C" unicode="&#x38c;" horiz-adv-x="2308" 
d="M2300 1024q0 -342 -133 -576.5t-359 -355t-504 -120.5q-280 0 -505.5 121.5t-358 356t-132.5 574.5q0 342 132.5 576.5t358 355t505.5 120.5q278 0 504 -120.5t359 -355t133 -576.5zM1728 1024q0 184 -48.5 310.5t-143 192t-232.5 65.5t-232.5 -65.5t-143 -192
t-48.5 -310.5t48.5 -310.5t143 -192t232.5 -65.5t232.5 65.5t143 192t48.5 310.5zM-40 1728l132 480h464l-288 -480h-308z" />
    <glyph glyph-name="uni1F48" unicode="&#x1f48;" horiz-adv-x="2308" 
d="M2300 1024q0 -342 -133 -576.5t-359 -355t-504 -120.5q-280 0 -505.5 121.5t-358 356t-132.5 574.5q0 342 132.5 576.5t358 355t505.5 120.5q278 0 504 -120.5t359 -355t133 -576.5zM1728 1024q0 184 -48.5 310.5t-143 192t-232.5 65.5t-232.5 -65.5t-143 -192
t-48.5 -310.5t48.5 -310.5t143 -192t232.5 -65.5t232.5 65.5t143 192t48.5 310.5zM308 2048v-144q0 -90 -31 -160.5t-81 -119t-108 -72.5l-124 152q44 20 67.5 51t32 71t8.5 86v136h236z" />
    <glyph glyph-name="uni1F49" unicode="&#x1f49;" horiz-adv-x="2400" 
d="M2392 1024q0 -342 -133 -576.5t-359 -355t-504 -120.5q-280 0 -505.5 121.5t-358 356t-132.5 574.5q0 342 132.5 576.5t358 355t505.5 120.5q278 0 504 -120.5t359 -355t133 -576.5zM1820 1024q0 184 -48.5 310.5t-143 192t-232.5 65.5t-232.5 -65.5t-143 -192
t-48.5 -310.5t48.5 -310.5t143 -192t232.5 -65.5t232.5 65.5t143 192t48.5 310.5zM120 1904v144h240v-136q1 -36 8 -76t29 -75t67 -57l-124 -152q-85 36 -151.5 126.5t-68.5 225.5z" />
    <glyph glyph-name="uni1F4A" unicode="&#x1f4a;" horiz-adv-x="2776" 
d="M2768 1024q0 -342 -133 -576.5t-359 -355t-504 -120.5q-280 0 -505.5 121.5t-358 356t-132.5 574.5q0 342 132.5 576.5t358 355t505.5 120.5q278 0 504 -120.5t359 -355t133 -576.5zM2196 1024q0 184 -48.5 310.5t-143 192t-232.5 65.5t-232.5 -65.5t-143 -192
t-48.5 -310.5t48.5 -310.5t143 -192t232.5 -65.5t232.5 65.5t143 192t48.5 310.5zM888 1604v-20h-136l-332 436v28h304zM356 2048v-112q1 -80 -31 -151t-92 -130t-145 -103l-112 84q58 63 87.5 137.5t28.5 170.5v104h264z" />
    <glyph glyph-name="uni1F4B" unicode="&#x1f4b;" horiz-adv-x="2708" 
d="M2700 1024q0 -342 -133 -576.5t-359 -355t-504 -120.5q-280 0 -505.5 121.5t-358 356t-132.5 574.5q0 342 132.5 576.5t358 355t505.5 120.5q278 0 504 -120.5t359 -355t133 -576.5zM2128 1024q0 184 -48.5 310.5t-143 192t-232.5 65.5t-232.5 -65.5t-143 -192
t-48.5 -310.5t48.5 -310.5t143 -192t232.5 -65.5t232.5 65.5t143 192t48.5 310.5zM804 1620v-40h-136l-332 440v28h308zM-32 1904v144h244v-136q-1 -54 15.5 -114.5t92.5 -93.5l-124 -152q-94 36 -161.5 126.5t-66.5 225.5z" />
    <glyph glyph-name="uni1F4C" unicode="&#x1f4c;" horiz-adv-x="2604" 
d="M2596 1024q0 -342 -133 -576.5t-359 -355t-504 -120.5q-280 0 -505.5 121.5t-358 356t-132.5 574.5q0 342 132.5 576.5t358 355t505.5 120.5q278 0 504 -120.5t359 -355t133 -576.5zM2024 1024q0 184 -48.5 310.5t-143 192t-232.5 65.5t-232.5 -65.5t-143 -192
t-48.5 -310.5t48.5 -310.5t143 -192t232.5 -65.5t232.5 65.5t143 192t48.5 310.5zM392 1580v40l164 428h304v-28l-332 -440h-136zM336 2048v-144q-1 -88 -32.5 -158.5t-83 -120t-112.5 -73.5l-124 152q74 33 90.5 93.5t17.5 114.5v136h244z" />
    <glyph glyph-name="uni1F4D" unicode="&#x1f4d;" horiz-adv-x="2636" 
d="M2628 1024q0 -342 -133 -576.5t-359 -355t-504 -120.5q-280 0 -505.5 121.5t-358 356t-132.5 574.5q0 342 132.5 576.5t358 355t505.5 120.5q278 0 504 -120.5t359 -355t133 -576.5zM2056 1024q0 184 -48.5 310.5t-143 192t-232.5 65.5t-232.5 -65.5t-143 -192
t-48.5 -310.5t48.5 -310.5t143 -192t232.5 -65.5t232.5 65.5t143 192t48.5 310.5zM420 1580v40l156 428h308v-28l-336 -440h-128zM-20 1904v144h240v-136q1 -69 20 -123.5t84 -84.5l-124 -152q-80 33 -149.5 122t-70.5 230z" />
    <glyph glyph-name="uni1FF8" unicode="&#x1ff8;" horiz-adv-x="2348" 
d="M2340 1024q0 -342 -133 -576.5t-359 -355t-504 -120.5q-280 0 -505.5 121.5t-358 356t-132.5 574.5q0 342 132.5 576.5t358 355t505.5 120.5q278 0 504 -120.5t359 -355t133 -576.5zM1768 1024q0 184 -48.5 310.5t-143 192t-232.5 65.5t-232.5 -65.5t-143 -192
t-48.5 -310.5t48.5 -310.5t143 -192t232.5 -65.5t232.5 65.5t143 192t48.5 310.5zM436 1580h-128l-332 440v28h304l156 -420v-48z" />
    <glyph glyph-name="uni03F4" unicode="&#x3f4;" horiz-adv-x="2240" 
d="M1588 1192v-332q-119 -44 -202.5 -53t-146.5 4t-119 34t-119 37t-146.5 14.5t-202.5 -36.5v332q119 44 202.5 51.5t146.5 -5.5t119 -34t119 -37t146.5 -13t202.5 38zM2116 1024q0 -342 -133 -576.5t-359 -355t-504 -120.5q-280 0 -505.5 121.5t-358 356t-132.5 574.5
q0 342 132.5 576.5t358 355t505.5 120.5q278 0 504 -120.5t359 -355t133 -576.5zM1544 1024q0 184 -48.5 310.5t-143 192t-232.5 65.5t-232.5 -65.5t-143 -192t-48.5 -310.5t48.5 -310.5t143 -192t232.5 -65.5t232.5 65.5t143 192t48.5 310.5z" />
    <glyph glyph-name="uni1FF9" unicode="&#x1ff9;" horiz-adv-x="2184" 
d="M2176 1024q0 -342 -133 -576.5t-359 -355t-504 -120.5q-280 0 -505.5 121.5t-358 356t-132.5 574.5q0 342 132.5 576.5t358 355t505.5 120.5q278 0 504 -120.5t359 -355t133 -576.5zM1604 1024q0 184 -48.5 310.5t-143 192t-232.5 65.5t-232.5 -65.5t-143 -192
t-48.5 -310.5t48.5 -310.5t143 -192t232.5 -65.5t232.5 65.5t143 192t48.5 310.5zM28 1728v48l160 420h440v-28l-332 -440h-268z" />
    <glyph glyph-name="uni041E" unicode="&#x41e;" horiz-adv-x="2240" 
d="M2116 1024q0 -342 -133 -576.5t-359 -355t-504 -120.5q-280 0 -505.5 121.5t-358 356t-132.5 574.5q0 342 132.5 576.5t358 355t505.5 120.5q278 0 504 -120.5t359 -355t133 -576.5zM1544 1024q0 184 -48.5 310.5t-143 192t-232.5 65.5t-232.5 -65.5t-143 -192
t-48.5 -310.5t48.5 -310.5t143 -192t232.5 -65.5t232.5 65.5t143 192t48.5 310.5z" />
    <glyph glyph-name="uni04E6" unicode="&#x4e6;" horiz-adv-x="2240" 
d="M2116 1024q0 -342 -133 -576.5t-359 -355t-504 -120.5q-280 0 -505.5 121.5t-358 356t-132.5 574.5q0 342 132.5 576.5t358 355t505.5 120.5q278 0 504 -120.5t359 -355t133 -576.5zM1544 1024q0 184 -48.5 310.5t-143 192t-232.5 65.5t-232.5 -65.5t-143 -192
t-48.5 -310.5t48.5 -310.5t143 -192t232.5 -65.5t232.5 65.5t143 192t48.5 310.5zM804 2228q-102 0 -173 68t-71 164t71 164t173 68q99 0 169.5 -68t70.5 -164t-70.5 -164t-169.5 -68zM1440 2228q-102 0 -173 68t-71 164t71 164t173 68q99 0 169.5 -68t70.5 -164t-70.5 -164
t-169.5 -68z" />
    <glyph glyph-name="uni019F" unicode="&#x19f;" horiz-adv-x="2240" 
d="M1588 1192v-332q-119 -44 -202.5 -53t-146.5 4t-119 34t-119 37t-146.5 14.5t-202.5 -36.5v332q119 44 202.5 51.5t146.5 -5.5t119 -34t119 -37t146.5 -13t202.5 38zM2116 1024q0 -342 -133 -576.5t-359 -355t-504 -120.5q-280 0 -505.5 121.5t-358 356t-132.5 574.5
q0 342 132.5 576.5t358 355t505.5 120.5q278 0 504 -120.5t359 -355t133 -576.5zM1544 1024q0 184 -48.5 310.5t-143 192t-232.5 65.5t-232.5 -65.5t-143 -192t-48.5 -310.5t48.5 -310.5t143 -192t232.5 -65.5t232.5 65.5t143 192t48.5 310.5z" />
    <glyph glyph-name="uni04E8" unicode="&#x4e8;" horiz-adv-x="2240" 
d="M1588 1192v-332q-119 -44 -202.5 -53t-146.5 4t-119 34t-119 37t-146.5 14.5t-202.5 -36.5v332q119 44 202.5 51.5t146.5 -5.5t119 -34t119 -37t146.5 -13t202.5 38zM2116 1024q0 -342 -133 -576.5t-359 -355t-504 -120.5q-280 0 -505.5 121.5t-358 356t-132.5 574.5
q0 342 132.5 576.5t358 355t505.5 120.5q278 0 504 -120.5t359 -355t133 -576.5zM1544 1024q0 184 -48.5 310.5t-143 192t-232.5 65.5t-232.5 -65.5t-143 -192t-48.5 -310.5t48.5 -310.5t143 -192t232.5 -65.5t232.5 65.5t143 192t48.5 310.5z" />
    <glyph glyph-name="uni04EA" unicode="&#x4ea;" horiz-adv-x="2240" 
d="M1588 1192v-332q-119 -44 -202.5 -53t-146.5 4t-119 34t-119 37t-146.5 14.5t-202.5 -36.5v332q119 44 202.5 51.5t146.5 -5.5t119 -34t119 -37t146.5 -13t202.5 38zM2116 1024q0 -342 -133 -576.5t-359 -355t-504 -120.5q-280 0 -505.5 121.5t-358 356t-132.5 574.5
q0 342 132.5 576.5t358 355t505.5 120.5q278 0 504 -120.5t359 -355t133 -576.5zM1544 1024q0 184 -48.5 310.5t-143 192t-232.5 65.5t-232.5 -65.5t-143 -192t-48.5 -310.5t48.5 -310.5t143 -192t232.5 -65.5t232.5 65.5t143 192t48.5 310.5zM804 2228q-102 0 -173 68
t-71 164t71 164t173 68q99 0 169.5 -68t70.5 -164t-70.5 -164t-169.5 -68zM1440 2228q-102 0 -173 68t-71 164t71 164t173 68q99 0 169.5 -68t70.5 -164t-70.5 -164t-169.5 -68z" />
    <glyph glyph-name="uni0152" unicode="&#x152;" horiz-adv-x="2988" 
d="M1072 0q-264 0 -479.5 110t-342 336t-126.5 574q0 350 126.5 578t342 339t479.5 111h1772v-448h-920v-352h844v-448h-844v-352h916v-448h-1768zM1368 448v1152h-296q-110 0 -197 -51.5t-137 -178t-50 -350.5q0 -226 50 -350t137 -173t197 -49h296z" />
    <glyph glyph-name="uni0050" unicode="P" horiz-adv-x="1848" 
d="M132 0v2048h884q228 0 399 -90t266 -253t95 -381q0 -220 -97.5 -381t-273 -248t-409.5 -87h-528v432h416q98 0 167.5 34.5t107 98.5t37.5 151q0 88 -37.5 150.5t-107 96t-167.5 33.5h-196v-1604h-556z" />
    <glyph glyph-name="uni1E54" unicode="&#x1e54;" horiz-adv-x="1848" 
d="M132 0v2048h884q228 0 399 -90t266 -253t95 -381q0 -220 -97.5 -381t-273 -248t-409.5 -87h-528v432h416q98 0 167.5 34.5t107 98.5t37.5 151q0 88 -37.5 150.5t-107 96t-167.5 33.5h-196v-1604h-556zM720 2240l192 448h472l-300 -448h-364z" />
    <glyph glyph-name="uni1E56" unicode="&#x1e56;" horiz-adv-x="1848" 
d="M132 0v2048h884q228 0 399 -90t266 -253t95 -381q0 -220 -97.5 -381t-273 -248t-409.5 -87h-528v432h416q98 0 167.5 34.5t107 98.5t37.5 151q0 88 -37.5 150.5t-107 96t-167.5 33.5h-196v-1604h-556zM905 2208q-113 0 -193 74t-80 178t80 178t192 74q113 0 192.5 -74
t79.5 -178t-79.5 -178t-191.5 -74z" />
    <glyph glyph-name="uni048E" unicode="&#x48e;" horiz-adv-x="1912" 
d="M984 1364l568 -880l-180 -116l-568 880zM148 0v2048h884q228 0 399 -90t266 -253t95 -381q0 -220 -97.5 -381t-273 -248t-409.5 -87h-528v432h416q98 0 167.5 34.5t107 98.5t37.5 151q0 88 -37.5 150.5t-107 96t-167.5 33.5h-196v-1604h-556z" />
    <glyph glyph-name="uni01A4" unicode="&#x1a4;" horiz-adv-x="2528" 
d="M564 1196h-488v244q-1 194 85.5 330t245 207t373.5 71h916q228 0 399 -90t266 -253t95 -381q0 -220 -97.5 -381t-273 -248t-409.5 -87h-308v-608h-556v1604h-32q-85 0 -132.5 -40t-66 -100t-17.5 -120v-148zM1368 1040h196q98 0 167.5 34.5t107 98.5t37.5 151
q0 88 -37.5 150.5t-107 96t-167.5 33.5h-196v-564z" />
    <glyph glyph-name="uni03A1" unicode="&#x3a1;" horiz-adv-x="1848" 
d="M132 0v2048h884q228 0 399 -90t266 -253t95 -381q0 -220 -97.5 -381t-273 -248t-409.5 -87h-528v432h416q98 0 167.5 34.5t107 98.5t37.5 151q0 88 -37.5 150.5t-107 96t-167.5 33.5h-196v-1604h-556z" />
    <glyph glyph-name="uni1FEC" unicode="&#x1fec;" horiz-adv-x="2340" 
d="M568 0v2048h884q228 0 399 -90t266 -253t95 -381q0 -220 -97.5 -381t-273 -248t-409.5 -87h-528v432h416q98 0 167.5 34.5t107 98.5t37.5 151q0 88 -37.5 150.5t-107 96t-167.5 33.5h-196v-1604h-556zM148 1904v144h240v-136q1 -36 8 -76t29 -75t67 -57l-124 -152
q-85 36 -151.5 126.5t-68.5 225.5z" />
    <glyph glyph-name="uni0051" unicode="Q" horiz-adv-x="2244" 
d="M924 760h432l156 -196l264 -300l344 -416h-492l-244 284l-164 236zM2116 1024q0 -342 -133 -576.5t-359 -355t-504 -120.5q-280 0 -505.5 121.5t-358 356t-132.5 574.5q0 342 132.5 576.5t358 355t505.5 120.5q278 0 504 -120.5t359 -355t133 -576.5zM1544 1024
q0 184 -48.5 310.5t-143 192t-232.5 65.5t-232.5 -65.5t-143 -192t-48.5 -310.5t48.5 -310.5t143 -192t232.5 -65.5t232.5 65.5t143 192t48.5 310.5z" />
    <glyph glyph-name="uni0052" unicode="R" horiz-adv-x="1880" 
d="M132 0v2048h884q228 0 399 -83t266 -239t95 -374q0 -220 -97.5 -371t-273 -228t-409.5 -77h-528v432h416q98 0 167.5 24.5t107 78.5t37.5 141q0 88 -37.5 143.5t-107 82t-167.5 26.5h-196v-1604h-556zM1332 940l512 -940h-604l-500 940h592z" />
    <glyph glyph-name="uni0154" unicode="&#x154;" horiz-adv-x="1880" 
d="M132 0v2048h884q228 0 399 -83t266 -239t95 -374q0 -220 -97.5 -371t-273 -228t-409.5 -77h-528v432h416q98 0 167.5 24.5t107 78.5t37.5 141q0 88 -37.5 143.5t-107 82t-167.5 26.5h-196v-1604h-556zM1332 940l512 -940h-604l-500 940h592zM744 2240l192 448h472
l-300 -448h-364z" />
    <glyph glyph-name="uni0156" unicode="&#x156;" horiz-adv-x="1880" 
d="M132 0v2048h884q228 0 399 -83t266 -239t95 -374q0 -220 -97.5 -371t-273 -228t-409.5 -77h-528v432h416q98 0 167.5 24.5t107 78.5t37.5 141q0 88 -37.5 143.5t-107 82t-167.5 26.5h-196v-1604h-556zM1332 940l512 -940h-604l-500 940h592zM586 -640l132 478h496
l-252 -478h-376z" />
    <glyph glyph-name="uni0158" unicode="&#x158;" horiz-adv-x="1880" 
d="M132 0v2048h884q228 0 399 -83t266 -239t95 -374q0 -220 -97.5 -371t-273 -228t-409.5 -77h-528v432h416q98 0 167.5 24.5t107 78.5t37.5 141q0 88 -37.5 143.5t-107 82t-167.5 26.5h-196v-1604h-556zM1332 940l512 -940h-604l-500 940h592zM732 2700l196 -220l196 220
h456v-12l-460 -456h-384l-460 456v12h456z" />
    <glyph glyph-name="uni0210" unicode="&#x210;" horiz-adv-x="1880" 
d="M132 0v2048h884q228 0 399 -83t266 -239t95 -374q0 -220 -97.5 -371t-273 -228t-409.5 -77h-528v432h416q98 0 167.5 24.5t107 78.5t37.5 141q0 88 -37.5 143.5t-107 82t-167.5 26.5h-196v-1604h-556zM1332 940l512 -940h-604l-500 940h592zM858 2240h-364l-300 448h472z
M1390 2240h-354l-194 448h446z" />
    <glyph glyph-name="uni0212" unicode="&#x212;" horiz-adv-x="1880" 
d="M132 0v2048h884q228 0 399 -83t266 -239t95 -374q0 -220 -97.5 -371t-273 -228t-409.5 -77h-528v432h416q98 0 167.5 24.5t107 78.5t37.5 141q0 88 -37.5 143.5t-107 82t-167.5 26.5h-196v-1604h-556zM1332 940l512 -940h-604l-500 940h592zM376 2288q-1 195 147 319.5
t401 124.5q251 0 401 -124.5t151 -319.5h-348q-1 63 -47.5 113.5t-156.5 50.5q-109 0 -155 -50.5t-45 -113.5h-348z" />
    <glyph glyph-name="uni1E58" unicode="&#x1e58;" horiz-adv-x="1880" 
d="M132 0v2048h884q228 0 399 -83t266 -239t95 -374q0 -220 -97.5 -371t-273 -228t-409.5 -77h-528v432h416q98 0 167.5 24.5t107 78.5t37.5 141q0 88 -37.5 143.5t-107 82t-167.5 26.5h-196v-1604h-556zM1332 940l512 -940h-604l-500 940h592zM929 2208q-113 0 -193 74
t-80 178t80 178t192 74q113 0 192.5 -74t79.5 -178t-79.5 -178t-191.5 -74z" />
    <glyph glyph-name="uni1E5A" unicode="&#x1e5a;" horiz-adv-x="1880" 
d="M132 0v2048h884q228 0 399 -83t266 -239t95 -374q0 -220 -97.5 -371t-273 -228t-409.5 -77h-528v432h416q98 0 167.5 24.5t107 78.5t37.5 141q0 88 -37.5 143.5t-107 82t-167.5 26.5h-196v-1604h-556zM1332 940l512 -940h-604l-500 940h592zM961 -620q-113 0 -193 74
t-80 178t80 178t192 74q113 0 192.5 -74t79.5 -178t-79.5 -178t-191.5 -74z" />
    <glyph glyph-name="uni1E5C" unicode="&#x1e5c;" horiz-adv-x="1880" 
d="M132 0v2048h884q228 0 399 -83t266 -239t95 -374q0 -220 -97.5 -371t-273 -228t-409.5 -77h-528v432h416q98 0 167.5 24.5t107 78.5t37.5 141q0 88 -37.5 143.5t-107 82t-167.5 26.5h-196v-1604h-556zM1332 940l512 -940h-604l-500 940h592zM961 -620q-113 0 -193 74
t-80 178t80 178t192 74q113 0 192.5 -74t79.5 -178t-79.5 -178t-191.5 -74zM1428 2560v-252h-1000v252h1000z" />
    </font>
</defs>
</svg>
